#TITLE:R8U;
#SUBTITLE:;
#ARTIST:KeeL;
#TITLETRANSLIT:;
#SUBTITLETRANSLIT:;
#ARTISTTRANSLIT:;
#CREDIT:;
#BANNER:R8U.png;
#BACKGROUND:R8U-bg.png;
#LYRICSPATH:;
#CDTITLE:KaW Originals.png;
#MUSIC:R8U.mp3;
#OFFSET:-5.953;
#SAMPLESTART:42.968;
#SAMPLELENGTH:11.980;
#SELECTABLE:YES;
#BPMS:0.000=161.996;
#STOPS:;
#BGCHANGES:;

//---------------dance-single - Beginner----------------
#NOTES:
     dance-single:
     Beginner:
     Beginner:
     1:
     0.139,0.215,0.084,0.000,0.000:
0001
0000
0000
0000
,
1000
0000
0000
0000
,
0001
0000
0001
0000
,
0001
0001
0001
0000
,
1000
0000
0000
0000
,
0010
0000
0000
0000
,
0010
0000
0000
0000
,
0100
0000
0000
0000
,
0100
0000
0000
0000
,
1001
0000
0000
0000
,
1001
0000
0000
0000
,
1001
0000
0000
0000
,
1001
0000
0000
0000
,
0001
0000
0000
0000
,
0001
0000
0000
0000
,
1000
0000
0000
0000
,
1000
0000
0000
0000
,
0010
0000
0000
0000
,
0100
0000
0000
0000
,
0010
0000
0000
0000
,
0010
0010
0010
0000
,
1001
0000
0000
0000
,
0001
0000
0001
0000
,
1000
0000
1000
0000
,
0010
0010
0010
0000
,
0100
0000
0000
0000
,
0100
0000
0000
0000
,
0100
0000
0000
0000
,
0100
0100
0100
0100
,
1001
0000
0000
0000
,
0010
0000
0000
0000
,
1000
0000
0000
0000
,
0001
0000
0000
0000
,
0010
0000
0000
0000
,
0100
0000
0000
0000
,
1000
0000
0001
0000
,
1000
0000
0000
0000
,
0010
0000
0100
0000
,
0010
0000
0000
0000
,
0001
0000
1000
0000
,
0001
0000
1000
0000
,
0001
0000
1000
0000
,
0001
0000
0001
0000
,
1000
0000
0000
0000
,
1000
0000
0100
0000
,
0100
0000
0000
0000
,
0010
0010
0010
0000
,
0110
0000
0000
0000
,
0001
0000
1000
0000
,
0100
0000
0010
0000
,
0100
0000
0000
0000
,
0001
0000
0000
0000
,
1000
0000
0000
0000
,
1000
0000
0001
0000
,
1000
0000
1000
0000
,
0001
0000
0000
0000
,
1000
0000
0000
0000
,
0010
0000
0000
0000
,
0100
0000
0000
1001
;

//---------------dance-single - Basic----------------
#NOTES:
     dance-single:
     Basic:
     Easy:
     3:
     0.311,0.338,0.282,0.094,0.000: // measure 1
1001
0000
0001
0001
,  // measure 2
1001
0000
1000
1000
,  // measure 3
1001
0000
1001
0000
,  // measure 4
0110
0000
0000
0000
,  // measure 5
0002
0000
0000
0000
,  // measure 6
1003
0000
1000
1000
,  // measure 7
0001
0000
0010
0010
,  // measure 8
0100
0000
1000
1000
,  // measure 9
0010
0000
0100
0100
,  // measure 10
1001
0000
0001
0000
,  // measure 11
1000
0000
0000
0000
,  // measure 12
1001
0000
0000
0001
,  // measure 13
1000
0000
0001
0000
,  // measure 14
1001
0000
0100
0000
,  // measure 15
1001
0000
0010
0000
,  // measure 16
1001
0000
0100
0000
,  // measure 17
1001
1001
1001
0000
,  // measure 18
0001
0001
0001
0001
,  // measure 19
1000
1000
1000
1000
,  // measure 20
0100
0100
0100
0100
,  // measure 21
0010
0010
0010
0010
,  // measure 22
0110
0000
1001
0000
,  // measure 23
0001
1000
0100
0010
,  // measure 24
0100
1000
0001
0100
,  // measure 25
0001
0001
1000
1000
,  // measure 26
2002
0000
0000
3003
,  // measure 27
2002
0000
0000
3003
,  // measure 28
2002
0000
0000
3003
,  // measure 29
0100
0100
0100
0100
,  // measure 30
0110
0000
1001
0000
,  // measure 31
0001
1000
0100
0010
,  // measure 32
0100
1000
0001
0100
,  // measure 33
0010
1000
0100
1000
,  // measure 34
0001
0100
0010
1000
,  // measure 35
0100
0010
0100
1000
,  // measure 36
0001
0000
1000
0000
,  // measure 37
0001
0000
0000
0000
,  // measure 38
0001
0000
1000
0000
,  // measure 39
0001
0000
0000
0000
,  // measure 40
0110
0000
1001
0000
,  // measure 41
0110
0000
1001
0000
,  // measure 42
0110
0000
1001
0000
,  // measure 43
0001
0001
0001
0000
,  // measure 44
1000
1000
1000
1000
,  // measure 45
0001
0001
0001
0001
,  // measure 46
0010
0010
0010
0010
,  // measure 47
0100
0100
0100
0100
,  // measure 48
0100
1000
0001
1000
,  // measure 49
0001
0100
0010
1000
,  // measure 50
0100
0100
1000
1000
,  // measure 51
0001
0001
0001
0001
,  // measure 52
2000
0000
0000
3001
,  // measure 53
0002
0000
0000
1003
,  // measure 54
1000
0001
0100
0010
,  // measure 55
1000
0100
0010
0100
,  // measure 56
1000
1000
1000
1000
,  // measure 57
0001
0001
0001
0001
,  // measure 58
0100
0100
0100
0100
,  // measure 59
0010
0010
0010
1001
;

//---------------dance-single - Trick----------------
#NOTES:
     dance-single:
     Trick:
     Medium:
     7:
     0.461,0.583,0.324,0.010,0.073:
0001
0000
1000
0000
0001
0010
0001
0000
,
1000
0000
0100
0000
0010
0100
1000
0000
,
0010
0100
0001
0010
,
0001
0000
0010
0000
0001
0000
0010
0001
,
0200
0000
0000
0300
,
1001
0000
0100
0000
0010
0100
1000
0000
,
0001
0000
0100
0000
0010
0100
0001
0000
,
1000
0000
0001
0000
0100
0001
0010
0000
,
0100
0000
1000
0000
0001
0100
0001
0100
,
0001
0000
0000
0000
0000
1000
0000
0001
,
0100
0000
0000
0000
,
1000
0000
0000
0000
0000
0001
0000
1000
,
0100
0000
0010
0000
1000
0100
1000
0000
,
0001
0000
0010
0000
,
0100
1000
0001
0100
,
0010
0000
1000
0000
,
0001
0001
0010
0001
,
0011
0000
1100
0000
,
0101
0000
1010
0000
,
1001
0110
1100
0101
,
0011
0101
1100
1001
,
0001
0000
0100
0000
0001
0010
0001
0100
,
0001
0000
1000
0000
0100
0010
0100
1000
,
0001
0100
0010
1000
,
0100
0010
0100
0000
1000
0001
0100
0000
,
0001
0010
0100
0000
1000
0100
1000
0100
,
0010
0000
0100
0000
1000
0001
0100
0001
,
0010
0001
0100
0001
,
1000
1000
0001
0001
0100
0100
0010
0010
,
1000
0000
0100
0000
0010
0100
1000
0000
,
0001
0000
0100
0000
0010
1000
0010
0000
,
1000
0000
0100
0000
0010
0000
0100
1000
,
0001
0000
0100
0000
0001
0000
0010
0001
,
0100
0000
0010
0000
1000
0000
0100
1000
,
0001
0000
0100
0000
0001
0100
0001
1000
,
0100
0000
0000
0011
0000
0000
0000
0000
0100
0000
0000
0110
0000
0000
0000
0000
,
1000
0000
0000
0011
0000
0000
0000
0000
0000
0000
0000
0000
0000
0000
0000
0000
,
0001
0000
0000
1001
0000
0000
0000
0000
0100
0000
0000
1100
0000
0000
0000
0000
,
0010
0000
0000
1001
0000
0000
0100
0000
1000
0000
0000
1001
0000
0000
0000
0000
,
1000
0000
0000
0101
0000
0000
0000
0000
0000
0000
0000
0000
0000
0000
0000
0000
,
0001
0000
0000
0110
0000
0000
0010
0000
0100
0000
0000
0010
0000
0000
0100
0000
,
0010
0000
0000
1010
0000
0000
0000
0000
0000
0000
0000
0000
0000
0000
0000
0000
,
1001
0000
0000
0100
0000
0000
1000
0000
0100
0000
0000
0000
0000
0000
0000
0000
,
0001
0000
1000
0000
0100
0010
0100
0000
,
1000
0000
0001
0000
0100
0010
0100
0000
,
0001
1000
0100
0000
1000
0100
0010
0000
,
1001
0000
0000
1100
0000
0000
1001
0000
0000
0011
0000
0000
1001
0000
1100
0000
,
0100
1000
0100
0000
0010
0001
0100
0000
,
0001
1000
0100
0000
0010
0100
1000
0000
,
0001
0100
0001
0100
0001
0010
0001
0000
,
1000
0100
1000
0000
0100
0010
0100
0000
,
1000
0001
0100
0001
0010
0000
0001
0000
,
1000
0100
0010
0100
1000
0000
0010
0000
,
0100
0010
1000
0000
0100
0010
0001
0000
,
0100
0001
1000
0100
0010
0100
1000
0001
,
0100
0001
1000
0100
,
0010
0100
1000
0000
0001
0000
0100
0000
,
0010
0100
0001
0000
0010
0000
0001
0000
,
1000
0100
1000
0100
1000
0000
1001
0000
;

//---------------dance-single - Maniac----------------
#NOTES:
     dance-single:
     Maniac:
     Hard:
     9:
     0.688,0.676,0.512,0.157,0.335:
0010
0100
0010
0000
0100
0000
1000
0000
0001
0000
0100
0000
0010
0000
1000
0000
,
0100
0010
0100
0000
1000
0001
1000
0000
0001
0000
0010
0000
0100
0000
1000
0000
,
0100
0000
1000
0000
0100
0000
0010
0001
0000
0010
0000
0100
0010
0000
0001
0000
,
0010
0100
0010
0000
0100
0000
1000
0000
0001
0000
0100
0000
0010
0000
0100
0000
,
2002
0000
3003
0000
,
0010
0000
0000
0001
0000
0000
0100
0000
0010
0000
1000
0000
0100
0000
0000
0000
,
0010
0000
0000
0001
0000
0000
1000
0000
0010
0000
1000
0000
0100
0000
0000
0000
,
1000
0000
0000
0001
0000
0000
0100
0000
0010
0000
1000
0000
0100
0000
0000
0000
,
0010
0000
0000
0001
0000
0000
0100
0000
0001
0000
0010
0000
0100
0000
1000
0000
,
1001
0000
0000
0011
0000
0000
1000
0000
0100
0000
1000
0000
0001
0000
0000
0000
,
1001
0000
0000
0011
0000
0000
0001
0000
0010
0000
0001
0000
1000
0000
0000
0000
,
1001
0000
0000
0110
0000
0000
0100
0000
1000
0000
0001
0000
0100
0000
0000
0000
,
1001
0000
0000
0010
0000
0000
0001
0000
1000
0000
0100
0000
0010
0000
0100
0000
,
1000
0001
0100
0001
0010
0100
1000
0010
,
0100
0001
0010
0100
1000
0001
1000
0010
,
0100
0010
1000
0100
0010
0100
1000
0001
,
0100
0001
0010
0001
0100
0001
1000
0000
,
0002
0000
0000
0000
0000
1000
1003
0000
,
2000
0000
0000
0000
0000
0100
3100
0000
,
0002
0000
0000
0000
0000
0010
0013
0000
,
2000
0000
0000
0000
0010
0010
0010
0010
,
3010
0000
0000
0000
1000
0001
1000
0000
0100
0000
0010
0000
0100
0000
1000
0000
,
0001
0010
0001
0000
0010
0001
0010
0000
0001
0000
1000
0000
0100
0000
1000
0000
,
0100
0000
1000
0000
0001
0000
0010
0001
0000
0100
0000
0001
1000
0000
0100
0000
,
0010
0100
0010
0000
0100
0000
0010
0000
0100
1000
0100
0000
1000
0000
0100
0000
,
2001
0000
0000
0000
0000
0001
3001
0000
,
0012
0000
0000
0000
0000
1000
1003
0000
,
0220
0000
0000
0330
,
1000
0001
0010
0100
1000
0001
0010
0001
,
0100
0010
0100
0010
0000
1000
0100
1000
0100
0000
0010
0000
0001
0000
1000
0000
,
0001
0000
1000
0000
0001
0000
1000
0000
0001
1000
0001
1000
0000
0000
0000
0000
,
0001
0010
0100
1000
0010
0100
0010
1000
,
0010
0001
0010
1000
0100
0010
1000
0010
,
0001
0100
0010
1000
0100
0010
0001
0100
,
0010
1000
0100
0010
0100
1000
1001
0000
,
1001
0000
0000
1100
0000
0000
0101
0000
1001
0000
0000
1100
0000
0000
0110
0000
,
1001
0000
0000
1100
0000
0000
0001
0000
1001
0000
0000
0000
0000
0000
0000
0000
,
1100
0000
0000
1001
0000
0000
0010
0000
1001
0000
0000
0010
0000
0000
0011
0000
,
1001
0000
0000
1100
0000
0000
1100
0000
1000
0100
1000
0200
0000
0000
0000
0000
,
1300
0000
0000
1001
0000
0000
0100
0000
0011
0000
0000
0001
0000
0000
1001
0000
,
1100
0000
0000
1000
0000
0000
1000
0000
1001
0000
0000
0010
0000
0000
0110
0000
,
1100
0000
0000
1001
0000
0000
1000
0000
1100
0000
0000
0001
0000
0000
1000
0000
,
1001
0000
0000
1000
0000
0000
0110
0000
1100
0000
0000
0000
1001
0000
0000
0000
,
0001
1000
0100
0010
0100
1000
0001
0100
,
0010
1000
0010
0100
0001
0010
0100
1000
,
0001
0100
0001
1000
0100
0010
0100
1000
,
0001
0000
0000
1000
0000
0000
0110
0000
0000
0110
0000
0000
1001
0000
1001
0000
,
0100
1000
0100
0000
1000
0000
0001
0000
0100
0000
0001
0000
0010
0000
0100
0000
,
1000
0001
1000
0000
0001
1000
0001
0000
0010
0000
0100
0000
1000
0000
0001
0000
,
0100
0000
0010
0000
0100
0000
0010
1000
0000
0010
0000
1000
0001
0000
0010
0000
,
0001
0010
0001
0000
0010
0000
0100
0000
1000
0100
1000
0000
0100
0000
0010
0000
,
0120
0000
0000
0000
0000
0100
0130
0000
,
2001
0000
0000
0000
0000
0001
3001
0000
,
2200
0000
0000
3300
,
0010
0001
0100
0010
1000
0100
0010
0001
,
0100
0010
0100
0000
0010
0000
1000
0001
0000
1000
0001
0000
1000
0000
0000
0000
,
0010
0001
0010
0000
0001
0000
0010
0001
0000
0001
0100
0000
0010
0000
0000
0000
,
0100
0010
0100
0000
0010
0000
1000
0010
0000
0010
1000
0000
0001
0000
0000
0000
,
1000
0000
0100
0000
1000
0000
0001
0100
0000
0000
0000
0000
1001
0000
0000
0000
;
