#TITLE:QUEEN OF LIGHT;
#SUBTITLE:;
#ARTIST:MISSING HEART;
#TITLETRANSLIT:;
#SUBTITLETRANSLIT:;
#ARTISTTRANSLIT:;
#CREDIT:;
#BANNER:QUEEN OF LIGHT.png;
#BACKGROUND:QUEEN OF LIGHT-bg.png;
#LYRICSPATH:;
#CDTITLE:Mystery.png;
#MUSIC:QUEEN OF LIGHT.mp3;
#OFFSET:-1.848;
#SAMPLESTART:59.960;
#SAMPLELENGTH:12.000;
#SELECTABLE:YES;
#BPMS:0.000=132.000;
#STOPS:;
#BGCHANGES:;

//---------------dance-single - ----------------
#NOTES:
     dance-single:
     :
     Hard:
     8:
     0.452,0.447,0.136,0.545,0.029: // measure 1
0000
0000
0000
0000
,  // measure 2
0000
0000
0000
0000
,  // measure 3
0000
0000
0000
0000
,  // measure 4
0000
0000
0000
0000
,  // measure 5
0002
1000
0100
0013
,  // measure 6
2000
0001
0100
3010
,  // measure 7
0001
0100
1000
0100
,  // measure 8
0021
0032
0203
2300
,  // measure 9
3020
0001
0100
0031
,  // measure 10
0200
1000
0010
1300
,  // measure 11
0001
0010
1000
0100
,  // measure 12
2010
3200
0302
0023
,  // measure 13
1030
0200
0000
0001
0000
1300
0000
0000
,  // measure 14
0001
0200
0000
1000
0000
0301
0000
0000
,  // measure 15
1000
0020
0000
0001
0000
1030
0000
0000
,  // measure 16
0001
0020
0000
1000
0000
0031
0000
0000
,  // measure 17
1000
0100
0020
0001
0000
1000
0000
0100
,  // measure 18
0000
0031
0000
0100
1000
0100
0001
0010
,  // measure 19
0100
1000
0001
0200
0000
0001
0000
1000
,  // measure 20
0000
0010
0000
1300
0100
0001
0010
0100
,  // measure 21
1000
0010
0000
0100
0000
0001
0000
1000
,  // measure 22
0000
0010
0000
0001
0000
0100
0001
1000
,  // measure 23
0100
0100
0000
0001
0000
0010
0000
1000
,  // measure 24
0000
0100
0000
0001
0000
1000
0000
0010
,  // measure 25
1000
0001
0200
0010
0000
1000
0000
0001
,  // measure 26
0000
0310
0000
1000
0100
0001
0010
0100
,  // measure 27
1000
0010
0020
0100
0000
1000
0000
0001
,  // measure 28
0000
0130
0000
0001
0010
1000
0100
0010
,  // measure 29
0001
0000
0000
0100
0001
0000
0100
0000
0010
0000
0000
0001
0010
0000
0001
0000
,  // measure 30
1000
0000
0000
0100
1000
0000
0100
0000
0001
0000
0000
0100
0001
0000
0100
0000
,  // measure 31
0010
0000
0000
1000
0000
0000
0100
0000
0100
0000
0000
0001
0000
0000
0100
0000
,  // measure 32
2002
0003
0200
3300
,  // measure 33
0001
0100
0010
0001
0010
1000
0100
0010
,  // measure 34
0001
0100
0010
1000
0100
0010
0001
1000
,  // measure 35
0010
0001
0010
1000
0100
1000
0001
0010
,  // measure 36
0210
0301
0120
1030
,  // measure 37
0001
0100
1000
0100
0010
1000
0100
0010
,  // measure 38
0001
0100
0010
1000
0100
0001
0100
1000
,  // measure 39
0001
0100
0010
0001
0010
1000
0001
0100
,  // measure 40
0120
1030
0210
0301
,  // measure 41
0020
0000
1030
0200
0001
0000
0010
0000
,  // measure 42
0302
0000
0103
1000
0020
0000
0130
0000
,  // measure 43
0011
0000
1000
0200
0010
0000
0310
0000
,  // measure 44
0002
0203
2300
3020
,  // measure 45
0230
0000
0301
0200
1000
0000
0010
0000
,  // measure 46
2300
0000
3100
0002
1000
0000
0013
0000
,  // measure 47
1100
0000
0001
0200
0010
0000
0310
0100
,  // measure 48
0002
0203
2300
3020
,  // measure 49
0032
0000
1000
0013
,  // measure 50
0200
0300
0011
1100
,  // measure 51
2000
0000
0001
3010
,  // measure 52
0200
0300
1010
0101
,  // measure 53
0002
0203
2300
3200
,  // measure 54
0302
0023
2030
3010
,  // measure 55
0110
0000
0000
0000
;

//---------------dance-double - ----------------
#NOTES:
     dance-double:
     :
     Medium:
     5:
     0.268,0.342,0.117,0.000,0.029:
00000000
00000000
00000000
00000000
,
00000000
00000000
00000000
00000000
,
00000000
00000000
00000000
00000000
,
00000000
00000000
00000000
00000000
,
00100000
10000000
01000000
00010000
,
00000010
00000001
00000100
00001000
,
00100000
10000000
01000000
00010000
,
00000010
00000000
00100000
00000000
,
00010000
01000000
10000000
00100000
,
00001000
00000100
00000001
00000010
,
00010000
01000000
10000000
00100000
,
01000000
00000000
00000100
00000000
,
00011000
00000000
00000000
00000000
,
10010000
00000000
00000000
00000000
,
00011000
00000000
00000000
00000000
,
00001001
00000000
00000000
00000000
,
00000000
00000001
00000000
00000100
00000000
00000010
00000000
00001000
,
00000000
00000001
00000100
00001000
00010000
00100000
00000000
10000000
,
00000000
01000000
00000000
00100000
00000000
00010000
00000000
01000000
,
00000000
00100000
10000000
01000000
00010000
00001000
00000000
00010000
,
01000000
00000000
00000100
00000000
,
00000010
00000000
00100000
00000000
,
10000000
00000000
00001000
00000000
,
00010000
00000000
00000001
00000000
,
00000000
00001000
00000000
00010000
00000000
10000000
00000000
01000000
,
00000000
00010000
01000000
00100000
10000000
01000000
00000000
00010000
,
00000000
00001000
00000000
00000001
00000000
00001000
00000000
00000010
,
00000000
00000100
00000001
00000010
00000100
00001000
00000000
00000001
,
00000100
00000000
00000000
00000100
00000000
00000000
00000000
00000000
00000010
00000000
00000000
00000010
00000000
00000000
00000000
00000000
,
00001000
00000000
00000000
00010000
00000000
00000000
00000000
00000000
00100000
00000000
00000000
10000000
00000000
00000000
00000000
00000000
,
01000000
00000000
00000000
01000000
00000000
00000000
00000000
00000000
00100000
00000000
00000000
00100000
00000000
00000000
00000000
00000000
,
00101000
00000000
00010010
00000000
,
00001000
00000000
00000001
00000010
00000000
00000000
00000000
00000000
,
00000100
00001000
00010000
00001000
00010000
00000000
00000000
00000000
,
00100000
00000000
10000000
01000000
00000000
00000000
00000000
00000000
,
00100000
00010000
00001000
00000100
,
00000010
00000000
00010000
00001000
00000000
00000000
00000000
00000000
,
00100000
00001000
00010000
00001000
00010000
00000000
00000000
00000000
,
01000000
00000000
10000000
00100000
00000000
00000000
00000000
00000000
,
00010000
00001000
00000010
00000001
,
00001000
00000100
00000010
00000001
00000000
00000000
00000100
00000000
,
00000010
00000001
00000100
00001000
00000000
00000000
00000100
00000000
,
00001000
00010000
01000000
10000000
00000000
00000000
00010000
00000000
,
10000000
01000000
10000000
00000000
00010000
01000000
00010000
00000000
,
00100000
10000000
01000000
00010000
00000000
00000000
00001000
00000000
,
00010000
00001000
00000010
00000001
00000000
00000000
00000100
00000000
,
00000001
00001000
00000100
00000010
00000000
00000000
00000001
00000000
,
00001000
00000100
00001000
00000000
00000001
00000100
00000001
00000000
,
00000110
00000000
00000100
00000000
,
00001000
00000000
00010100
01001000
,
10000000
00000000
00010000
00000000
,
00100000
00000000
00101000
00010010
,
00000100
00000000
00000100
00000000
,
01000000
00000000
01000000
00000000
,
01100000
00000000
00000000
00000000
;

//---------------dance-double - ----------------
#NOTES:
     dance-double:
     :
     Hard:
     8:
     0.498,0.552,0.068,0.292,0.127:
00000000
00000000
00000000
00000000
,
00000000
00000000
00000000
00000000
,
00000000
00000000
00000000
00000000
,
00000000
00000000
00000000
00000000
,
00100000
10000000
01000000
00010000
00001000
00100000
00001000
00010000
,
00000010
00001000
00000100
00000001
00000100
00000010
00000001
00001000
,
00000010
00000001
00000010
00001000
00000100
00010000
00001000
00000100
,
00010000
01000000
10000000
00100000
,
00010000
00001000
00000100
00000001
00000100
00000010
00001000
00000100
,
00000001
00000100
00010000
00001000
00000100
00001000
00010000
01000000
,
00100000
00010000
10000000
01000000
00010000
01000000
00100000
00010000
,
01000000
00001000
00010000
00000010
,
00000100
00001000
00000000
00010000
00000000
01000000
10000000
00000000
,
00200000
01000000
00000000
01000000
00000000
01300000
00100000
00000000
,
10000000
00100000
00000000
00010000
00000000
00001000
00000010
00000000
,
00000200
00000010
00000000
00000010
00000000
00000310
00000100
00000000
,
00001000
00000100
00001000
00000000
00000001
00000010
00000001
00000000
,
00000100
00001000
00010000
01000000
10000000
00100000
01000000
00000000
,
00010000
01000000
00010000
00000000
10000000
00100000
10000000
00000000
,
01000000
00010000
00001000
00000100
00000001
00001000
00000100
00000000
,
00001000
00000100
00001000
00001000
00000001
00000100
00000001
00000001
,
00000100
00001000
00010000
00010000
00001000
00010000
01000000
01000000
,
10000000
00100000
01000000
01000000
00010000
00100000
01000000
01000000
,
00010000
00001000
00000100
00000100
00000010
00001000
00000100
00000100
,
00000010
00000000
00000000
00000001
00000000
00000000
00000010
00000000
00000001
00000000
00000000
00000100
00000000
00000000
00000001
00000000
,
00000010
00000000
00000000
00001000
00000000
00000000
00010000
00000000
00001000
00000000
00000000
00000010
00000000
00000000
00001000
00000000
,
00010000
00000000
00000000
00100000
00000000
00000000
00010000
00000000
00001000
00000000
00000000
00010000
00000000
00000000
00100000
00000000
,
00010000
00000000
00000000
00001000
00000000
00000000
00100000
00000000
00010000
00000000
00000000
01000000
00000000
00000000
00100000
00000000
,
20000000
00000000
00000000
01000000
00000000
00000000
31000000
00000000
00200000
00000000
00000000
00010000
00000000
00000000
00310000
00000000
,
02000000
00000000
00000000
00001000
00000000
00000000
03001000
00000000
00020000
00000000
00000000
00000010
00000000
00000000
00030010
00000000
,
00002000
00000000
00000000
00000100
00000000
00000000
00003100
00000000
00000002
00000000
00000000
00000100
00000000
00000000
00000103
00000000
,
00001100
00000000
01010000
00000000
,
10000000
01000000
10000000
00000000
00010000
01000000
00010000
00000000
10000000
00000000
01000000
00000000
00100000
00000000
00010000
00000000
,
01000000
00100000
01000000
00000000
00010000
01000000
00010000
00000000
00100000
00000000
01000000
00000000
00010000
00000000
00001000
00000000
,
00000100
00000010
00000100
00000000
00000001
00001000
00000001
00000000
00000100
00000000
00000010
00000000
00001000
00000000
00000100
00000000
,
00000012
00000203
00002300
00023000
,
00031000
00010000
00001000
00000000
00010000
00000100
00010000
00000000
00001000
00000000
00010000
00000000
01000000
00000000
00100000
00000000
,
00010000
10000000
00010000
00000000
10000000
01000000
10000000
00000000
01000000
00000000
00100000
00000000
00001000
00000000
01000000
00000000
,
00010000
00100000
00010000
00000000
00100000
00001000
00100000
00000000
00001000
00000000
00010000
00000000
00100000
00000000
10000000
00000000
,
01020000
00230000
00302000
00003020
,
00000032
00000000
00000103
00000010
00001000
00000100
00000010
00000001
,
00000200
00000000
00001300
00010000
00100000
00010000
00001000
00100000
,
00020000
00000000
01030000
00100000
10000000
01000000
00010000
01000000
,
00200000
00320000
02030000
03200000
,
20300000
00000000
31000000
00010000
00001000
00000100
00000001
00001000
,
00000020
00000000
00000130
00000001
00001000
00000100
00010000
00001000
,
00000200
00000000
00000310
00001000
00000100
00010000
00001000
00010000
,
00200000
02300000
03002000
00023000
,
01030000
11000000
00000000
00000000
,
00100000
00000000
01000000
00000000
00100000
01000000
00100000
01000000
,
00100000
00011000
00000000
00000000
,
00000010
00000000
00000100
00000000
00000010
00000100
00000010
00000100
,
00000010
00001000
00100000
00010000
,
00000100
00001000
01000000
00010000
,
00011000
00000000
00000000
00000000
;

//---------------dance-double - ----------------
#NOTES:
     dance-double:
     :
     Easy:
     4:
     0.234,0.236,0.127,0.097,0.000:
00000000
00000000
00000000
00000000
,
00000000
00000000
00000000
00000000
,
00000000
00000000
00000000
00000000
,
00000000
00000000
00000000
00000000
,
00010000
10000000
00020000
00030000
,
01000000
00001000
00010000
00000010
,
00001000
00000001
00002000
00003000
,
00000010
00001000
00010000
01000000
,
00010000
10000000
00020000
00030000
,
01000000
00001000
00010000
00000010
,
00001000
00000001
00002000
00003000
,
00000010
00001000
00010000
01000000
,
10000000
00000000
10000000
00000000
,
00010000
00000000
00010000
00000000
,
00001000
00000000
00001000
00000000
,
00000001
00000000
00000001
00000000
,
00000001
00000000
00000000
00000100
00000000
00000010
00000000
00000000
,
00000001
00000100
00000010
00001000
,
00000100
00000000
00000000
00010000
00000000
00001000
00000000
00000000
,
00010000
00100000
00010000
00001000
,
01000000
01000000
01000000
00000000
,
00010000
00010000
00010000
00000000
,
10010000
00000000
00000000
00000000
,
10000000
01000000
00100000
01000000
,
10000000
00000000
00000000
01000000
00000000
00100000
00000000
00000000
,
10000000
01000000
00100000
00010000
,
01000000
00000000
00000000
00001000
00000000
00010000
00000000
00000000
,
00001000
00000010
00001000
00010000
,
00000100
00000100
00000100
00000000
,
00001000
00001000
00001000
00000000
,
00001001
00000000
00000000
00000000
,
00000020
00000000
00000200
00000330
,
00000011
00000000
00000100
00000000
,
00001100
00000000
00000010
00000000
,
00011000
00000000
01000000
00000000
,
00100000
10000000
01000000
00010000
,
10100000
00000000
01000000
00000000
,
01010000
00000000
00100000
00000000
,
00011000
00000000
00000100
00000000
,
00000010
00000001
00000100
00001000
,
00000010
00000100
00000010
00000100
,
00000001
00000010
00000100
00010000
,
00001000
00100000
01000000
10000000
,
01100000
00000000
01100000
00000000
,
10000000
01000000
10000000
01000000
,
00100000
00001000
00010000
00000100
,
00001000
00000010
00001000
00000010
,
00000110
00000000
00001001
00000000
,
00000020
00000030
00000000
00000000
,
00000002
00000003
00001000
00001000
,
00020000
00030000
00000000
00000000
,
02000000
03000000
00010000
00010000
,
00100000
00000000
10000000
00000000
,
00010000
00000000
01000000
00000000
,
10010000
00000000
00000000
00000000
;

//---------------dance-single - ----------------
#NOTES:
     dance-single:
     :
     Medium:
     6:
     0.373,0.447,0.165,0.487,0.015:
0000
0000
0000
0000
,
0000
0000
0000
0000
,
0000
0000
0000
0000
,
0000
0000
0000
0000
,
1000
0000
0010
0100
0000
0000
0000
0000
,
0001
0000
0010
0100
0000
0000
0000
0000
,
1000
0000
0010
0100
0000
0000
0000
0000
,
0002
0010
1000
0103
,
0010
0000
1000
0100
0000
0000
0001
0000
,
0010
0000
0001
0100
0000
0000
1000
0000
,
0010
0000
1000
0100
0000
0000
0001
0000
,
2000
0010
0001
3100
,
0001
0010
0000
0110
0000
1001
0000
0000
,
1000
0100
0000
0110
0000
1001
0000
0000
,
0010
0100
0000
1100
0000
0101
0000
0000
,
0010
0100
0000
0101
0000
1100
0000
0000
,
0001
0100
0001
0100
0001
0100
0001
0100
,
0010
1000
0001
0010
,
1000
0100
1000
0100
1000
0100
1000
0100
,
0010
0001
1000
0010
,
0002
1003
2000
3100
,
0200
0000
0310
0000
0020
0000
0031
0002
,
0000
0103
0000
0000
0000
0000
0000
0000
,
0020
2030
3002
0203
,
0310
0100
0010
0100
0001
1000
0001
1000
,
0100
0010
0100
0001
,
1000
0100
1000
0100
0010
0001
0010
0001
,
1000
0010
0001
0100
,
0001
0000
0000
0001
0000
0000
0001
0000
0020
0000
0000
0000
0130
0000
0000
0000
,
1000
0000
0000
1000
0000
0000
1000
0000
0020
0000
0000
0000
0130
0000
0000
0000
,
0001
0000
0000
0001
0000
0000
0001
0000
0200
0000
0000
0000
0310
0000
0000
0000
,
2000
0000
0002
3003
,
0020
2030
3200
0302
,
0203
2300
3020
0230
,
0301
0010
0001
0000
0100
0000
1001
0000
,
0200
0010
0010
0310
,
0002
0023
2030
3020
,
0032
0203
2300
3200
,
0301
1000
0001
0000
0100
0000
1001
0000
,
0020
0100
0100
0130
,
2001
0000
0000
3100
0000
0000
0010
0000
,
0021
0000
0000
0130
0000
0000
1000
0000
,
1020
0000
0000
0130
0000
0000
0010
0000
,
2000
3001
0002
1003
,
0012
0000
0000
0103
0000
0000
0010
0000
,
2010
0000
0000
3100
0000
0000
0010
0000
,
0210
0000
0000
0001
0000
0000
1300
0000
,
0002
0203
2300
3020
,
0230
0000
0000
0000
,
0320
0000
1000
0031
,
2000
0000
0000
0000
,
3002
0000
0010
0103
,
1000
1000
0001
0001
,
1000
0100
0001
0010
,
1001
0000
0000
0000
;

//---------------dance-single - ----------------
#NOTES:
     dance-single:
     :
     Easy:
     4:
     0.250,0.289,0.107,0.399,0.000:
0000
0000
0000
0000
,
0000
0000
0000
0000
,
0000
0000
0000
0000
,
0000
0000
0000
0000
,
0002
1003
1000
1000
,
2000
3001
0001
0001
,
0200
0310
0010
0010
,
0110
0000
1001
0000
,
0200
1300
0010
0100
,
0002
0013
0100
1000
,
0020
0130
0001
1000
,
0101
0000
1100
0000
,
2002
0000
0000
0000
,
0000
0000
0000
0000
,
0000
0000
0000
0000
,
0000
0000
0000
3003
,
0010
1000
0010
0001
,
1000
0100
0001
0100
,
0010
0001
0010
1000
,
0001
0100
1000
0100
,
0010
0000
0010
0000
,
1000
0000
1000
0000
,
0001
0000
0001
0000
,
0100
0000
0200
0310
,
0002
0103
1000
0100
,
0002
0103
1000
0100
,
0002
0013
1000
0010
,
0002
0013
1000
0010
,
0002
0003
0002
0003
,
0200
0300
0200
0300
,
0020
0030
0020
0030
,
2000
3000
2000
3001
,
0100
0100
0100
0100
,
0101
0000
0010
0100
,
1100
0000
0000
0000
,
0010
0000
0010
1001
,
0100
0000
0001
0010
,
1100
0000
0001
1100
,
0001
0000
0000
0000
,
2000
3002
2003
3002
,
0203
0000
0000
0300
,
0020
0000
0000
0030
,
0200
0000
0000
0300
,
0002
2003
3002
2003
,
3020
0000
0000
0030
,
0200
0000
0000
0300
,
0020
0000
0000
0030
,
2000
3200
0320
0032
,
0103
0000
0000
0000
,
0002
0000
1000
1003
,
0100
0000
0000
0000
,
2000
0000
0001
3001
,
0010
0000
1000
0000
,
0100
0000
0001
0000
,
0110
0000
0000
0000
;

//---------------dance-single - ----------------
#NOTES:
     dance-single:
     :
     Beginner:
     1:
     0.135,0.210,0.029,0.000,0.000:
0000
0000
0000
0000
,
0000
0000
0000
0000
,
0000
0000
0000
0000
,
0000
0000
0000
0000
,
0001
0000
0000
0000
,
1000
0000
0000
0000
,
0100
0000
0000
0000
,
0100
0000
0100
0000
,
0100
0000
0010
0000
,
0010
0000
0100
0000
,
0001
0000
1000
0000
,
1000
0000
0001
0000
,
0100
0100
0000
0000
,
0100
0100
0000
0000
,
0100
0100
0000
0000
,
0100
0100
0000
0000
,
1000
0000
0100
0000
,
0001
0000
0100
0000
,
1000
0000
0010
0000
,
0001
0000
0010
0000
,
1000
0000
0000
0000
,
1000
0000
0000
0000
,
0001
0000
0000
0000
,
0001
0000
0000
0000
,
0001
0000
0010
0000
,
1000
0000
0010
0000
,
0001
0000
0100
0000
,
1000
0000
0100
0000
,
0001
0000
0001
0000
,
1000
0000
1000
0000
,
0001
0000
0001
0000
,
1000
0000
1000
0000
,
0100
0100
0100
0000
,
1001
0000
0100
0100
,
0100
0000
0000
0000
,
0010
0000
0010
0000
,
0001
0001
0001
0000
,
1000
0000
0001
0001
,
0001
0000
0000
0000
,
0010
0010
0010
0010
,
0010
0000
0000
0000
,
0010
0000
0000
0000
,
0100
0000
0000
0000
,
1000
1000
1000
1000
,
1000
0000
0000
0000
,
0100
0000
0000
0000
,
0010
0000
0000
0000
,
0001
0001
0001
0001
,
0001
0000
0000
0000
,
0001
0000
0010
0010
,
0010
0000
0000
0000
,
1000
0000
0100
0100
,
0100
0000
0000
0000
,
1001
0000
0000
0000
,
1001
0000
0000
0000
;
