#TITLE:Possession;
#SUBTITLE:(Chris Paul Club Remix);
#ARTIST:Jyongri;
#TITLETRANSLIT:;
#SUBTITLETRANSLIT:;
#ARTISTTRANSLIT:;
#CREDIT:;
#BANNER:Possession (Chris Paul Club Remix).png;
#BACKGROUND:Possession (Chris Paul Club Remix)-bg.png;
#LYRICSPATH:;
#CDTITLE:cd.png;
#MUSIC:Possession (Chris Paul Club Remix).mp3;
#OFFSET:-8.215;
#SAMPLESTART:74.118;
#SAMPLELENGTH:12.000;
#SELECTABLE:YES;
#BPMS:0.000=131.005;
#STOPS:;
#BGCHANGES:;

//---------------dance-single - Basic----------------
#NOTES:
     dance-single:
     Basic:
     Easy:
     3:
     0.196,0.196,0.009,0.000,0.000:
0001
0000
1000
0000
,
0001
0000
1000
0000
,
0010
0000
0100
0000
,
0010
0000
0000
0000
,
1000
0001
1000
0001
,
1000
0000
0001
0000
,
0100
0010
0100
0010
,
0100
0000
0010
0000
,
1000
0010
1000
0010
,
1000
0000
0010
0000
,
0100
0001
0100
0001
,
0100
0000
0001
0000
,
1000
0001
0100
0000
,
0100
0001
1000
0000
,
0010
0100
0001
0000
,
0001
0100
0010
0000
,
1000
1000
0010
0000
,
0100
0100
0001
0000
,
0001
0001
0010
0000
,
0100
0100
1000
0000
,
0001
1000
0001
0000
,
1000
0001
1000
0000
,
0010
0100
0010
0000
,
0100
0010
0100
0000
,
0001
1000
0010
0000
,
1000
0001
0010
0000
,
0100
0010
1000
0000
,
0010
0100
0001
0000
,
1000
0000
0010
0000
,
1000
0000
0001
0000
,
0100
0000
0001
0000
,
1000
0000
0100
0000
,
0001
0000
1000
0000
,
0001
0000
1000
0000
,
0010
0010
0010
0000
,
0100
0100
0100
0000
,
0001
1000
0001
1000
,
0010
0000
0100
0000
,
0010
0100
0010
0100
,
0001
0000
1000
0000
,
0010
1000
0010
1000
,
0001
0000
0100
0000
,
0010
0010
0100
0100
,
0010
0000
0010
0000
,
0100
0001
0100
0001
,
1000
0000
0010
0000
,
0100
1000
0100
1000
,
0001
0000
0010
0000
,
0001
1000
0001
1000
,
0100
0000
0000
0000
,
0001
1000
0010
0100
,
0001
0000
1000
0000
,
1001
0000
0000
0000;

//---------------dance-single - Trick----------------
#NOTES:
     dance-single:
     Trick:
     Medium:
     5:
     0.347,0.416,0.198,0.104,0.000:
0001
0000
1000
0000
,
0010
0000
0100
0000
,
0001
0001
0001
0000
,
1000
1000
1000
0000
,
0011
0001
1000
0010
,
1000
0100
1000
0000
0010
0000
0000
0000
,
1100
1000
0001
0100
,
0010
0100
0010
0000
0100
0001
1000
0000
,
0101
0100
0010
1000
,
0100
1000
0100
0000
0010
0000
0000
0000
,
0100
0010
0100
0010
1000
0001
1000
0001
,
1000
0001
0100
0000
,
1000
0001
0100
0000
0001
0000
1000
0000
,
0010
1000
0001
0000
0100
0000
0010
0000
,
1000
0100
0010
0000
0001
0000
1000
0000
,
0010
0000
1000
1000
,
0002
0010
0100
1003
,
2000
0100
0010
3001
,
1000
0000
0100
0000
0001
1000
0001
0000
,
0001
0000
0010
0000
1000
0001
1000
0000
,
0010
0100
0001
0000
0010
0000
0001
0000
,
0100
0010
1000
0000
0100
0000
1000
0000
,
0001
0010
0001
0000
0010
0000
0000
0000
,
0001
2000
0100
3100
,
0001
1000
0010
0000
1000
0000
1000
0000
,
0001
1000
0010
0000
0100
0000
0100
0000
,
0010
1000
0001
0000
0100
0000
0100
0000
,
0010
1000
0001
0000
1000
0000
1000
0000
,
1001
0000
1000
0100
,
0001
0000
0100
0000
,
1000
0100
0001
0100
,
1000
0000
0100
0000
,
2200
3300
0202
0303
,
0022
0033
2020
3030
,
1000
0100
1000
0100
1000
0000
0001
0010
,
0001
1000
0010
1000
0001
0000
1000
0000
,
1001
1100
0001
0001
,
0100
0010
1000
0000
0001
0000
0000
0000
,
1010
0101
1000
1000
,
0010
0100
0001
0000
1000
0100
1000
0000
,
0101
0011
0100
0100
,
0010
1000
0001
0000
0100
0000
0000
0000
,
0001
0100
0001
0100
0010
1000
0010
1000
,
0001
0010
0100
0000
,
1100
1010
0001
0001
,
1000
0001
0100
0000
0010
0000
0000
0000
,
1001
0110
1000
1000
,
0010
0100
0001
0000
0010
0001
0010
0000
,
1100
0101
0010
0010
,
0100
0010
1000
0000
0001
0000
0000
0000
,
1000
0100
1000
0100
0010
0001
0010
0001
,
1000
0000
0001
0000
0100
0010
0100
0000
,
1001
0000
0000
0000
;

//---------------dance-single - Maniac----------------
#NOTES:
     dance-single:
     Maniac:
     Hard:
     7:
     0.436,0.416,0.216,0.207,0.019: // measure 1
1000
0000
0100
0000
,  // measure 2
0001
0010
1000
0100
,  // measure 3
0001
1000
0010
0000
1000
0001
0100
0000
,  // measure 4
0010
0100
0001
0010
0001
1000
0100
1000
,  // measure 5
0010
2100
3002
0013
,  // measure 6
0001
0010
0100
0000
1000
0010
0100
0010
,  // measure 7
1000
0210
0302
0013
,  // measure 8
1000
0001
0010
0000
0100
0001
0010
0001
,  // measure 9
0100
0102
2003
3010
,  // measure 10
0100
0010
1000
0000
0001
1000
0100
0000
,  // measure 11
1000
0010
0100
0001
0100
0010
1000
0100
,  // measure 12
1000
0001
0100
0010
1000
0000
0100
0000
,  // measure 13
0010
0000
0001
0000
1000
0100
0010
0000
,  // measure 14
0010
0000
0001
0000
1000
0100
0010
0000
,  // measure 15
0010
0000
0100
0000
0001
0100
0010
0000
,  // measure 16
0010
0000
0100
0000
0001
0100
0010
0000
,  // measure 17
2100
0000
0001
0000
3001
0010
0010
0000
,  // measure 18
0012
0000
1000
0000
1003
0100
0100
0000
,  // measure 19
1010
0000
1000
0001
0010
0000
0001
0000
,  // measure 20
0101
0000
0001
1000
0100
0000
1000
0000
,  // measure 21
0100
0000
1000
0000
0001
0000
0010
0000
0000
0001
0000
0000
0011
0000
0000
0000
,  // measure 22
0010
0000
0001
0000
1000
0000
0100
0000
0000
1000
0000
0000
1100
0000
0000
0000
,  // measure 23
0010
0000
0100
0000
0001
0000
0010
0000
0000
0001
0000
0000
1000
0000
0001
0000
,  // measure 24
0010
0002
0100
1003
,  // measure 25
0001
0000
0010
0000
0100
0000
1000
0000
0000
0010
0000
0000
0100
0000
0001
0000
,  // measure 26
1000
0000
1000
0001
0100
0000
0010
0000
,  // measure 27
0110
0010
0100
0001
,  // measure 28
1000
0001
1000
0001
1000
0010
0100
0010
,  // measure 29
0100
0000
0001
1000
,  // measure 30
0001
1000
0010
0000
1000
0000
0100
0000
,  // measure 31
0001
0100
1000
0010
,  // measure 32
0100
0001
1000
0000
0010
0000
0010
0000
,  // measure 33
0020
0000
0000
1000
2030
0000
0000
0100
,  // measure 34
3200
0000
0000
0010
0320
0000
0000
0031
,  // measure 35
0001
1000
0100
1000
1000
0000
1000
0001
,  // measure 36
0001
0100
0010
0100
0100
0010
0100
0010
,  // measure 37
0010
0210
0302
1003
,  // measure 38
0010
0000
0110
0000
0100
0001
1000
0000
,  // measure 39
0001
0012
0203
0310
,  // measure 40
1000
0000
0101
0000
0100
0001
1000
0000
,  // measure 41
0001
2100
3020
0130
,  // measure 42
0001
0000
1100
0000
0001
0010
0100
0000
,  // measure 43
1000
0010
1000
0001
0010
0001
0100
0010
,  // measure 44
1000
0100
1000
0000
0100
0000
0010
0000
,  // measure 45
0011
0101
0002
1003
,  // measure 46
0010
0000
1000
0001
0010
0001
0100
0000
,  // measure 47
1001
0110
2000
3001
,  // measure 48
0010
0000
0001
0100
0010
0100
0001
0000
,  // measure 49
1010
1100
2000
3001
,  // measure 50
0010
0000
0100
0010
0100
0001
1000
0000
,  // measure 51
0001
0100
0001
0100
0010
1000
0010
1000
,  // measure 52
0001
0010
0100
1000
0100
0010
0001
0000
,  // measure 53
1001
0000
0000
0000
;
