#TITLE:ポリリズム;
#SUBTITLE:;
#ARTIST:Perfume;
#TITLETRANSLIT:Polyrhythm;
#SUBTITLETRANSLIT:;
#ARTISTTRANSLIT:;
#CREDIT:;
#BANNER:Polyrhythm.png;
#BACKGROUND:Polyrhythm-bg.png;
#LYRICSPATH:;
#CDTITLE:;
#MUSIC:Polyrhythm.mp3;
#OFFSET:-1.908;
#SAMPLESTART:34.160;
#SAMPLELENGTH:11.980;
#SELECTABLE:YES;
#BPMS:0.000=128.000,51.688=128.020,59.000=64.000,59.500=128.020;
#STOPS:59.500=1.640
;
#BGCHANGES:-0.500=Polyrhythm.avi=1.000=1=0=1,
99999=-nosongbg-=1.000=0=0=0 // don't automatically add -songbackground-
;

//---------------dance-single - ----------------
#NOTES:
     dance-single:
     :
     Hard:
     7:
     0.344,0.420,0.207,0.207,0.020:
0000
0000
0000
0000
,
0000
0000
0000
0000
,
0000
0000
0000
0000
,
0000
0000
0000
0000
,
0000
0000
0000
0000
,
0002
1000
0000
1000
,
0000
1000
0000
2003
,
0000
0001
0000
3002
,
0203
2300
3020
0032
,
0103
0100
0100
1001
,
0100
0100
0100
1001
,
0000
0002
2003
3020
,
0230
0301
1000
0101
,
0010
0010
0010
1001
,
0010
0000
0000
0000
0000
0000
0000
0000
0000
0000
0000
0000
0000
0000
0000
0000
0010
0000
0000
0000
0000
0000
0000
0000
0000
0000
0000
0000
0000
0000
0000
0000
0010
0000
0000
0000
0000
0000
0000
0000
0000
0000
0000
0000
0000
0000
0000
0000
2000
0000
0000
0000
0000
0000
0000
0000
0002
3000
0000
0000
0000
0000
0000
0000
,
0103
0000
0100
0000
0100
1000
0001
0000
,
0110
0000
1000
0100
0001
0000
0100
1000
,
0010
0100
0001
1000
,
0110
0000
0001
0100
1000
0000
0100
0001
,
0010
2000
3001
2000
,
3001
0000
0100
0000
0100
0010
1000
0000
,
0100
0010
0001
0000
1000
0000
0001
0000
,
0100
0000
0100
0010
1000
0000
0100
0010
,
0002
1003
0002
1003
,
1100
0000
0000
0000
0100
0000
0000
0000
0001
0000
0000
1000
0000
0000
0001
0000
,
0000
0000
0110
0000
1000
0100
0001
0000
,
1000
0000
0000
0000
0010
0000
0000
0000
0001
0000
0000
1000
0000
0000
0001
0000
,
0000
0000
0110
0000
0001
0010
1000
0000
,
0002
0000
0000
0000
1003
0000
0000
0000
0100
0000
0000
0010
0000
0000
0110
0000
,
0000
0001
1000
0000
0200
0000
0310
0000
,
1000
0000
0000
0000
0001
0000
0010
0000
0001
0000
0000
0100
0000
0000
0110
0000
,
0000
1000
0100
0000
0001
0100
1000
0010
,
0001
0010
1000
0100
,
1000
0000
0010
0000
0001
0100
0000
0110
,
0000
0000
0000
0000
1000
0001
0000
1000
,
0000
0100
0001
0010
1000
0010
0001
0100
,
0000
0100
0000
0001
0000
1000
0000
0110
,
0000
0000
0000
0000
0010
1000
0000
0110
,
0000
0001
0100
0000
0010
1000
0000
1100
,
0000
0001
0010
0100
1000
0000
0101
0000
,
1000
0010
0000
0010
1000
0100
0000
0010
,
0010
0000
0001
0010
0000
0010
0001
0100
,
0000
0010
0010
0000
1000
0000
1000
0001
,
0000
1010
0000
1000
1000
0000
0001
0000
,
0001
1000
0000
0011
0000
0001
0001
0000
,
1000
0000
0001
0100
0001
1000
0010
0010
,
1000
0100
1000
0001
0010
0010
0001
0100
,
0001
1000
0010
0000
0101
0000
1001
0000
,
2020
0000
0000
0000
,
0000
0000
0000
0000
,
3030
0000
0000
0000
;

//---------------dance-double - ----------------
#NOTES:
     dance-double:
     :
     Hard:
     7:
     0.384,0.395,0.326,0.444,0.000:
00000000
00000000
00000000
00000000
,
00000000
00000000
00000000
00000000
,
00000000
00000000
00000000
00000000
,
00000000
00000000
00000000
00000000
,
00000000
00000000
00000000
00000000
,
01000000
02000000
00000000
03200000
,
00000000
20300000
00000000
30020000
,
00000000
00230000
00000000
00302000
,
01000000
00010000
00000100
00003010
,
00000210
00000010
00000010
00000310
,
00000001
00000010
00001000
00010000
,
01000000
01000000
01000000
01000000
,
10000000
00100000
00010000
00001000
,
00000210
00000001
00000001
00000301
,
00000010
00000000
00001000
00000000
00000100
00000000
00020000
00031000
,
00001000
00000000
00001000
00000000
00010000
01000000
01000000
10000000
,
00010000
00100000
00010000
00000000
00000000
10000000
01000000
00010000
,
00001000
00000000
00002200
00000000
00003300
00000100
00000000
00002002
,
00000000
00003003
00002200
00000000
00003300
00000001
00000100
00001000
,
00010000
00000000
02020000
00000000
03030000
01000000
00000000
20020000
,
00000000
30030000
00220000
00000000
00330000
01000000
00001000
00010000
,
00000100
00000000
00020020
00000000
00030030
00000100
00000000
00000022
,
00000000
00000033
00002020
00000000
00003030
00000100
00010000
00001000
,
01000000
00000000
00202000
00000000
00303000
01000000
00000000
20200000
,
00000000
30300000
10000000
01000000
00100000
00010000
01000000
00000000
,
00001000
00000000
00010000
00000000
00100000
00010000
00000000
00022000
,
00000000
00033000
00000010
00000001
00000100
00000010
00001000
00000000
,
00000001
00000000
00000100
00000000
00001000
00010000
00000000
00020200
,
00000000
00030300
00001000
00010000
01000000
00100000
01000000
00000000
,
00010000
00000000
00001000
00000000
00000100
00000010
00000000
00202000
,
00000000
00303000
00010000
00001000
00000100
00000010
00000100
00000000
,
00001000
00000000
00010000
00000000
01000000
00100000
00100000
00100000
,
01000000
11000000
01000000
01010000
,
00100000
00110000
01000000
01001000
,
00000010
00000000
00000001
00000000
00000000
00001000
00000000
00001001
,
00000000
00000100
00010000
00001000
00000100
00000001
00000010
00001000
,
00000001
00000110
00001000
00000001
,
00001000
00000011
00001000
01000000
,
00010000
00110000
00100000
01100000
,
01000000
00000000
22000000
00000000
33000000
00110000
00000000
11000000
,
00100000
00010000
00000000
01000000
00100000
10000000
00000000
22000000
,
00000000
33000000
00010000
10000000
00000000
00100000
00010000
00001000
,
00000000
00100000
00010000
00001000
00000000
00000100
00000000
00000220
,
00000000
00000330
00000100
00000001
00001000
00000001
00000000
00000100
,
00000000
00001000
00000000
00000100
00000000
00000011
00000000
00001010
,
00000100
00000000
00010000
00001000
00000000
00010000
00100000
00000000
,
10000000
01000000
00000000
00100000
00001000
00000000
00010000
01000000
,
00000000
00010000
00001000
00000000
00000100
00001000
00010000
00000000
,
02200000
00000000
00000000
00000000
,
00000000
00000000
00000000
00000000
,
03300000
00000000
00000000
00000000
;

//---------------dance-single - ----------------
#NOTES:
     dance-single:
     :
     Easy:
     3:
     0.217,0.272,0.118,0.188,0.000:
0000
0000
0000
0000
,
0000
0000
0000
0000
,
0000
0000
0000
0000
,
0000
0000
0000
0000
,
0000
0000
0000
0000
,
0001
0010
0000
0010
,
0000
0010
0000
0010
,
1000
0100
0000
0100
,
0000
0100
0000
0100
,
0000
0001
0010
0100
,
1000
0100
0010
0001
,
0000
1000
0010
0100
,
0001
0100
0010
1000
,
0000
0001
0010
0100
,
1000
0000
0010
0000
0100
0000
0002
0003
,
0000
0000
0010
1001
,
0100
0000
0001
1000
,
0001
0000
1000
0100
,
0001
0000
0010
0100
,
0001
0000
1000
0100
,
0220
0330
1000
0001
,
1000
0000
0010
0001
,
0100
0000
0001
0010
,
1000
0000
0001
0100
,
0220
0330
1000
1001
,
0001
0000
0010
0100
,
0001
0000
1000
0100
,
0010
0000
0001
1000
,
0220
0330
0001
1001
,
1000
0000
0100
0010
,
0001
0000
0100
0010
,
1000
0000
0001
0100
,
0220
0330
0000
0000
,
2000
0000
0000
3000
,
0002
0000
0000
0003
,
0200
0000
0320
0000
,
0230
0000
0000
0300
,
0020
0000
0000
0030
,
2000
0000
3002
0000
,
0013
0000
0110
0000
,
0001
0001
1000
1000
,
0100
1001
0100
0000
,
0010
0010
0100
0100
,
0001
0110
1000
0000
,
0001
1000
0001
0100
,
0010
1001
0100
0100
,
0010
0010
1000
1000
,
0001
0001
0100
0100
,
2002
0000
0000
0000
,
0000
0000
0000
0000
,
3003
0000
0000
0000
;

//---------------dance-single - ----------------
#NOTES:
     dance-single:
     :
     Beginner:
     1:
     0.134,0.190,0.099,0.000,0.000:
0000
0000
0000
0000
,
0000
0000
0000
0000
,
0000
0000
0000
0000
,
0000
0000
0000
0000
,
0000
0000
0000
0000
,
0000
0010
0000
0010
,
0000
0010
0000
0010
,
0000
0100
0000
0100
,
0000
0100
0000
0100
,
0000
0001
0000
0010
,
0000
0100
0000
1000
,
0000
1000
0000
0010
,
0000
0100
0000
0001
,
0000
0001
0001
0001
,
0000
1000
1000
1000
,
0000
0000
0000
0000
,
0110
0000
0001
0000
,
0001
0000
1000
0000
,
1000
0000
0001
0000
,
0001
0000
1000
0000
,
1000
0000
0001
0001
,
0001
0000
0010
0000
,
0100
0000
1000
1000
,
1000
0000
0010
0000
,
0100
0000
0001
0000
,
1001
0000
0010
0000
,
0110
0000
1000
0000
,
1001
0000
0010
0000
,
0110
0000
0001
0000
,
0110
0000
0100
0000
,
1001
0000
1000
0000
,
0110
0000
0001
0000
,
1001
0000
0000
0000
,
1000
0000
0000
0000
,
0001
0000
0000
0000
,
0100
0000
0010
0000
,
0100
0000
0000
0000
,
0010
0000
0000
0000
,
1000
0000
0001
0000
,
0010
0000
0000
0000
,
0001
0000
1000
0000
,
0100
0100
0100
0000
,
0010
0000
0100
0000
,
0001
0001
0001
0000
,
1000
0000
1000
0000
,
0010
0000
0100
0000
,
0010
0000
1000
0000
,
0001
0000
0100
0000
,
1001
0000
0000
0000
;

//---------------dance-single - ----------------
#NOTES:
     dance-single:
     :
     Medium:
     6:
     0.300,0.321,0.237,0.178,0.039:
0000
0000
0000
0000
,
0000
0000
0000
0000
,
0000
0000
0000
0000
,
0000
0000
0000
0000
,
0000
0000
0000
0000
,
0002
0013
0001
2000
,
3010
1000
0002
0013
,
0000
1000
0100
0001
,
0010
1000
0100
0001
,
0010
0001
0010
0001
,
0100
0101
0100
0101
,
0000
1000
0100
1000
,
0100
1100
0100
1100
,
0001
0100
1000
0100
,
0001
0010
1000
0020
,
0130
0000
0100
0000
0100
0100
1001
0000
,
0000
0000
0000
0000
1000
0000
0000
0000
0001
0000
0000
0100
0000
0000
0100
0000
,
0000
0000
1001
0000
0000
0100
0000
0010
,
1000
0000
0000
0000
0001
0000
0000
0000
1000
0000
0000
0100
0000
0000
0100
0000
,
0000
0000
0000
0110
0000
0000
0001
0000
,
2000
0000
0000
0000
3010
0000
0000
0000
0001
0000
0000
0010
0000
0000
0100
0000
,
0000
0000
0011
0000
0000
0001
0000
1000
,
2000
0000
0000
0000
3100
0000
0000
0000
0001
0000
0000
0100
0000
0000
1000
0000
,
0000
0000
0000
0101
0000
0100
0000
1001
,
0000
0000
0000
0000
0100
0000
0000
0000
0001
0000
0000
1000
0000
0000
0001
0000
,
0000
0000
1100
0000
0000
0001
0000
1000
,
0200
0000
0000
0000
0310
0000
0000
0000
0001
0000
0000
1000
0000
0000
0001
0000
,
0000
0000
0000
0011
0000
0100
0000
1001
,
0000
0000
0000
0000
0001
0000
1000
0000
0001
0000
0000
1000
0000
0000
1000
0000
,
0000
0000
0110
0000
0000
0010
0000
0010
,
0100
0000
0000
0000
1000
0000
0001
0000
1000
0000
0000
0001
0000
0000
0001
0000
,
0000
0100
0100
0000
0002
0000
2003
0000
,
3002
1000
0100
1003
,
2000
0001
0100
3001
,
0010
0000
1000
0000
0000
0110
0000
1001
,
0000
0010
0000
1000
0000
0010
0000
0200
,
0000
0000
0000
0300
0000
0001
0000
2200
,
0000
0000
0000
3300
0000
1000
0000
0202
,
0000
0000
0000
0303
0000
1100
0000
0101
,
0000
1000
0010
0001
,
1000
0010
0100
0000
0001
0000
1000
0000
,
0001
0100
0010
0000
1000
0000
1000
0000
,
0001
0010
0100
0000
1000
0000
0001
0000
,
1000
0100
0000
0010
0000
0100
0000
1001
,
0000
0010
0000
0011
0000
0100
0000
1100
,
0000
0001
0100
0001
0000
1000
0010
0000
,
0100
0001
0000
0010
0001
0000
0100
0010
,
0000
1000
0010
0000
0001
0000
1000
0000
,
0220
0000
0000
0000
,
0000
0000
0000
0000
,
0330
0000
0000
0000
;

//---------------dance-double - ----------------
#NOTES:
     dance-double:
     :
     Medium:
     6:
     0.288,0.370,0.138,0.138,0.005:
00000000
00000000
00000000
00000000
,
00000000
00000000
00000000
00000000
,
00000000
00000000
00000000
00000000
,
00000000
00000000
00000000
00000000
,
00000000
00000000
00000000
00000000
,
00000100
00001000
00000000
00000001
,
00001000
00000100
00000000
00010000
,
00100000
10000000
00000000
01000000
,
00010000
00100000
10000000
01000000
,
00010000
00010000
00010000
00010000
,
00001000
00001000
00001000
00001000
,
00000100
00000001
00000010
00001000
,
00010000
01000000
10000000
00100000
,
00000000
10000000
01000000
00010000
,
00001000
00000100
00000001
00002000
,
00003010
00000000
00000010
00000000
00000001
00001000
00000001
00000000
,
00000000
00000100
00000000
00000100
,
00000000
00000100
00000001
00001000
00000010
00000000
00001100
00000000
,
00000000
00001000
00000000
00010000
,
00000000
00010000
00100000
01000000
10000000
00000000
01010000
00000000
,
00000000
00010000
00000000
00001000
,
00000000
00000100
00000010
00001000
00000100
00000000
00000011
00000000
,
00000000
00000100
00000000
00000010
,
00000000
00001000
00010000
00001000
00100000
00000000
01001000
00000000
,
00110000
01000000
00000000
10000000
,
00000000
01000000
00001000
00010000
00000100
00000000
00001100
00000000
,
00000000
00000000
00000000
00000000
00000001
00000000
00000000
00000000
00000000
00000000
00000000
00000001
00000000
00000000
00000000
00000000
,
00000000
00000100
00010000
00001000
01000000
00000000
00110000
00000000
,
00000000
01000000
00000000
01000000
,
00000000
10000000
01000000
00010000
00001000
00000100
00000001
00001000
,
00000000
00000010
00000000
00000010
,
00000000
00000001
00000100
00001000
00010000
01000000
10000000
00010000
,
01000000
00001000
00010000
00001000
,
01000000
00001000
00010000
00000010
,
00010000
00001000
00010000
00000000
00001000
00000100
00000001
00000000
,
00002000
00003010
00000020
00000130
,
00000002
00000203
00002300
00023000
,
02030000
23000000
00010000
30010000
,
10000000
00000000
01000000
00000000
00000000
11000000
00000000
10010000
,
00000000
00100000
20000000
00000000
30020000
00000000
02030000
00000000
,
03100000
00010000
00100000
10000000
01000000
00000000
10000000
00000000
,
00010000
01000000
00010000
00100000
,
10000000
01000000
00010000
00001000
,
00000001
00000010
00001000
00000100
,
00000001
00000100
00001000
00000000
00010000
00001000
01000000
00000000
,
00100000
10000000
01000000
00010000
01000000
10000000
00100000
00000000
,
10010000
01000000
00011000
00000100
,
00001001
00000010
00011000
01000000
,
20020000
00000000
00000000
00000000
,
00000000
00000000
00000000
00000000
,
30030000
00000000
00000000
00000000
;

//---------------dance-double - ----------------
#NOTES:
     dance-double:
     :
     Easy:
     3:
     0.181,0.222,0.000,0.109,0.000:
00000000
00000000
00000000
00000000
,
00000000
00000000
00000000
00000000
,
00000000
00000000
00000000
00000000
,
00000000
00000000
00000000
00000000
,
00000000
00000000
00000000
00000000
,
00000000
00000100
00000000
00000100
,
00000000
00001000
00000000
00001000
,
00000000
01000000
00000000
10000000
,
00000000
00100000
00000000
00010000
,
01000000
01000000
01000000
01000000
,
01000000
01000000
01000000
01000000
,
00000000
10000000
01000000
00010000
,
00001000
00000100
00000001
00000001
,
00000000
00000010
00010000
00001000
,
00100000
00010000
01000000
00100000
,
00000000
00000000
00000000
00000000
01000000
00100000
01000000
00000000
,
00000000
10000000
00000000
01000000
,
00000000
00010000
00000000
00100000
,
00000000
00001000
00000000
00010000
,
00000000
00000100
00000000
00001000
,
00000000
00000010
00000000
00000001
,
00000000
00000100
00000000
00000010
,
00000000
00000000
00000001
00000000
00000000
00001000
00000000
00001000
,
00000000
00000100
00000000
00010000
,
00000000
00001000
00100000
00010000
,
00000000
01000000
00100000
10000000
,
00000000
01000000
00010000
00100000
,
00000000
00001000
00010000
00000100
,
00000000
00001000
00000010
00000100
,
00000000
00000000
00001000
00000000
00000000
00000001
00000000
00000001
,
00000000
00000010
00000100
00000001
,
00000000
00000100
00001000
00010000
,
01000000
00000000
00000000
00000000
,
10000000
00010000
10000000
00010000
,
01000000
00000000
00000000
00000000
,
00010000
00001000
00000100
00000001
,
00000010
00000000
00000000
00000000
,
00000100
00010000
00001000
00100000
,
01000000
00000000
00000000
00000000
,
10000000
00100000
00010000
01000000
,
00200000
00300000
20000000
30000000
,
00020000
00030000
02000000
03000000
,
00002000
00003000
00020000
00030000
,
00000200
00000300
00000020
00000030
,
00000002
00000003
00000002
00000003
,
00001000
00000100
00001000
00001000
,
00000010
00000010
00001000
00001000
,
00010000
00010000
01000000
01000000
,
20000000
00000000
00000000
00000000
,
00000000
00000000
00000000
00000000
,
30000000
00000000
00000000
00000000
;

//---------------dance-single - ----------------
#NOTES:
     dance-single:
     :
     Challenge:
     8:
     0.412,0.444,0.197,0.257,0.039: // measure 1
0000
0000
0000
0000
,  // measure 2
0000
0000
0000
0000
,  // measure 3
0000
0000
0000
0000
,  // measure 4
0000
0000
0000
0000
,  // measure 5
0000
0000
0000
0000
,  // measure 6
0000
2000
3020
0230
,  // measure 7
0302
1000
0100
0013
,  // measure 8
0000
0002
0203
0320
,  // measure 9
2030
3200
0302
0023
,  // measure 10
0030
0002
0203
0320
,  // measure 11
2030
0100
0001
3010
,  // measure 12
0000
2000
3002
0203
,  // measure 13
0320
1030
0001
2020
,  // measure 14
3030
0100
0001
0010
,  // measure 15
1000
0000
0000
0000
0000
0000
0000
0000
0000
0000
0000
0000
0000
0000
0000
0000
0100
0000
0000
0000
0000
0000
0000
0000
0000
0000
0000
0000
0000
0000
0000
0000
0010
0000
0000
0000
0000
0000
0000
0000
0000
0000
0000
0000
0000
0000
0000
0000
2002
0000
0000
0000
0000
0000
0000
0000
0000
3003
0000
0000
0000
0000
0000
0000
,  // measure 16
0110
0000
0110
0000
1001
0100
0010
0000
,  // measure 17
0110
0000
0000
0000
1000
0000
0100
0000
0001
0000
0000
0100
0000
0000
1000
0000
,  // measure 18
0000
0010
0100
0001
1000
0100
0010
0010
,  // measure 19
0000
0000
0000
0000
0001
0000
0100
0000
1000
0000
0000
0100
0000
0000
0001
0000
,  // measure 20
0000
0100
1000
0001
0100
0010
1000
1001
,  // measure 21
0000
0000
0000
0000
0010
0000
1000
0000
0001
0000
0000
0100
0000
0000
0001
0000
,  // measure 22
0000
0010
0001
0100
1000
0100
0001
0010
,  // measure 23
0000
0000
0000
0000
0100
0000
0010
0000
1000
0000
0000
0100
0000
0000
0010
0000
,  // measure 24
0000
0001
0010
1000
0010
0001
0100
0110
,  // measure 25
0000
0000
0000
0000
0100
0000
0100
0000
0001
0000
0000
1000
0000
0000
0001
0000
,  // measure 26
0000
0100
0010
1000
0100
0001
0100
1000
,  // measure 27
0000
0000
0000
0000
1000
0000
1000
0000
0010
0000
0000
0100
0000
0000
0010
0000
,  // measure 28
0000
0100
0001
0010
0100
1000
0010
0101
,  // measure 29
0000
0000
0000
0000
1000
0000
0001
0000
0100
0000
0000
0010
0000
0000
0110
0000
,  // measure 30
0000
0001
1000
0100
0001
0100
1000
0001
,  // measure 31
0000
0000
0000
0000
0001
0000
0100
0000
0001
0000
0000
0010
0000
0000
0110
0000
,  // measure 32
0000
1000
0001
0100
1000
0100
0001
1001
,  // measure 33
0000
0100
0000
1001
0000
0010
0000
1001
,  // measure 34
0000
0100
0000
1001
0000
0010
0000
1001
,  // measure 35
0000
0100
1000
0010
1000
0001
1000
0100
,  // measure 36
0000
1000
0001
0010
1000
0010
0001
0100
,  // measure 37
0000
0100
0000
0001
0000
1000
0000
0110
,  // measure 38
0000
0001
0010
0001
1000
0001
0100
0002
,  // measure 39
0000
0000
1003
0010
1000
0100
1000
0001
,  // measure 40
0000
0001
0010
0100
1000
0001
0100
0010
,  // measure 41
1000
0100
0010
0100
1000
0001
0100
0010
,  // measure 42
0100
0001
1000
0100
0010
0100
1000
0001
,  // measure 43
0100
0010
0100
0001
1000
0100
0001
0100
,  // measure 44
1000
0001
0100
1000
0100
0001
1000
0010
,  // measure 45
0001
0010
1000
0001
0010
1000
0010
0001
,  // measure 46
1000
0100
0001
0100
1000
0001
0010
0100
,  // measure 47
1000
0010
0100
0001
0010
0100
1000
0010
,  // measure 48
0001
1000
0100
0001
0101
0000
0110
0000
,  // measure 49
2002
0000
0000
0000
,  // measure 50
0000
0000
0000
0000
,  // measure 51
3003
0000
0000
0000
;

//---------------dance-double - ----------------
#NOTES:
     dance-double:
     :
     Challenge:
     8:
     0.399,0.444,0.109,0.188,0.039:
00000000
00000000
00000000
00000000
,
00000000
00000000
00000000
00000000
,
00000000
00000000
00000000
00000000
,
00000000
00000000
00000000
00000000
,
00000000
00000000
00000000
00000000
,
00000000
00002000
00100000
01000000
,
00023000
00000010
00000100
00031000
,
00000000
00020000
00000010
00000100
,
00032000
00000010
00000001
00003100
,
00000000
00002000
00100000
00010000
,
02003000
10000000
00010000
03100000
,
00000000
00200000
00001000
00010000
,
00302000
00010000
01000000
00003100
,
00000000
00000002
00000203
00002300
,
00023000
00000000
00000000
00000000
00000000
00000000
00000000
00000000
00000000
00000000
00000000
00000000
00000000
00000000
00000000
00000000
00230000
00000000
00000000
00000000
00000000
00000000
00000000
00000000
00000000
00000000
00000000
00000000
00000000
00000000
00000000
00000000
20300000
00000000
00000000
00000000
00000000
00000000
00000000
00000000
00000000
00000000
00000000
00000000
00000000
00000000
00000000
00000000
00010000
00000000
00000000
00000000
00000000
00000000
00000000
00000000
00010000
30000000
00000000
00000000
00000000
00000000
00000000
00000000
,
00100000
00000000
00100000
00000000
00010000
00001000
00011000
00000000
,
01100000
00000000
00000000
00000000
10000000
00000000
01000000
00000000
00010000
00000000
00000000
01000000
00000000
00000000
00100000
00000000
,
00000000
00001000
00010000
00000100
00001000
00000010
00000100
00000001
,
00000000
00000000
00000000
00000000
00000010
00000000
00000010
00000000
00000001
00000000
00000000
00001000
00000000
00000000
00000100
00000000
,
00000000
00010000
01000000
10000000
00100000
01000000
00010000
10010000
,
00000000
00000000
00000000
00000000
10000000
00000000
10000000
00000000
00010000
00000000
00000000
00100000
00000000
00000000
00010000
00000000
,
00000000
10000000
00100000
00010000
00001000
00010000
01000000
10000000
,
00000000
00000000
00000000
00000000
00100000
00000000
00100000
00000000
00001000
00000000
00000000
00010000
00000000
00000000
00001000
00000000
,
00000000
00010000
00001000
00000100
00000001
00000010
00001000
00011000
,
00000000
00000000
00000000
00000000
00100000
00000000
20000000
00000000
00010000
00000000
00000000
00010000
00000000
00000000
30010000
00000000
,
00000000
01000000
00100000
10000000
01000000
00010000
01000000
10000000
,
00000000
00000000
00000000
00000000
00100000
00000000
00010000
00000000
00002000
00000000
00000000
00010000
00000000
00000000
00013000
00000000
,
00000000
01000000
00010000
00100000
01000000
00010000
00001000
00101000
,
00000000
00000000
00000000
00000000
00010000
00000000
00000100
00000000
00001000
00000000
00000000
00000010
00000000
00000000
00000110
00000000
,
00000000
00001000
00000010
00000001
00000100
00001000
00000100
00000010
,
00000000
00000000
00000000
00000000
00010000
00000000
00001000
00000000
01000000
00000000
00000000
00100000
00000000
00000000
01100000
00000000
,
00000000
00010000
00100000
10000000
01000000
00010000
00001000
00011000
,
00000000
01000000
00001000
00010000
00000000
00000100
00010000
00001000
,
00000000
00010000
01000000
00100000
00000000
00001000
00010000
00000100
,
00000000
00001000
00000010
00000001
00000010
00001000
00000010
00000001
,
00000000
00001000
00000100
00010000
00001000
00100000
00010000
01000000
,
00000000
00010000
00100000
00010000
00000000
10000000
01000000
10000000
,
00000000
00010000
01000000
10000000
01000000
00010000
00001000
00000020
,
00000000
00000000
00001030
00010000
00000100
00001000
00000010
00000100
,
00000000
00010000
00001000
00000010
00000001
00000100
00001000
00010000
,
00001000
00000010
00000001
00000010
00001000
00000001
00000100
00001000
,
00000100
00000001
00001000
00000010
00000001
00000010
00001000
00010000
,
00100000
10000000
00100000
00010000
10000000
01000000
00010000
01000000
,
10000000
00010000
00100000
10000000
00100000
00010000
00001000
00000010
,
00000001
00000100
00001000
00010000
00100000
10000000
01000000
00010000
,
00001000
00000100
00000001
00000010
00001000
00010000
00100000
00010000
,
00001000
00000100
00001000
00010000
01000000
00010000
00001000
00000010
,
00001000
00010000
01000000
00010000
00011000
00000000
01001000
00000000
,
20020000
00000000
00000000
00000000
,
00000000
00000000
00000000
00000000
,
30030000
00000000
00000000
00000000
;
