#TITLE:PITO PITO;
#SUBTITLE:;
#ARTIST:Willie Revillame;
#TITLETRANSLIT:;
#SUBTITLETRANSLIT:;
#ARTISTTRANSLIT:;
#CREDIT:Juub005;
#BANNER:PITO PITO-bn-big.png;
#BACKGROUND:PITO PITO-bg.png;
#LYRICSPATH:;
#CDTITLE:BEST OF OPM NOVELTY HITS.png;
#MUSIC:PITO PITO.mp3;
#OFFSET:-0.984;
#SAMPLESTART:56.028;
#SAMPLELENGTH:24.580;
#SELECTABLE:YES;
#BPMS:0.000=127.000;
#STOPS:42.000=0.472
,225.000=8.031
;
#BGCHANGES:8.000=PITO PITO.avi=1.000=1=0=1
,226.000=PITO PITO-bg.png=1.000=0=0=1
;

//---------------dance-single - ----------------
#NOTES:
     dance-single:
     :
     Hard:
     9:
     0.465,0.550,0.059,0.025,0.525: // measure 1
0000
0000
0000
0000
,  // measure 2
0000
0000
0000
0000
,  // measure 3
0000
0000
0000
0000
,  // measure 4
0000
0000
0000
0000
,  // measure 5
0000
0000
0000
0000
,  // measure 6
0000
0000
0000
0000
,  // measure 7
0001
0000
1000
0000
0101
0000
0000
1000
,  // measure 8
0001
0000
0000
0001
0010
0000
0001
0000
0100
0000
0000
0000
0000
0000
0010
0000
,  // measure 9
1000
0000
0000
0001
1000
0000
0100
0000
0010
0000
0000
0000
0100
0000
1000
0000
,  // measure 10
0010
0000
0000
0010
1000
0000
0001
0000
0020
0000
0000
0000
1000
0000
0000
0000
,  // measure 11
0001
0130
1001
1000
,  // measure 12
0001
0000
0000
0000
0100
0000
0000
0000
0000
0000
0000
0000
0001
0000
0000
0001
,  // measure 13
1000
1000
0010
0000
0000
0000
1000
0000
,  // measure 14
0100
0000
0000
0000
0010
0000
0000
0000
0000
0000
0000
0000
0001
0000
0000
0001
,  // measure 15
0100
0000
0000
0100
0010
0000
0000
0000
0000
0000
0000
0000
1000
0000
0000
0000
,  // measure 16
0001
0000
1000
0000
0000
0010
1000
0001
,  // measure 17
1000
0000
0000
0100
1000
0000
0000
0000
0001
0000
0100
0000
0001
0000
0100
0000
,  // measure 18
0001
0010
0100
1000
0010
0000
1000
0100
,  // measure 19
0010
0001
0200
0000
0010
0000
1000
0000
,  // measure 20
0301
0000
1000
0001
1000
0000
0100
1000
,  // measure 21
0100
0010
0001
0000
1000
0000
0001
0100
,  // measure 22
0001
0100
0010
0000
0000
0000
1000
0000
,  // measure 23
0100
0000
0000
0000
0010
0000
0000
0000
0001
0000
1000
0000
0001
0000
0000
0001
,  // measure 24
1000
0000
0000
1000
0001
0000
0000
0000
0000
0000
0000
0000
0010
0000
0000
0000
,  // measure 25
0100
0000
0000
0000
1000
0000
0000
0000
0001
0000
0000
0000
0010
0000
0000
0001
,  // measure 26
1000
0000
0000
0001
0010
0000
0000
0000
0001
0000
1000
0000
0001
0000
1000
0000
,  // measure 27
0001
0100
0001
0100
0010
0010
1000
0100
,  // measure 28
1000
0100
0020
0000
0001
0000
1000
0000
,  // measure 29
0130
1001
0110
1001
,  // measure 30
0000
0000
0000
0000
1000
0000
0000
1000
0100
0000
0000
0100
0010
0000
0000
0010
,  // measure 31
0001
0000
0000
0001
0100
0000
0000
0010
1000
0000
0000
0010
1000
0000
0000
1000
,  // measure 32
0001
0000
0000
0001
1000
0000
0000
1000
0100
0000
0000
0100
0010
0000
0000
0010
,  // measure 33
0001
0000
0000
0001
0100
0000
0000
0010
1000
0000
0000
0010
1000
0000
0000
1000
,  // measure 34
0100
0000
0000
1000
0100
0000
0000
0010
0001
0000
0000
0010
0001
0000
0000
1000
,  // measure 35
0100
0000
0000
1000
0100
0000
0000
0010
0001
0000
0000
0010
0001
0000
0000
0001
,  // measure 36
0100
0000
0000
0100
0010
0000
0000
0010
1000
0000
0000
1000
0100
0000
0000
0100
,  // measure 37
0010
0000
0000
0010
0001
0000
0000
0001
1000
0000
0000
0001
1000
0000
0000
0010
,  // measure 38
0100
0000
0000
0010
0100
0000
0000
0001
1000
0000
0000
0001
1000
0000
0000
0100
,  // measure 39
0010
0000
0000
0100
0010
0000
0000
0001
1000
0000
0000
0001
1000
0000
0000
1000
,  // measure 40
0100
0000
0000
0100
0010
0000
0000
0010
0001
0000
0000
0001
0100
0000
0000
0100
,  // measure 41
0010
0000
0000
0010
1000
0000
0001
0000
1000
0000
0000
0000
0100
0000
1000
0000
,  // measure 42
0100
0010
0001
0100
,  // measure 43
0000
0000
0000
0000
0001
0000
1000
0000
0100
0000
1000
0001
0000
1000
0000
0100
,  // measure 44
1000
0100
1000
0100
1000
0000
0001
0000
0100
0000
0001
1000
0000
0001
0000
0100
,  // measure 45
0001
0100
0001
0100
0001
0000
0010
0000
0001
0000
1000
0001
0000
0010
0000
0100
,  // measure 46
1000
0100
1000
0100
1000
0000
0010
0000
1000
0000
0001
1000
0000
0010
0000
0100
,  // measure 47
0001
0100
0001
0100
0001
0000
0010
0000
0100
0000
1000
0001
0000
1000
0000
0100
,  // measure 48
0010
0100
1000
0100
1000
0000
0001
0000
0010
0000
0001
1000
0000
0001
0000
0100
,  // measure 49
0001
0100
0010
0100
0010
0000
1000
0000
0001
0000
1000
0100
0000
1000
0000
0010
,  // measure 50
0100
0010
0100
0010
0100
0000
0001
0000
1000
0000
0001
0010
0000
0001
0000
1000
,  // measure 51
0001
1000
0001
1000
0001
0000
0100
0000
0010
0000
1000
0100
0000
0010
0000
0100
,  // measure 52
1000
0100
1000
0100
1000
0000
0100
0000
0010
0000
0001
0100
0000
0010
0000
0100
,  // measure 53
0001
0100
0001
0100
0001
0000
1000
0000
0100
0000
1000
0001
0000
0100
0000
0001
,  // measure 54
1000
0001
1000
0001
1000
0000
0010
0000
1000
0000
0001
0010
0000
0001
0000
1000
,  // measure 55
0010
1000
0010
1000
0001
0000
1000
0000
0100
0000
0010
0001
0000
1000
0000
0100
,  // measure 56
1000
0100
1000
0100
0010
0000
0001
0000
1000
0000
0001
0100
0000
0001
0000
0010
,  // measure 57
0001
0010
0001
0000
1001
0000
0000
0000
0110
0000
0000
0000
0000
0000
0000
0000
;

//---------------dance-single - ----------------
#NOTES:
     dance-single:
     :
     Medium:
     5:
     0.273,0.311,0.119,0.017,0.000:
0000
0000
0000
0000
,
0000
0000
0000
0000
,
0000
0000
0000
0000
,
0000
0000
0000
0000
,
0000
0000
0000
0000
,
0000
0000
0000
0000
,
1000
0001
0010
0000
,
0001
0100
0010
0000
,
1000
0100
0010
0001
,
1000
0100
1000
0000
0002
0000
0010
0000
,
0010
0010
0103
0010
,
1000
0001
0000
0010
,
0100
1000
0000
0100
,
0010
0001
0000
0100
,
1001
0110
0000
0001
,
1000
0000
0010
0000
0000
1000
0001
0000
,
1000
0100
0000
0010
,
0010
0001
0000
1000
,
0001
0100
0000
0000
,
0000
0000
0000
0001
,
0010
0000
0001
0000
0000
0000
1000
0100
,
1000
0001
0000
1000
,
0010
0100
0000
0001
,
1001
0110
0000
1000
,
0100
0000
0010
0000
0000
0000
0001
0001
,
1000
0000
0010
0000
0000
0000
1000
1000
,
0001
0000
1000
1000
0100
0000
1000
1000
,
0001
0020
0001
0001
,
0001
0130
0011
1100
,
0000
1000
0001
1000
,
0010
0100
0001
0010
,
0100
1000
0101
1100
,
0101
0010
0010
0010
,
0000
0100
1000
0010
,
0000
0100
0001
0010
,
0000
0001
0100
0010
,
1000
1000
0101
1100
,
0000
0010
0010
0001
,
0000
0001
1000
0001
,
0000
0100
0001
0100
,
0010
1000
0001
1000
,
0100
0010
1100
0011
,
0000
0000
0001
0100
0001
0000
1000
0100
,
1000
0000
0001
0010
0001
0000
1000
0010
,
1000
0000
0100
1000
0100
0000
0010
0001
,
0010
0000
0001
0100
0001
0000
1000
0010
,
1000
0000
0001
1000
0100
0000
1000
0001
,
0100
0000
0001
1000
0010
0000
1000
0001
,
0010
0000
0100
1000
0010
0000
0010
1000
,
0100
0000
0010
0001
0100
0000
0100
0001
,
0010
0000
0100
1000
0001
0000
0001
1000
,
0100
0000
1000
0001
0100
0000
0100
0001
,
1000
0000
0010
0010
0010
0000
0100
0100
,
0100
0000
0001
0001
0001
0000
0010
0010
,
0010
0000
0100
1000
0010
0000
1000
0100
,
0010
0000
0001
0010
0100
0000
0010
0001
,
0100
1001
0010
0000
;

//---------------dance-single - ----------------
#NOTES:
     dance-single:
     :
     Easy:
     3:
     0.206,0.239,0.059,0.008,0.000:
0000
0000
0000
0000
,
0000
0000
0000
0000
,
0000
0000
0000
0000
,
0000
0000
0000
0000
,
0000
0000
0000
0000
,
0000
0000
0000
0000
,
0001
0010
0001
0000
,
1000
0100
1000
0000
,
0010
0010
0010
0000
,
0100
0100
0002
0000
,
0000
0000
0013
0100
,
0000
0100
0000
1000
,
0001
1000
0000
0010
,
0000
0010
0000
0100
,
0001
0100
0000
0001
,
0000
0001
0000
0010
,
0010
0010
0000
0100
,
0100
0100
0000
1000
,
0001
0010
0000
0000
,
0000
0000
0000
0001
,
0001
0100
0000
0010
,
1000
0100
0000
1000
,
1000
0001
0000
0010
,
0100
1000
0000
0010
,
0010
0100
0000
0001
,
1000
0001
0000
0010
,
0100
1000
0100
0010
,
0001
0100
0000
0000
,
0000
1001
1001
1001
,
0000
0100
1000
0100
,
1000
0001
0010
0001
,
0010
0100
0100
1000
,
1000
0001
0010
0001
,
0000
0100
0001
0100
,
0000
0010
1000
0010
,
0000
0100
0001
0100
,
0001
1000
0010
1000
,
0000
0100
0010
0001
,
0000
0010
0001
0100
,
0000
0001
0100
0010
,
0000
0010
1000
0100
,
0000
1001
1001
1001
,
0000
0010
0010
0001
,
1000
0010
0010
1000
,
0001
0010
0010
0001
,
1000
0100
0100
1000
,
0001
0010
0010
0001
,
0100
0010
0010
1000
,
0100
0010
0010
0001
,
1000
0010
0010
1000
,
0000
0001
1000
0100
,
0010
0001
1000
0100
,
1000
0010
0100
0001
,
1000
0001
0010
0100
,
1000
0010
0010
0100
,
0100
0001
0010
0100
,
1000
0010
1001
0000
;

//---------------dance-single - ----------------
#NOTES:
     dance-single:
     :
     Beginner:
     1:
     0.102,0.191,0.034,0.017,0.000:
0000
0000
0000
0000
,
0000
0000
0000
0000
,
0000
0000
0000
0000
,
0000
0000
0000
0000
,
0000
0000
0000
0000
,
0000
0000
0000
0000
,
0001
0000
0000
0000
,
1000
0000
0000
0000
,
0010
0000
0000
0000
,
0100
0000
0002
0000
,
0003
0000
0000
1000
,
0000
0000
0000
1000
,
1000
1000
0000
0100
,
0000
0000
0000
0010
,
0010
0010
0000
0001
,
0000
0000
0000
0001
,
0000
0001
0000
1000
,
0000
1000
0000
0010
,
0000
0010
0000
0000
,
0000
0000
0000
0100
,
0100
0100
0000
0001
,
0000
0001
0000
0010
,
0010
0010
0000
0100
,
0000
0100
0000
1000
,
0000
1000
0000
0010
,
0000
0010
0000
0100
,
0000
0100
0000
0001
,
0000
0002
0000
0003
,
0000
1001
1001
1001
,
0000
1000
0000
0001
,
0000
1000
0000
0001
,
0000
1000
0000
0001
,
0000
0010
0000
0000
,
0000
0010
0000
0000
,
0000
0100
0000
0000
,
0000
1000
0000
0000
,
0000
0010
0000
0000
,
0000
0100
0000
0100
,
0000
0001
0000
0001
,
0000
0010
0000
0010
,
0000
0100
0000
0000
,
0000
1000
1000
1000
,
0000
0010
0000
0000
,
0000
0100
0000
0000
,
0000
0001
0000
0000
,
0000
1000
0000
0000
,
0000
0100
0000
0000
,
0000
0010
0000
0000
,
0000
0100
0000
0000
,
0000
1000
0000
0000
,
0000
0010
0000
0000
,
0000
0100
0000
0000
,
0000
0001
0000
0000
,
0000
0010
0000
0000
,
0000
0100
0000
0000
,
0000
1000
0000
0000
,
0000
1001
0100
0000
;
