#TITLE:PATIENCE;
#SUBTITLE:(Almighty Anthem Mix);
#ARTIST:HOLLY LANG;
#TITLETRANSLIT:;
#SUBTITLETRANSLIT:;
#ARTISTTRANSLIT:;
#CREDIT:;
#BANNER:PATIENCE (Almighty Anthem Mix).png;
#BACKGROUND:PATIENCE (Almighty Anthem Mix)-bg.png;
#LYRICSPATH:;
#CDTITLE:ALMIGHTY.png;
#MUSIC:PATIENCE (Almighty Anthem Mix) - HOLLY LANG.mp3;
#OFFSET:-7.953;
#SAMPLESTART:39.290;
#SAMPLELENGTH:12.000;
#SELECTABLE:YES;
#DISPLAYBPM:122.000;
#BPMS:0.000=122.000;
#STOPS:;
#BGCHANGES:;

//---------------dance-single - ----------------
#NOTES:
     dance-single:
     :
     Hard:
     7:
     0.419,0.408,0.044,0.198,0.121: // measure 1
2000
0001
0100
3001
,  // measure 2
0002
1000
0100
1003
,  // measure 3
2000
0001
0100
3001
,  // measure 4
0002
1000
0010
1003
,  // measure 5
0001
0000
0000
0000
1000
0000
0000
0001
0010
0000
0100
0000
1000
0000
0001
0000
,  // measure 6
0010
0000
0000
0000
0001
0000
0000
0100
0010
0000
1000
0000
0100
0000
0000
0000
,  // measure 7
1000
0000
0000
0000
0001
0000
0000
0010
0100
0000
0010
0000
0001
0000
0100
0000
,  // measure 8
0010
0000
1000
0100
1000
0000
1010
0000
,  // measure 9
0001
0000
0000
0000
0100
0000
0000
0010
1000
0000
0100
0000
1000
0000
0001
0000
,  // measure 10
0010
0000
0000
0000
0100
0000
0000
1000
0001
0000
0010
0000
0001
0000
0100
0000
,  // measure 11
0010
0000
0000
0000
1000
0000
0000
0100
0010
0000
0001
0000
0100
0000
0010
0000
,  // measure 12
1000
0000
0000
0000
0000
0001
0010
0001
,  // measure 13
0000
1000
0100
1000
0000
0010
0100
0001
,  // measure 14
0000
0100
0010
0100
0000
0001
0100
0010
,  // measure 15
0000
1000
0100
0010
0100
1000
0010
0000
,  // measure 16
1000
0000
0100
0000
1000
0001
1000
0000
,  // measure 17
0002
0000
2003
0000
3001
0100
0001
0000
,  // measure 18
1000
0001
0000
1000
0001
0000
0010
0000
0001
1000
0000
0001
1000
0000
0010
0000
,  // measure 19
0200
0000
0302
0000
1003
0100
1000
0000
,  // measure 20
0001
1000
0000
0001
1000
0000
0010
0000
1000
0001
0000
1000
0001
0000
0010
0000
,  // measure 21
0001
1000
0100
1000
0001
0000
1001
0010
,  // measure 22
0100
0001
1000
0100
0010
0000
0001
0100
,  // measure 23
0020
0000
2030
0000
3001
0100
0001
0010
,  // measure 24
0100
0000
1000
0000
0001
0000
1000
0100
,  // measure 25
1000
0000
0000
0000
1000
0000
0000
1000
0001
0000
1000
0000
0001
0000
0010
0000
,  // measure 26
0100
0000
0000
0000
0100
0000
0000
0100
1000
0000
0010
0000
0100
0000
0001
0000
,  // measure 27
0010
0000
0000
0000
0010
0000
0000
0010
0001
0000
1000
0000
0010
0000
1000
0000
,  // measure 28
0100
0000
1000
0001
1000
0000
0100
0010
,  // measure 29
0001
0000
0001
0000
0100
0000
1001
0010
,  // measure 30
0100
0000
0100
0000
0010
1000
0100
0010
,  // measure 31
0002
0000
0203
0000
0301
0010
1000
0010
,  // measure 32
0001
0000
0001
0000
1000
1000
1000
1000
,  // measure 33
0020
1000
0100
1030
,  // measure 34
2000
0001
0100
3001
,  // measure 35
0002
1000
0010
1003
,  // measure 36
2000
0001
0100
3001
,  // measure 37
0101
1000
0010
0100
0001
0000
1000
0100
,  // measure 38
0010
0000
0001
0000
0100
0000
0000
0100
0010
0000
1000
0000
0100
0000
1000
0000
,  // measure 39
0010
0000
0010
0000
1000
0100
1000
0001
,  // measure 40
1000
0100
0000
1000
0001
0000
1000
0000
0100
1000
0000
0001
1000
0000
0100
0000
,  // measure 41
1000
0002
0200
0000
,  // measure 42
0000
0303
0000
0000
0000
0000
0000
0000
;

//---------------dance-single - ----------------
#NOTES:
     dance-single:
     :
     Easy:
     2:
     0.175,0.180,0.022,0.143,0.000:
1000
0000
1000
0000
,
2000
3000
0000
0000
,
0001
0000
0001
0000
,
0002
0003
0000
0000
,
1000
0100
0100
1000
,
0001
0000
0001
0000
,
0001
1000
0100
0100
,
1000
0000
0000
1001
,
0010
0100
0000
0100
,
0000
0100
0001
0001
,
0010
0000
0001
0000
,
1000
0000
0000
0000
,
0000
0001
0000
0001
,
0000
1000
0000
1000
,
0000
0100
0000
1000
,
0000
0001
1000
0001
,
2000
3000
2000
3000
,
0001
0000
0001
0000
,
0200
0300
0200
0300
,
0010
0000
0010
0000
,
1000
1000
1000
0000
,
0001
0100
0001
0000
,
2000
3000
2000
3000
,
0100
0000
0010
0000
,
0001
0000
0001
0000
,
1000
0100
1000
0000
,
0100
0000
0010
0000
,
0001
1000
0001
0000
,
1000
0000
0001
0001
,
1000
0000
1000
0000
,
0200
0300
0200
0300
,
1000
0000
1000
0001
,
0010
0000
0010
0010
,
0010
0000
0001
0000
,
1000
1000
1000
0000
,
0100
0000
1000
0000
,
0001
1000
0001
0000
,
1001
0010
0100
0000
,
0002
0003
2000
3000
,
0001
1000
0001
0000
,
0200
0000
0000
0300
;

//---------------dance-single - Copied from----------------
#NOTES:
     dance-single:
     Copied from:
     Medium:
     4:
     0.305,0.272,0.154,0.209,0.000:
0000
2001
0001
3001
,
0002
0100
0100
0103
,
0200
0010
0010
0310
,
0020
1000
1000
1030
,
0001
0010
0100
1000
,
0001
1000
0010
0010
,
0100
0001
1000
0100
,
1000
0002
1003
1001
,
0010
0100
0100
0001
,
0010
0001
1000
0010
,
1000
0100
1000
0001
,
1100
0000
0000
0000
0000
0001
1000
0001
,
0000
1000
0100
1000
0000
0001
0100
0001
,
0000
1000
0001
1000
0000
0001
0100
0001
,
0000
1000
0100
0001
,
0100
1000
0020
0130
,
2001
0001
0001
3001
,
1000
1000
0001
0001
,
0201
0001
0001
0301
,
1000
1000
0100
0001
,
1001
0010
0100
0101
,
0010
1000
0100
1000
,
0210
0010
0010
0310
,
1000
1000
1000
0100
,
2000
0001
0100
0001
,
0010
0100
3001
0000
,
0200
1000
0010
0001
,
1000
0010
0301
1000
,
1001
0010
0100
0000
,
0101
0010
1000
0100
,
2010
0000
0010
0000
0010
0000
0010
3000
,
0100
0100
0100
0100
,
0002
0000
1000
0000
0100
0000
1000
0003
,
2000
0000
0001
0000
0100
0000
0001
3000
,
0002
0010
0100
0010
,
0203
0010
0001
0310
,
1001
0010
0100
0000
,
1100
0001
0010
0000
,
2001
0000
0001
0000
0001
0000
0001
3000
,
1000
1000
1000
0001
,
0100
0020
2000
0000
,
0000
3030
0000
0000
0000
0000
0000
0000
;
