#TITLE:PARKLIFE;
#SUBTITLE:;
#ARTIST:blur;
#TITLETRANSLIT:;
#SUBTITLETRANSLIT:;
#ARTISTTRANSLIT:;
#CREDIT:;
#BANNER:PARKLIFE.png;
#BACKGROUND:PARKLIFE-bg.png;
#LYRICSPATH:;
#CDTITLE:CD.png;
#MUSIC:PARKLIFE.mp3;
#OFFSET:-6.968;
#SAMPLESTART:48.615;
#SAMPLELENGTH:12.000;
#SELECTABLE:YES;
#DISPLAYBPM:136.000;
#BPMS:0.000=136.233,4.000=141.254,8.000=135.816,12.000=139.516,16.000=138.212,20.000=139.443,24.000=135.851,28.000=139.188,32.000=139.333,36.000=137.499,40.000=136.582,44.000=138.680,48.000=138.284,52.000=139.699,56.000=138.212,60.000=137.998,64.000=138.861,68.000=137.748,72.000=138.248,76.000=138.212,80.000=138.897,84.000=138.105,88.000=138.948,90.000=139.224,92.000=140.993,94.000=136.933,96.000=136.477,100.000=139.845,104.000=137.641,108.000=141.405,112.000=132.571,114.000=139.735,116.000=139.699,120.000=138.572,124.000=136.758,128.000=140.862,130.000=134.462,132.000=140.556,136.000=138.581,140.000=139.069,144.000=137.668,148.000=139.233,152.000=137.828,156.000=137.908,160.000=139.206,164.000=139.151,168.000=135.903,172.000=139.042;
#STOPS:;
#BGCHANGES:;

//---------------dance-single - MANIAC----------------
#NOTES:
     dance-single:
     MANIAC:
     Hard:
     6:
     0.390,0.402,0.411,0.137,0.200:
1000
0000
0001
0000
,
0100
0000
0010
0110
,
0010
0000
1000
0000
,
0001
0000
1000
1100
,
1000
0010
0100
0001
,
0100
0010
1010
1010
,
1000
0100
0010
0001
,
1000
0100
0011
0011
,
1000
0000
0000
0000
0000
0001
0100
0000
0000
0000
0000
0001
,
0100
0000
0000
0000
0000
0010
1000
0000
0000
1010
0000
0000
,
0001
0000
0000
0000
0000
1000
0100
0000
0000
0000
0000
1000
,
0100
0000
1010
0101
,
0001
0000
0000
1000
0000
0100
1000
0000
0000
0001
0000
0100
,
0001
0000
0000
1000
0000
0010
0100
0000
0000
0110
0000
0000
,
1000
0000
0000
1000
0000
1000
0001
0000
0000
0001
0000
0001
,
1000
1000
1100
0011
,
0100
0000
0000
0010
0000
0100
0001
0000
0000
0100
0000
0010
,
1000
0000
0000
0001
0000
0100
0001
0000
0001
0100
0000
0000
,
0010
0000
0000
1000
0000
0010
0100
0000
0000
0001
0000
0100
,
0010
1000
0011
1100
,
1000
0000
0000
0100
0000
0010
0001
0000
0000
0010
0000
0100
,
1000
0000
0000
0010
0000
0100
0001
0000
0001
0100
0000
0000
,
0010
0000
0000
0100
0000
0100
0001
0000
0000
0001
0000
0001
,
1000
0000
0000
1001
0000
0000
1000
0001
1000
0001
1000
0001
,
2000
3020
2030
3001
,
0001
0100
0100
0010
,
0010
1000
1010
0100
,
0101
0001
1000
0001
,
2000
0000
3020
0000
,
0230
0302
1003
0000
,
0011
1100
0011
1100
,
0001
0000
0000
1000
0000
0000
0000
0000
1000
0010
0000
0000
,
1010
0000
0101
0000
,
0110
0000
0000
1001
0000
0000
1000
0001
1000
0001
1000
0001
,
2000
3002
2003
3010
,
0010
0100
0100
0001
,
0001
1000
1010
0001
,
0101
0001
0001
1000
,
2010
3001
0012
1003
,
1000
0010
0100
0001
,
1010
0101
1010
0101
,
1000
0010
0000
1000
,
1001
0000
0110
0000
,
1010
0000
0000
0001
0000
0000
0100
0001
0100
0001
0100
0001
,
0100
0000
0000
0000;

//---------------dance-single - TRICK----------------
#NOTES:
     dance-single:
     TRICK:
     Medium:
     4:
     0.313,0.352,0.388,0.103,0.068:
1000
0000
0010
0000
,
1000
0000
0001
0100
,
0010
0000
1000
0000
,
0010
0000
0100
0001
,
1000
0000
0100
0000
,
1000
0000
0010
0100
,
0001
0000
0010
0000
,
0001
0000
1000
0100
,
1100
0000
0001
0001
,
0100
0000
0010
0010
,
1010
0000
1000
0000
,
0001
0000
0101
1010
,
0010
0000
0000
0000
0000
0100
0010
0000
0000
0000
0000
0100
,
0010
0000
0000
0000
0000
1000
0001
0000
0000
1000
0000
0000
,
1001
0000
0000
0000
0000
0001
1000
0000
0000
0000
0000
0001
,
1000
0000
1010
0101
,
0001
0001
1000
1000
,
0010
0000
0000
0010
0000
0000
1000
0000
0010
1000
0000
0000
,
0010
0010
0100
0100
,
0001
0000
1001
0110
,
1000
0000
0000
0000
0000
0001
1000
0000
0000
0000
0000
1000
,
0010
0000
0000
0000
0000
0010
0100
0000
0100
0010
0000
0000
,
1000
0000
0000
0010
0000
0010
0100
0000
0000
0001
0000
0001
,
1000
0000
0000
0001
0000
0000
2002
0000
0000
0000
3003
0000
,
1000
0100
0001
0100
,
1000
0100
0001
0100
,
1000
1001
0001
1001
,
1000
0010
0100
0001
,
0002
0003
0002
0003
,
2000
0010
3010
0000
,
1010
0101
1010
0101
,
1000
0010
0000
1000
,
1001
0000
0110
0000
,
1001
0110
2000
3001
,
1000
0100
0001
0100
,
1000
0100
0001
0100
,
1000
1010
1000
0101
,
0001
1000
0010
0100
,
2002
3000
0020
0030
,
0103
0010
1000
0000
,
1100
0011
1100
0011
,
1000
0100
0000
0010
,
0110
0000
1001
0000
,
0110
0110
0110
0110
,
0110
0000
0000
0000;

//---------------dance-single - BASIC----------------
#NOTES:
     dance-single:
     BASIC:
     Easy:
     2:
     0.228,0.301,0.217,0.000,0.000: // measure 1
0010
0000
0010
0000
,  // measure 2
0010
0000
0010
0010
,  // measure 3
0100
0000
0100
0000
,  // measure 4
0100
0000
0100
0100
,  // measure 5
0001
0000
0001
0000
,  // measure 6
0001
0000
0001
0001
,  // measure 7
1000
0000
1000
0000
,  // measure 8
1000
0000
1000
1000
,  // measure 9
0010
0000
0100
0000
,  // measure 10
0010
0000
0100
0100
,  // measure 11
0010
0000
0100
0000
,  // measure 12
0010
0000
1001
1001
,  // measure 13
0001
0000
1000
0000
,  // measure 14
0001
0000
1000
1000
,  // measure 15
0001
0000
1000
0000
,  // measure 16
0001
0000
0110
0110
,  // measure 17
0010
0000
1000
0000
,  // measure 18
0001
0000
0001
0001
,  // measure 19
1000
0000
0010
0000
,  // measure 20
0100
0000
1001
1001
,  // measure 21
0001
0000
0100
0000
,  // measure 22
0010
0000
1000
1000
,  // measure 23
0010
0000
0100
0000
,  // measure 24
0010
0010
0010
0010
,  // measure 25
0100
0100
0010
0010
,  // measure 26
0100
0000
0001
0000
,  // measure 27
1000
1000
0001
0001
,  // measure 28
1000
0000
0001
0000
,  // measure 29
0100
0000
0010
0000
,  // measure 30
1000
0001
1000
0000
,  // measure 31
1001
0001
1001
0001
,  // measure 32
1000
0010
0000
0000
,  // measure 33
1001
0000
0110
0000
,  // measure 34
1001
0110
0001
0100
,  // measure 35
0001
0001
0100
0100
,  // measure 36
0001
0000
0001
0000
,  // measure 37
1000
1000
0010
0010
,  // measure 38
1000
0000
0001
0000
,  // measure 39
0100
0000
0010
0000
,  // measure 40
1000
1000
1000
0000
,  // measure 41
0110
0010
0110
0010
,  // measure 42
0110
0010
0000
0100
,  // measure 43
1001
0000
0110
0000
,  // measure 44
1001
0110
1000
0001
,  // measure 45
0100
0000
0000
0000
;
