#TITLE:PARANOiA Juliana;
#SUBTITLE:;
#ARTIST:P;
#TITLETRANSLIT:;
#SUBTITLETRANSLIT:;
#ARTISTTRANSLIT:;
#CREDIT:;
#BANNER:PARANOiA Juliana.png;
#BACKGROUND:PARANOiA Juliana-bg.png;
#LYRICSPATH:;
#CDTITLE:./CDTITLES/KONAMI ORIGINAL REMIX.PNG;
#MUSIC:PARANOiA Juliana.mp3;
#OFFSET:-1.868;
#SAMPLESTART:67.130;
#SAMPLELENGTH:12.000;
#DISPLAYBPM:*;
#SELECTABLE:YES;
#BPMS:0.000=264.000,128.000=65.999,144.000=264.000;
#STOPS:235.000=0.230
;
#BGCHANGES:;

//---------------dance-single - ----------------
#NOTES:
     dance-single:
     :
     Hard:
     10:
     0.769,1.000,0.130,0.050,0.070:
1000
0010
0000
1000
0100
0000
1000
0010
,
0000
1000
0100
0000
1000
0000
0001
0000
,
0010
0001
0000
0100
0001
0000
0010
0001
,
0000
0100
0001
0000
1000
0000
0010
0000
,
1000
0001
0000
0100
0010
0000
1000
0001
,
0000
0100
0010
0000
1000
0000
0001
0000
,
1000
0100
0000
0010
0001
0000
1000
0001
,
2000
0000
3000
0000
0001
0100
0010
0000
,
1000
0100
0000
0001
0100
0000
1000
0100
,
0000
0001
0100
0000
0010
0000
0010
0000
,
1000
0010
0000
0001
0010
0000
1000
0010
,
0000
0001
0010
0000
1000
0000
1000
0000
,
0100
0001
0000
0100
1000
0000
0010
0001
,
0000
0010
1000
0000
0100
0000
0100
0000
,
1000
0010
0000
0001
0010
0000
1000
0100
,
0010
0000
0110
0000
0001
1000
0001
0000
,
1000
0010
0100
0001
,
1000
0000
0001
0000
1000
0100
1000
0100
,
0010
0001
0010
0100
,
1000
0000
0100
0000
0010
0100
0010
0100
,
1000
0001
0100
0010
,
1000
0000
0001
0000
0100
0010
0100
1000
,
0001
0100
0000
0010
1000
0000
0100
0001
,
0100
0000
0010
0000
1000
0001
1000
0000
,
0101
0010
1000
0100
,
1000
0000
0001
0000
0100
0010
1000
0001
,
0010
0001
0100
0010
,
0001
0000
0010
0000
1000
0100
0010
0001
,
1000
0010
0000
0100
0001
0000
0010
0100
,
0000
0100
0010
0000
0001
0010
0100
1000
,
0001
0100
0000
0100
0010
0000
1000
0001
,
0100
0001
1000
0000
0100
0010
0001
1000
,
0010
0000
0000
1001
0000
0000
0000
0000
0100
0000
0010
0000
0100
0000
0000
0001
,
0100
0000
0000
0000
0000
0000
0101
0000
0000
0000
0000
0000
0000
0000
0000
0000
0000
0000
0000
0000
0010
0000
0000
0000
1000
0000
0001
0000
0000
0000
0100
0010
,
0100
0000
0000
1001
0100
0000
0000
0000
1000
0000
1000
0000
0010
0100
0001
0100
,
0010
0000
0000
0000
0000
0000
0011
0000
1000
0000
0000
0000
0000
0000
0000
0000
0100
0000
0000
0000
1001
0000
0000
0000
0010
0000
0010
0000
1000
0001
1000
0001
,
0100
0000
0100
0000
0001
0100
0000
0001
,
0010
0000
0001
0100
0000
0001
0010
0000
,
0100
0000
1000
0000
0010
1000
0000
0100
,
1000
0000
0010
1000
0000
0100
1000
0000
,
0001
0000
0101
0000
0000
1000
0001
0000
,
0100
0000
0010
1000
0100
0000
1100
0000
,
1000
0000
1010
0000
0000
0001
0100
0000
,
0010
0000
1000
0001
0100
0000
0101
0000
,
0001
0000
1000
0100
0000
1000
0010
0000
,
1000
0100
0000
1000
0100
0010
0001
0000
,
0100
0000
0001
0010
0000
0001
0100
0000
,
0001
0010
0000
0001
0100
0010
1000
0000
,
0001
0000
0100
0000
0001
0100
0010
0000
,
1000
0000
0001
0100
0010
1000
0100
0000
,
1000
0000
0010
0000
1000
0100
0010
0000
,
0100
0000
0001
0100
0010
0100
1000
0000
,
0110
0000
0100
1000
0000
1000
0100
0000
,
0100
0001
0000
0001
0100
0010
0100
0000
,
1000
0000
0010
0100
0000
0100
0010
0000
,
0010
0001
0000
0010
1000
0100
0010
0000
,
0001
0000
1000
0100
0000
0010
0001
0000
,
0100
0010
0000
1000
0001
1000
0100
1000
,
0010
0000
0100
0001
0000
0010
0200
0000
,
0300
0000
0010
1000
0001
1000
0010
0100
,
0000
0001
0010
0000
0001
1000
0000
0010
,
0100
0000
0001
0010
0100
1000
0001
0100
,
0000
0010
1000
0000
0100
0001
0000
0100
,
1000
0000
0010
0100
0001
1000
0100
0010
,
0000
0001
0100
0000
0100
1000
0000
0100
,
0001
0000
0010
0100
1000
0010
0100
0001
,
0000
1000
0010
0000
0100
0001
0020
0000
,
0130
0000
0001
0100
0010
0100
1000
0001
,
0000
0100
1000
0000
0100
0010
0000
0100
,
0001
0000
1000
0010
0100
0001
1000
0100
,
0000
0010
0100
0000
0100
0001
0000
0010
,
1000
0001
0100
0010
0100
0001
1000
0010
,
0000
0001
0100
0000
0010
1000
0000
0100
,
0010
1000
0001
1000
0010
0100
0010
1000
,
0000
0001
0100
0000
0010
1000
0100
0000
,
1000
0000
1000
0010
0100
0001
0010
0100
,
0000
0010
0100
0000
0001
1000
0000
0001
,
1000
0000
0100
0010
0001
1000
0010
0100
,
0000
0010
0100
0000
1000
0001
0000
1000
,
0001
0000
1000
0010
0100
0001
1000
0010
,
0000
0100
0010
0000
1000
0010
0000
0100
,
0010
0000
0001
0010
1000
0100
0010
0001
,
0000
0010
0001
0000
1000
0100
1000
0000
,
0100
0001
0100
0000
0010
0000
0001
0100
,
0000
0010
0100
0000
0001
0100
0000
0010
,
0100
0000
0010
1000
0100
0010
0100
0001
,
0000
0100
0010
0000
0100
0001
0000
0100
,
0010
0000
0001
0100
0010
0100
1000
0100
,
0000
0010
0100
0000
1000
0100
0000
0010
,
0100
0000
1000
0100
0001
0100
0010
0000
,
1000
0100
0000
0001
0100
0000
1000
0010
,
0100
0001
1000
0100
0010
0100
2002
0000
,
0000
0000
0000
0000
,
0000
0000
0000
3003
;

//---------------dance-double - ----------------
#NOTES:
     dance-double:
     :
     Hard:
     10:
     0.756,1.000,0.160,0.020,0.080:
00100000
01000000
00010000
10000000
,
00010000
01000000
00000000
00001000
00010000
00000000
00000100
00000000
,
00001000
00000010
00000100
00000001
,
00000010
00000100
00000000
00000010
00001000
00000000
00010000
00000000
,
00001000
00000000
01000000
00000000
00010000
10000000
00010000
00000000
,
01000000
00000000
00100000
10000000
01000000
00100000
00001000
00000000
,
00010000
00000000
00000100
00000000
00001100
00000000
00000001
00000100
,
00000000
00000000
00000000
00000000
00000001
00001000
00000001
00000000
,
00000100
00001000
00010000
00001000
,
00000100
00000000
00000001
00001000
00000010
00000100
00000001
00000000
,
00001000
00000100
00010000
00001000
,
00100000
00000000
00010000
01000000
00100000
10000000
01000000
00000000
,
10000000
00010000
01000000
00010000
,
00100000
00001000
00010000
00000100
00001000
00000010
00000100
00000000
,
00000001
00000010
00000000
00000010
00000100
00000000
00001000
00001100
,
00000000
00000001
00000100
00000010
00001000
00000100
00001000
00000100
,
00010000
00001000
00000000
00100000
00010000
00000000
01000000
00100000
,
00000000
10000000
00010000
00000000
01000000
00100000
01000000
00000000
,
00010000
10000000
00000000
01000000
00010000
00000000
01000000
00010000
,
00000000
00001000
00010000
00000000
00000010
00001000
00000100
00000000
,
00001000
00000100
00000000
00001000
00000010
00000000
00000100
00000001
,
00000000
00000010
00000001
00000000
00000100
00001000
00010000
00000000
,
00001000
00000000
00100000
00000000
00001000
00000000
00100000
00010000
,
00100000
00000000
00010000
00000000
10000000
00010000
10000000
00000000
,
00010000
00100000
01000000
11000000
,
10000000
00010000
10000000
00000000
00010000
10000000
00010000
00000000
,
01000000
00001000
00010000
00011000
,
00001000
00010000
00001000
00000000
00010000
00000100
00010000
00000000
,
00000010
00001000
00000100
00000010
,
00000001
00000010
00000100
00000000
00001000
00000010
00000100
00000001
,
00000010
00000000
00001000
00000000
00010000
00000000
00100000
10000000
,
01000000
00000000
11000000
00000000
10000000
00100000
01000000
00010000
,
00100000
00000000
00000000
00100000
00000000
00000000
00000000
00000000
00000000
00000000
10000000
01000000
00010000
00001000
00000100
00000001
,
00000010
00000000
00000000
00000000
00000000
00000000
00000010
00000000
00000000
00000000
00000000
00000000
00000000
00000000
00000000
00000000
00000000
00000000
00000000
00000000
00000001
00000000
00000000
00000000
00000100
00000000
00001000
00000000
00000000
00000000
00001000
00010000
,
01000000
00000000
00000000
10010000
10000000
00000000
00100000
00000000
01000000
00000000
00010000
00000000
00100000
00000000
00000000
00001000
,
00011000
00000000
00000000
00000000
00000000
00000000
00001100
00000000
00010000
00000000
00000000
00000000
00000000
00000000
00000000
00000000
00000001
00000000
00000000
00000000
00001100
00000000
00000000
00000000
00000101
00000000
00000101
00000000
00000010
00001000
00000010
00001000
,
00000100
00000000
00001000
00000100
00000000
00000100
00001000
00000000
,
00000001
00000100
00000000
00000100
00000001
00000000
00000100
00001000
,
00000100
00000000
00001000
00000000
00010000
00001000
00000000
00001000
,
00010000
00000000
01000000
00010000
00000000
00010000
01000000
00000000
,
00010000
00000000
01000000
10000000
00000000
10000000
01000000
00000000
,
10000000
00100000
00000000
00100000
10000000
00000000
00010000
10000000
,
00010000
00000000
10000000
01000000
00000000
00010000
00001000
00000000
,
00010000
00001000
00000000
00000010
00000001
00000000
00000010
00000000
,
00000001
00001000
00000010
00000100
,
00000101
00000000
00000010
00000100
00001000
00000000
00000100
00010000
,
00001000
00000000
00010000
00100000
01000000
00000000
00010000
00000000
,
10000000
00100000
01000000
00000000
00001000
00010000
00001000
00000000
,
00000010
00000001
00001000
00000000
00000010
00000000
00000100
00000000
,
00000001
00001000
00000001
00000000
00000100
00000000
00001000
00000000
,
00010000
00001000
00010000
00000000
00001000
01000000
00001000
00000000
,
01000000
00010000
10000000
01000000
00100000
00000000
01000000
00000000
,
00010000
00001000
01000000
00000000
00010000
10000000
01000000
00000000
,
10000000
01000000
00100000
00010000
01000000
00100000
10000000
00000000
,
01000000
00010000
01000000
00000000
00010000
00001000
00010000
00000000
,
00000100
00001000
00000010
00000100
00000001
00000010
00000100
00000000
,
00001000
00000000
00000001
00000000
00000100
00001000
00010000
00000000
,
00001000
00100000
00010000
01000000
,
00110000
00000000
01001000
00011000
,
00000000
00000000
00000000
00000000
00000000
00000200
00000000
00000000
00000000
00000000
00000000
00000000
00000310
00000000
00000100
00000000
,
00000001
00000000
00001000
00000100
00000010
00000000
00000100
00000000
,
00001000
00000000
00000001
00000000
00000100
00000000
00001000
00010000
,
00000000
00010000
00100000
00000000
00100000
10000000
00000000
10000000
,
01000000
00000000
10000000
00010000
10000000
00010000
01000000
00000000
,
00100000
00000000
10000000
00010000
10000000
00000000
01000000
00000000
,
00010000
00001000
00010000
00000100
00001000
00000000
00000010
00000000
,
00000100
00000000
00000001
00000000
00000010
00001000
00010000
00000000
,
00001000
00000000
00100000
00010000
00100000
00010000
01000000
00100000
,
00000000
00100000
10000000
00000000
10000000
01000000
00000000
01000000
,
00010000
00000000
00001000
01000000
00010000
01000000
00001000
00000000
,
00010000
00000000
00000100
00001000
00000100
00000000
00010000
00000000
,
00000010
00000100
00000001
00000010
,
00001000
00000000
00000100
00000010
00000001
00000000
00001000
00000100
,
00000010
00000000
00000100
00010000
00001000
00000000
00100000
01000000
,
10000000
00000000
00010000
01000000
00100000
10000000
01000000
00010000
,
01000000
00010000
00001000
00010000
00000000
00000010
00001000
00000001
,
00000000
00000100
00000010
00000000
00001000
00000000
00000001
00000000
,
00000100
00000000
00001000
00010000
00001000
00010000
00000010
00000000
,
00000100
00000001
00001000
00000100
,
00010000
00001000
00100000
00010000
00100000
00000000
01000000
00000000
,
10000000
00000000
00100000
00000000
01000000
00010000
10000000
01000000
,
00100000
01000000
10000000
00010000
01000000
00001000
00010000
00001000
,
00000000
00000100
00000001
00000000
00000001
00001000
00000100
00000000
,
00001001
00000000
00000010
00000100
00000010
00000100
00000010
00000001
,
00000000
00000010
00001000
00000000
00000100
00010000
00000000
00001000
,
00100000
00000000
00010000
10000000
01000000
10000000
00010000
01000000
,
00000000
00100000
10000000
00000000
01000000
00010000
00000000
00001000
,
00010000
00000000
00100000
00010000
00001000
00010000
00001000
00000100
,
00000000
00000100
00000010
00000000
00000010
00001000
00000000
00000001
,
00000100
00000000
00000001
00000010
00000100
00001000
00000001
00000100
,
00000010
00000000
00001000
00000100
00010000
00001000
01000000
00000000
,
00010000
10000000
01000000
00010000
00001000
00000010
00000002
00000000
,
00000000
00000000
00000000
00000000
,
00000000
00000000
00000000
00000003
;

//---------------dance-single - ----------------
#NOTES:
     dance-single:
     :
     Medium:
     8:
     0.573,0.751,0.150,0.110,0.040:
0010
0000
0000
0100
0000
0000
0001
0000
,
0000
1000
0000
0000
0200
0000
0010
0000
,
0310
0000
0000
0001
0000
0000
1000
0000
,
0000
0010
0000
0000
0200
0000
0001
0000
,
0301
0000
1000
0001
,
0000
0100
0010
1000
,
0100
0000
1000
0000
0001
0000
1000
0100
,
0000
0000
0000
0000
1000
0001
1000
0000
,
0001
0100
0010
1000
,
0000
0001
0100
0000
0010
0000
0010
0000
,
1000
0001
0100
0010
,
0000
1000
0100
0000
0100
0000
1000
0000
,
0010
0100
0001
0010
,
0000
1000
0010
0000
0001
0000
0001
0000
,
1000
0000
0010
0000
0100
0000
0001
0010
,
0000
0000
0000
0000
1000
0001
1000
0001
,
0100
0100
0010
0010
,
1000
1000
0100
0001
,
0100
0100
0010
0010
,
0001
0001
1000
0100
,
0010
0010
1000
1000
,
0010
0010
0001
0100
,
0010
1000
0000
0010
1000
0000
0001
1000
,
0000
0000
0000
0000
1000
0001
1000
0000
,
0001
0100
0001
1000
,
0000
0100
1000
0000
0001
0000
0100
0000
,
0010
1000
0100
1000
,
0000
0010
0100
0000
0001
0000
0010
0000
,
1000
0010
0001
0100
,
0000
0010
1000
0000
0001
0000
0100
0000
,
0010
0000
1000
0000
0001
0000
0100
0010
,
0100
0000
0100
0000
0001
1000
0001
1000
,
0002
0000
0000
1000
0000
0000
0000
0000
0000
0000
0000
0000
0000
0000
0000
1000
,
2003
0000
0000
0001
0000
0000
0000
0000
0000
0000
0001
0000
0001
3001
0000
0001
,
0002
0000
0000
1000
2003
0000
0000
0000
3000
0000
0000
0000
0000
0000
0000
1000
,
2000
0000
0000
0001
3002
0000
0000
0000
0000
0000
1003
0000
2000
0000
0001
0000
,
3001
0100
0010
1000
,
0100
1000
0010
0100
,
0001
0010
0001
0100
,
0010
0000
0000
1100
0000
0000
0101
0000
,
0010
1000
0100
1000
,
0001
0010
0001
0100
,
0010
1000
0001
0010
,
0001
0000
0000
1010
0000
0000
0101
0000
,
1000
0000
0010
0000
0100
0001
0100
0000
,
0001
1000
0100
0010
,
0100
0000
1000
0000
0001
1000
0001
0000
,
0100
0000
0000
0101
0000
0000
1010
0000
,
0100
0000
0001
0000
0010
0001
0010
0000
,
0100
1000
0010
0100
,
0001
0000
0010
0000
1000
0010
1000
0000
,
0010
0000
0000
0011
0000
0000
0101
0000
,
0010
0000
1000
0001
0000
0001
1000
0000
,
0000
0001
1000
0001
,
0000
0100
0010
0100
,
0001
1000
0000
1000
0001
0000
0100
0000
,
0010
0000
1000
0100
0000
0100
1000
0000
,
0000
0001
0010
0100
,
0000
1000
0010
0110
,
0000
0000
0000
0000
0000
0000
1000
0001
,
0000
1000
0010
0000
0100
0000
0001
0000
,
0010
1000
0010
0100
,
0001
0100
0010
0001
,
1000
0000
1100
0000
0000
0000
0001
0010
,
0000
0001
0100
0000
0010
0000
1000
0000
,
0100
0001
0100
1000
,
0010
0100
0010
0001
,
0010
0000
1000
0001
1000
0000
0010
0100
,
0000
0010
0100
0000
0001
0000
1000
0000
,
0100
0010
0001
0100
,
0010
1000
0001
0100
,
0001
0000
0101
0000
0000
0000
0010
1000
,
0000
0100
1000
0000
0001
0000
0010
0000
,
1000
0010
0001
0100
,
0010
1000
0100
0001
,
0100
0000
1000
0001
1000
0001
1000
0000
,
0010
0100
0001
0010
,
0100
0000
1000
0001
1000
0000
0010
0000
,
0100
0001
0010
1000
,
0010
0000
0001
0100
0001
0000
1000
0000
,
0010
0100
0001
0010
,
0100
0000
1000
0100
0010
0000
0001
0000
,
0100
0010
1000
0001
,
0100
0000
0010
1000
0001
0000
0100
0000
,
0000
0000
0101
0000
0000
0000
0010
1000
,
0010
0000
1000
0100
1000
0000
0001
0000
,
0000
0000
1100
0000
0000
0000
1000
0001
,
1000
0000
0001
1000
0001
0000
0100
0000
,
0000
0011
0000
1000
,
0010
0100
0001
0010
,
1000
0000
0010
0000
0001
0000
0100
0010
,
0100
0000
0010
0100
0010
0000
2002
0000
,
0000
0000
0000
0000
,
0000
0000
0000
3003
;

//---------------dance-double - ----------------
#NOTES:
     dance-double:
     :
     Medium:
     8:
     0.556,0.657,0.140,0.060,0.040:
00100000
00000000
00000000
10000000
00000000
00000000
00010000
00000000
,
00000000
00100000
00000000
00000000
00001000
00000000
00010000
00000000
,
00001000
00000000
00000000
00010000
00000000
00000000
00001000
00000000
,
00000000
00000100
00000000
00000000
00000001
00000000
00000100
00000000
,
00000010
00010000
00001000
00010000
,
01000000
10000000
00100000
10000000
,
01000000
00000000
00100000
00000000
00010000
00000000
00100000
00001000
,
00000000
00000000
00000000
00000000
00010000
00001000
00010000
00000000
,
00001000
01000000
00100000
10000000
,
01000000
00010000
00001000
00100000
,
00001000
00010000
00000100
00010000
,
00000010
00001000
00000001
00000100
,
00001000
00010000
00100000
10000000
,
01000000
00100000
00001000
00010000
,
00000100
00000000
00000010
00000000
00000001
00000000
00001000
00000100
,
00000000
00000000
00000000
00000000
00000001
00001000
00000001
00001000
,
00000001
00000001
00001000
00001000
,
00000100
00000000
00000100
00000000
00010000
00001000
00010000
00000000
,
00001000
00001000
00100000
00100000
,
00010000
00000000
00010000
00000000
10000000
00010000
10000000
00000000
,
01000000
01000000
00010000
00010000
,
00001000
00000000
00001000
00000000
00000100
00000001
00000100
00000000
,
00000001
00000000
00000100
00000000
00001000
00000000
00010000
00001000
,
00000000
00000000
00000000
00000000
00001000
00010000
00001000
00000000
,
00010000
00001000
00100000
00010000
,
01000000
10000000
01000000
00010000
,
00100000
00001000
00010000
00001000
,
00000100
00000001
00000010
00000100
,
00001000
00000010
00010000
00001000
,
00010000
00100000
10000000
01000000
,
00100000
00001000
00010000
00001000
,
00000100
00000000
00000001
00000000
00001000
00000100
00001000
00000100
,
00010000
00000000
00000000
00011000
00000000
00000000
00000000
00000000
00000000
00000000
00000000
00000000
00000000
00000000
00000000
10000000
,
10000000
00000000
00000000
10010000
00000000
00000000
00000000
00000000
00000000
00000000
00010000
00000000
00001000
00001000
00000000
00010000
,
00010000
00000000
00000000
00000100
00000100
00000000
00000000
00000000
00000000
00000000
00000000
00000000
00000000
00000000
00000000
00001000
,
00001000
00000000
00000000
00000001
00000001
00000000
00000000
00000000
00000000
00000000
00000002
00000000
00000023
00000000
00000230
00000000
,
00001300
00000000
00000001
00000000
00000000
00000100
00001000
00000000
,
00000100
00001000
00010000
01000000
,
10000000
00000000
00010000
00000000
00000000
10000000
00010000
00000000
,
00100000
00000000
00000000
10010000
00000000
00000000
01000000
00000000
,
00100000
00000000
10000000
00000000
00000000
00010000
10000000
00000000
,
00100000
00010000
00001000
00000100
,
00000010
00000000
00000010
00000000
00000000
00001000
00000100
00000000
,
00001000
00000000
00000000
00001001
00000000
00000000
00000010
00000000
,
00000001
00000000
00000100
00000000
00000000
00000001
00001000
00000000
,
00000100
00010000
00001000
00100000
,
01000000
00000000
10000000
00000000
00000000
10000000
00010000
00000000
,
01000000
00000000
00000000
01100000
00000000
00000000
00010000
00000000
,
01000000
00000000
10000000
00000000
00000000
01000000
00010000
00000000
,
00100000
00001000
00100000
01000000
,
00010000
00000000
00001000
00000000
00000000
00010000
00000100
00000000
,
00001000
00000000
00000000
00000110
00000000
00000000
00000001
00000000
,
00001000
00000000
00000010
00000100
00000000
00000001
00001000
00000000
,
00000010
00010000
00001000
00000000
,
00010000
01000000
00100000
01000000
,
10000000
00010000
00000000
00010000
10000000
00000000
01000000
00000000
,
00100000
00000000
00010000
01000000
00000000
00001000
00010000
00000000
,
00000100
00000010
00000001
00000000
,
00000010
00001000
00010000
01100000
,
00000000
00000000
00000000
10000000
,
00000000
00010000
10000000
00000000
01000000
00000000
00010000
00000000
,
00001000
00000010
00000001
00000100
,
00001000
00010000
00100000
01000000
,
00100000
10100000
00000000
00010000
,
00000000
00010000
00001000
00000000
00000010
00000000
00001000
00000000
,
00010000
01000000
10000000
00100000
,
00010000
00001000
00010000
00000100
,
00001000
00000000
00001010
00000000
00000000
00000000
00000001
00001000
,
00000000
00001000
00000100
00000000
00010000
00000000
00001000
00000000
,
00000010
00000001
00000010
00001000
,
00010000
01000000
10000000
01000000
,
00010000
00000000
00011000
00000000
00000000
00000000
00100000
10000000
,
00000000
10000000
00010000
00000000
01000000
00000000
00100000
00000000
,
00010000
00001000
00000100
00000001
,
00000100
00000010
00001000
00000100
,
00000020
00000100
00000130
00000001
,
00000100
00001000
00000010
00010000
,
00001000
00000000
00100000
00010000
00100000
00000000
01000000
00000000
,
10000000
00010000
00100000
10000000
,
00100000
00000000
00010000
01000000
00010000
00000000
00100000
00000000
,
00001000
00010000
00000100
00001000
,
00000010
00000000
00000100
00000001
00000100
00000000
00000001
00000000
,
00000100
00000010
00010000
00001000
,
01000000
00000000
00010000
00100000
00010000
00000000
10000000
00000000
,
00000000
01010000
00000000
00000000
10000000
00000000
00100000
00000000
,
00100000
10000000
10000000
00010000
,
00000000
11000000
00000000
00000000
01000000
00000000
00010000
00000000
,
00010000
00001000
00001000
00000100
,
00000000
00000101
00000000
00000000
00000001
00000000
00000100
00000000
,
00000100
00001000
00001000
00010000
,
00100000
00000000
10000000
00000000
01000000
00000000
00010000
00001000
,
00010000
00000000
00000100
00000010
00000001
00000000
00000220
00000000
,
00000000
00000000
00000000
00000000
,
00000000
00000000
00000000
00000330
;

//---------------dance-single - ----------------
#NOTES:
     dance-single:
     :
     Easy:
     6:
     0.447,0.610,0.460,0.020,0.020:
0001
0000
1000
0000
,
0010
0100
0001
0010
,
0100
0000
0100
0000
,
1000
0010
0100
0001
,
1000
0000
1000
0000
,
0010
0010
0010
0000
,
1100
0000
0101
0000
,
1001
0000
0000
0000
,
0010
0000
0100
0000
,
0001
0010
0100
1000
,
0010
0000
0100
0000
,
1000
0001
1000
0001
,
0100
0000
0010
0000
,
1000
1000
1000
0000
,
0101
0000
1100
0000
,
1001
0000
0000
0000
,
0010
1000
0100
1000
,
0010
1000
0100
0000
,
0010
0001
0100
0001
,
0010
0001
0100
0000
,
0010
1000
0100
1000
,
0010
0100
0001
0000
,
1000
0001
1000
0001
,
0100
0000
1001
0000
,
0010
0100
0001
0100
,
0010
0100
0001
0000
,
1000
0100
0010
0100
,
1000
0100
0010
0000
,
0100
1000
0001
1000
,
0001
0100
0001
0000
,
1000
0001
1000
0001
,
0010
0000
1001
0000
,
1001
0000
0000
1001
0000
0000
0000
0000
0000
0000
0000
0000
0000
0000
0000
0000
,
1001
0000
0000
1001
0000
0000
0000
0000
0000
0000
0000
0000
0000
0000
0000
0000
,
1100
0000
0000
1100
0000
0000
0000
0000
0000
0000
0000
0000
0000
0000
0000
0000
,
0101
0000
0000
0101
0000
0000
0000
0000
1000
0000
1000
0000
0001
0000
0001
0000
,
0100
0100
0100
0000
,
0101
0000
1100
0000
,
0010
0010
0010
0000
,
1100
0000
0101
0000
,
0100
0100
0100
0000
,
0101
0000
1100
0000
,
0010
0010
0010
0000
,
1100
0000
0101
0000
,
0010
1000
0001
0000
,
0100
0000
0100
0000
,
0001
0010
0100
0000
,
1000
0000
1000
0000
,
0010
0100
0010
0000
,
0101
0000
1100
0000
,
0010
0001
0100
1000
,
0100
0001
0010
0000
,
1100
0000
0000
0000
,
0010
0100
0001
1000
,
1100
0000
0000
0000
,
0010
0100
0001
1000
,
0101
0000
0000
0000
,
0010
0001
0100
0010
,
1010
0000
0001
1000
,
0000
0000
0000
1000
,
0100
1000
0000
0001
,
0100
0001
0000
0100
,
0010
0100
0000
0001
,
1000
0001
0000
1000
,
0100
0001
0000
0100
,
1000
0010
0100
0010
,
0000
1001
0000
1100
,
0000
0101
0000
0010
,
1000
0010
0000
0100
,
0001
0100
0000
0001
,
0010
0001
0000
1000
,
0010
1000
0000
0001
,
0100
0001
1000
0010
,
0100
0001
0000
1100
,
0000
0101
0000
1001
,
0000
0110
0000
1100
,
1000
0100
1000
0100
,
1000
0100
0000
0100
,
0001
0100
0001
0100
,
0001
0100
0000
0010
,
1000
0100
0001
0100
,
1000
0010
0000
0101
,
0000
1100
0000
0011
,
0000
1010
0000
0001
,
0100
0010
1000
0100
,
0010
0001
0100
0010
,
1000
0001
0100
0010
,
1000
0100
0010
0001
,
0100
0010
1000
0010
,
0100
0001
1000
0110
,
0000
0000
1001
0000
,
0000
1100
0000
2002
,
0000
0000
0000
0000
,
0000
0000
0000
3003
;

//---------------dance-single - ----------------
#NOTES:
     dance-single:
     :
     Beginner:
     3:
     0.256,0.367,0.200,0.000,0.000:
0001
0000
0000
0000
,
0010
0000
0001
0000
,
0100
0000
0000
0000
,
1000
0000
0100
0000
,
1000
0000
0000
0000
,
0010
0000
0010
0000
,
0100
0000
0000
0000
,
1001
0000
0000
0000
,
0010
0000
0000
0000
,
0001
0000
0100
0000
,
0001
0000
0000
0000
,
1000
0000
1000
0000
,
0100
0000
0000
0000
,
0001
0000
0001
0000
,
0100
0000
0100
0000
,
1001
0000
0000
0000
,
0010
0000
0100
0000
,
0010
0000
0100
0000
,
0010
0000
0100
0000
,
0010
0000
0100
0000
,
0010
0000
0100
0000
,
0010
0000
0100
0000
,
1000
0000
1000
0000
,
1001
0000
0000
0000
,
0001
0000
0001
0000
,
1000
0000
0001
0000
,
1000
0000
0001
0000
,
1000
0000
0001
0000
,
1000
0000
0001
0000
,
1000
0000
0001
0000
,
0100
0000
0100
0000
,
1001
0000
1001
0000
,
1001
0000
0000
0000
,
1001
0000
0000
0000
,
1001
0000
0000
0000
,
1001
0000
0100
0100
,
0100
0000
0100
0000
,
0100
0000
0100
0000
,
0010
0000
0010
0000
,
0010
0000
0010
0000
,
0001
0000
0001
0000
,
0001
0000
0001
0000
,
1000
0000
1000
0000
,
1000
0000
1000
0000
,
0010
0000
0000
0000
,
0100
0000
0100
0000
,
0001
0000
0000
0000
,
1000
0000
1000
0000
,
0010
0000
0000
0000
,
1001
0000
1001
0000
,
0100
0000
0000
0000
,
1000
0000
0010
0000
,
1000
0000
0000
0000
,
0010
0000
0001
0000
,
0100
0000
0000
0000
,
0010
0000
1000
0000
,
0100
0000
0000
0000
,
0010
0000
0001
0000
,
0100
0000
0001
0001
,
0000
0000
0000
1000
,
0000
1000
0000
0001
,
0000
0001
0000
0100
,
0000
0100
0000
0001
,
0000
0001
0000
1000
,
0000
0001
0000
0100
,
0000
0010
0000
0010
,
0000
0000
0000
1001
,
0000
0000
0000
0010
,
0000
0010
0000
0100
,
0000
0100
0000
0001
,
0000
0001
0000
1000
,
0000
1000
0000
0001
,
0000
0001
0000
0100
,
0000
0100
0000
1001
,
0000
0000
0110
0000
,
0000
0000
0000
1000
,
0000
0100
0000
1000
,
0000
0001
0000
0100
,
0000
0001
0000
0100
,
0000
0001
0000
0010
,
0000
0100
0000
1000
,
0000
0010
0000
1001
,
0000
0000
0110
0000
,
0000
1000
0000
0001
,
0000
0010
0000
1000
,
0000
0010
0000
0001
,
0000
0100
0000
1000
,
0000
0100
0000
0001
,
0000
1000
0000
0010
,
0000
0100
0000
0110
,
0000
0000
1001
0000
,
0000
0110
0000
1001
;

//---------------dance-double - ----------------
#NOTES:
     dance-double:
     :
     Easy:
     6:
     0.456,0.610,0.340,0.070,0.020: // measure 1
00010000
00000100
00010000
00000000
,  // measure 2
00001000
01000000
00001000
00000000
,  // measure 3
00100000
01000000
00010000
00000000
,  // measure 4
10000000
01000000
00010000
00000000
,  // measure 5
00001000
00000010
00000100
00000000
,  // measure 6
00000001
00000100
00001000
00000000
,  // measure 7
00000010
00000000
00000101
00000000
,  // measure 8
00001100
00000000
00001001
00000000
,  // measure 9
00000010
00000000
00000100
00000001
,  // measure 10
00000000
00001000
00000010
00000100
,  // measure 11
00000001
00000000
00000100
00001000
,  // measure 12
00000000
00000100
00001000
00010000
,  // measure 13
01000000
00000000
00100000
01000000
,  // measure 14
00000000
10000000
00010000
01000000
,  // measure 15
00010000
00000000
11000000
00000000
,  // measure 16
01010000
00000000
00011000
00000000
,  // measure 17
00001000
00000100
00000000
00000010
,  // measure 18
00000000
00000100
00000000
00001000
,  // measure 19
00010000
00001000
00000000
01000000
,  // measure 20
00000000
00010000
00000000
10000000
,  // measure 21
00000000
01000000
00000000
00010000
,  // measure 22
00000000
00001000
00000000
00010000
,  // measure 23
00100000
00010000
00001000
00000100
,  // measure 24
00000020
00000000
00000000
00000030
,  // measure 25
00000100
00000001
00000000
00001000
,  // measure 26
00000000
00000010
00001000
00000100
,  // measure 27
00000000
00010000
00000000
00001000
,  // measure 28
00000000
00010000
01000000
10000000
,  // measure 29
00000000
00100000
00000000
01000000
,  // measure 30
00000000
00010000
10000000
01000000
,  // measure 31
00000000
00010000
00001000
00010000
,  // measure 32
02000000
00000000
00100000
03000000
,  // measure 33
10010000
00000000
00000000
01010000
00000000
00000000
00000000
00000000
00000000
00000000
00000000
00000000
00000000
00000000
00000000
00000000
,  // measure 34
00011000
00000000
00000000
00001100
00000000
00000000
00000000
00000000
00000000
00000000
00000000
00000000
00000000
00000000
00000000
00000000
,  // measure 35
00000101
00000000
00000000
00000011
00000000
00000000
00000000
00000000
00000000
00000000
00000000
00000000
00000000
00000000
00000000
00000000
,  // measure 36
00001010
00000000
00000000
00011000
00000000
00000000
00000000
00000000
00010000
00000000
00100000
00000000
10000000
00000000
01000000
00000000
,  // measure 37
10000000
00000000
01010000
00000000
,  // measure 38
00100000
01000000
00001000
00010000
,  // measure 39
00000100
00000000
00001100
00000000
,  // measure 40
00000010
00000001
00000100
00001000
,  // measure 41
00010000
00000000
00011000
00000000
,  // measure 42
00100000
10000000
00010000
01000000
,  // measure 43
01100000
00000000
01010000
00000000
,  // measure 44
00011000
00000000
00010100
00000000
,  // measure 45
00001000
00000010
00000100
00000000
,  // measure 46
00000001
00000010
00000100
00000000
,  // measure 47
00000010
00000100
00010000
00000000
,  // measure 48
00001000
00100000
01000000
00000000
,  // measure 49
00010000
00100000
01000000
10000000
,  // measure 50
00100000
01000000
00010000
00000000
,  // measure 51
10000000
00010000
10000000
00000000
,  // measure 52
01010000
00000000
00011000
00000000
,  // measure 53
00001100
00001000
00000001
00000100
,  // measure 54
00000001
00000100
00000010
00000000
,  // measure 55
00001100
00000100
00010000
00001000
,  // measure 56
00100000
00010000
01000000
00000000
,  // measure 57
10010000
10000000
01000000
00010000
,  // measure 58
00001000
00010000
01000000
00000000
,  // measure 59
00010000
00000000
00001000
00000000
00000100
00000000
00000020
00000030
,  // measure 60
00000000
00000000
00000000
00000001
,  // measure 61
00001000
00000001
00000000
00000100
,  // measure 62
00001000
00010000
01000000
10000000
,  // measure 63
00010000
10000000
00000000
00100000
,  // measure 64
00010000
00001000
00000100
00000001
,  // measure 65
00001000
00000001
00000000
00000010
,  // measure 66
00001000
00010000
01000000
10000000
,  // measure 67
00010000
10000000
00000000
01100000
,  // measure 68
00000000
10010000
00000000
00010000
,  // measure 69
01000000
00100000
10000000
01000000
,  // measure 70
00010000
00001000
00010000
00000000
,  // measure 71
00000100
00000010
00000001
00000100
,  // measure 72
00000010
00001000
00000100
00000000
,  // measure 73
00001000
00000010
00010000
00001000
,  // measure 74
00010000
00100000
10000000
00000000
,  // measure 75
00010000
01000000
10000000
01000000
,  // measure 76
00010000
00100000
00001000
00011000
,  // measure 77
00000000
00001100
00000000
00000010
,  // measure 78
00000001
00000100
00001000
00010000
,  // measure 79
00000000
10100000
00000000
01000000
,  // measure 80
00010000
00001000
00000010
00000001
,  // measure 81
00000000
00000101
00000000
00000010
,  // measure 82
00001000
00000100
00010000
00001000
,  // measure 83
00000000
00101000
00000000
00010000
,  // measure 84
02000000
00020000
03030000
00010000
,  // measure 85
10000000
00010000
10000000
00010000
,  // measure 86
01000000
00010000
01000000
00001000
,  // measure 87
00010000
00001000
00010000
00000100
,  // measure 88
00001000
00000100
00001000
00000001
,  // measure 89
00000010
00000001
00000010
00001000
,  // measure 90
00010000
00001000
00010000
01000000
,  // measure 91
10000000
00010000
01000000
00100000
,  // measure 92
10000000
01000000
00010000
00022000
,  // measure 93
00000000
00000000
00000000
00000000
,  // measure 94
00000000
00000000
00000000
00033000
;
