#TITLE:PARANOiA Juliana MAX;
#SUBTITLE:;
#ARTIST:P;
#TITLETRANSLIT:;
#SUBTITLETRANSLIT:;
#ARTISTTRANSLIT:;
#CREDIT:;
#BANNER:PARANOiA Juliana MAX.png;
#BACKGROUND:PARANOiA Juliana MAX-bg.png;
#LYRICSPATH:;
#CDTITLE:./CDTITLES/KONAMI ORIGINAL REMIX.PNG;
#MUSIC:PARANOiA Juliana MAX.mp3;
#OFFSET:-1.048;
#SAMPLESTART:73.200;
#SAMPLELENGTH:11.980;
#SELECTABLE:NO;
#DISPLAYBPM:*;
#BPMS:0.000=81.000,8.000=324.000,136.000=81.000,152.000=324.000,243.000=81.000,244.000=324.000,373.000=162.000,389.000=324.000;
#STOPS:243.000=1.110
,412.000=0.730
;
#BGCHANGES:;

//---------------dance-single - ----------------
#NOTES:
     dance-single:
     :
     Hard:
     10:
     0.821,1.000,0.193,0.125,0.043: // measure 1
0000
0000
0000
0000
,  // measure 2
0000
0000
0000
0000
,  // measure 3
0001
0100
0000
0001
0010
0000
0001
0100
,  // measure 4
0000
0001
0010
0000
0001
0000
1000
0000
,  // measure 5
0100
1000
0000
0010
1000
0000
0100
1000
,  // measure 6
0000
0010
1000
0000
0001
0000
0100
0000
,  // measure 7
0001
1000
0000
0010
0100
0000
0001
1000
,  // measure 8
0000
0010
0100
0000
0001
0000
1000
0000
,  // measure 9
0001
0010
0000
0100
1000
0000
0001
1000
,  // measure 10
0002
0000
0003
0000
1000
0010
0100
0000
,  // measure 11
0001
0010
0000
1000
0010
0000
0001
0010
,  // measure 12
0000
1000
0010
0000
0100
0000
0100
0000
,  // measure 13
0001
0100
0000
1000
0100
0000
0001
0100
,  // measure 14
0000
1000
0100
0000
0001
0000
0001
0000
,  // measure 15
0010
1000
0000
0010
0001
0000
0100
1000
,  // measure 16
0000
0100
0001
0000
0010
0000
0010
0000
,  // measure 17
0001
0100
0000
1000
0100
0000
0001
0010
,  // measure 18
0100
0000
0110
0000
1000
0001
1000
0000
,  // measure 19
0001
0100
0010
1000
,  // measure 20
0001
0000
1000
0000
0001
0010
0001
0010
,  // measure 21
0100
1000
0100
0010
,  // measure 22
0001
0000
0010
0000
0100
0010
0100
0010
,  // measure 23
0001
1000
0010
0100
,  // measure 24
0001
0000
1000
0000
0010
0100
0010
0001
,  // measure 25
1000
0010
0000
0100
0001
0000
0010
1000
,  // measure 26
0010
0000
0100
0000
0001
1000
0001
0000
,  // measure 27
1010
0100
0001
0010
,  // measure 28
0001
0000
1000
0000
0010
0100
0001
1000
,  // measure 29
0100
1000
0010
0100
,  // measure 30
1000
0000
0100
0000
0001
0010
0100
1000
,  // measure 31
0001
0100
0000
0010
1000
0000
0100
0010
,  // measure 32
0000
0010
0100
0000
1000
0100
0010
0001
,  // measure 33
1000
0010
0000
0010
0100
0000
0001
1000
,  // measure 34
0010
1000
0001
0000
0010
0100
1000
0001
,  // measure 35
0200
0000
0000
0000
0310
0000
0000
0000
1000
0000
0001
0000
0100
0000
0000
1001
,  // measure 36
0020
0000
2030
0000
0100
0001
3100
0010
,  // measure 37
0010
0000
0000
1001
0010
0000
0000
0000
0001
0000
0002
0000
0100
0000
1000
0000
,  // measure 38
0103
0000
0000
0000
0000
0000
1100
0000
0001
0000
0000
0000
0000
0000
0000
0000
0010
0000
0000
0000
1001
0000
0000
0000
0100
0000
0100
0000
0001
1000
0001
1000
,  // measure 39
0010
0000
0010
0000
1000
0010
0000
1000
,  // measure 40
0100
0000
1000
0010
0000
1000
0100
0000
,  // measure 41
0010
0000
0001
0000
0100
0001
0000
0010
,  // measure 42
0001
0000
0100
0001
0000
0010
0001
0000
,  // measure 43
1000
0000
1010
0000
0000
0001
1000
0000
,  // measure 44
0010
0000
0100
0001
0010
0000
0011
0000
,  // measure 45
0001
0000
0101
0000
0000
1000
0010
0000
,  // measure 46
0100
0000
0001
1000
0010
0000
1010
0000
,  // measure 47
1000
0000
0001
0010
0000
0001
0100
0000
,  // measure 48
0001
0010
0000
0001
0010
0100
1000
0000
,  // measure 49
0010
0000
1000
0100
0000
1000
0010
0000
,  // measure 50
1000
0100
0000
1000
0010
0100
0001
0000
,  // measure 51
1000
0000
0010
0000
1000
0010
0100
0000
,  // measure 52
0001
0000
1000
0010
0100
0001
0010
0000
,  // measure 53
0001
0000
0100
0000
0001
0010
0100
0000
,  // measure 54
0010
0000
1000
0010
0100
0010
0001
0000
,  // measure 55
0110
0000
0010
0001
0000
0001
0010
0000
,  // measure 56
0010
1000
0000
1000
0010
0100
0010
0000
,  // measure 57
0001
0000
0100
0010
0000
0010
0100
0000
,  // measure 58
0100
1000
0000
0100
0001
0010
0100
0000
,  // measure 59
1000
0000
0001
0010
0000
0100
1000
0000
,  // measure 60
0010
0100
0000
0001
1000
0001
0010
0001
,  // measure 61
0100
0000
0000
0000
0000
0000
0000
0000
0010
0000
0000
0000
1000
0000
0000
0000
0000
0000
0000
0000
0100
0000
0000
0000
0020
0000
0000
0000
0030
0000
0001
1000
,  // measure 62
0001
0100
0001
0010
0000
0010
0001
0000
,  // measure 63
1000
0001
0000
0100
0010
0000
1000
0100
,  // measure 64
0010
0001
1000
0010
0000
0100
0001
0000
,  // measure 65
0010
1000
0000
0010
0001
0000
0100
0010
,  // measure 66
1000
0001
0010
0100
0000
1000
0010
0000
,  // measure 67
0010
0001
0000
0010
1000
0000
0100
0010
,  // measure 68
0001
0100
0010
1000
0000
0001
0100
0000
,  // measure 69
0010
1000
0200
0000
0310
0000
1000
0010
,  // measure 70
0100
0010
0001
1000
0000
0010
0001
0000
,  // measure 71
0010
0100
0000
0010
1000
0000
0001
0100
,  // measure 72
0010
1000
0001
0010
0000
0100
0010
0000
,  // measure 73
0010
1000
0000
0100
0001
1000
0010
0100
,  // measure 74
0010
1000
0001
0100
0000
1000
0010
0000
,  // measure 75
0100
0001
0000
0010
0100
0001
1000
0001
,  // measure 76
0100
0010
0100
0001
0000
1000
0010
0000
,  // measure 77
0100
0001
0010
0000
0001
0000
0001
0100
,  // measure 78
0010
1000
0100
0010
0000
0100
0010
0000
,  // measure 79
1000
0001
0000
1000
0001
0000
0010
0100
,  // measure 80
1000
0001
0100
0010
0000
0100
0010
0000
,  // measure 81
0001
1000
0000
0001
1000
0000
0001
0100
,  // measure 82
0010
1000
0001
0100
0000
0010
0100
0000
,  // measure 83
0001
0100
0000
0010
0100
0000
1000
0100
,  // measure 84
0001
0010
0100
1000
0000
0100
1000
0000
,  // measure 85
0001
0010
0001
0000
0010
1000
0010
0000
,  // measure 86
0100
0000
1000
0010
0000
0100
0010
0000
,  // measure 87
1000
0010
0000
0100
0010
0000
0100
0001
,  // measure 88
0010
0100
0010
1000
0000
0010
0100
0000
,  // measure 89
0010
1000
0000
0010
0100
0000
1000
0010
,  // measure 90
0100
0010
0001
0010
0000
0100
0010
0000
,  // measure 91
0001
0010
0000
0100
0010
0000
0001
0010
,  // measure 92
1000
0010
0100
0000
0001
0010
0000
1000
,  // measure 93
0010
0000
0001
0100
0010
1000
0001
0010
,  // measure 94
0100
0010
2001
0000
0000
0000
0001
0000
,  // measure 95
0000
0000
0001
0000
0100
0000
3010
0100
,  // measure 96
0002
0000
1000
1000
1000
1003
0000
0100
,  // measure 97
0010
0100
1000
0001
0100
0000
0001
0100
,  // measure 98
0101
1000
0000
1100
,  // measure 99
0000
0001
0000
0101
,  // measure 100
0000
1000
1010
0001
,  // measure 101
0011
1000
1100
0001
,  // measure 102
0101
0000
0010
1000
0010
1000
0010
1000
,  // measure 103
0010
1000
0001
0100
1000
0100
0002
2000
,  // measure 104
0000
3003
0000
0000
0000
0000
0000
0000
0000
0000
0000
0000
0000
0000
0000
0000
0000
0000
0000
0000
0000
0000
0000
0000
0000
0000
0000
0000
0000
0000
0000
0000
0000
0000
0000
0000
0000
0000
0000
0000
0000
0000
0000
0000
0000
0000
0000
0000
0000
0000
0000
0000
0000
0000
0000
0000
0000
0000
0000
0000
0000
0000
0000
0000
,  // measure 105
0000
2002
0000
0000
,  // measure 106
0000
0000
0000
0000
,  // measure 107
3003
0000
0000
0000
;

//---------------dance-double - ----------------
#NOTES:
     dance-double:
     :
     Hard:
     10:
     0.806,1.000,0.193,0.106,0.029:
00000000
00000000
00000000
00000000
,
00000000
00000000
00000000
00000000
,
00000010
00000100
00001000
00000001
,
00001000
00000100
00000000
00010000
00001000
00000000
01000000
00000000
,
00010000
00100000
01000000
10000000
,
00100000
01000000
00000000
00100000
00010000
00000000
00001000
00000000
,
00010000
00000000
00000100
00000000
00001000
00000001
00001000
00000000
,
00000100
00000000
00000010
00000001
00000100
00000010
00010000
00000000
,
00001000
00000000
01000000
00000000
01010000
00000000
10000000
01000000
,
00000000
00000000
00000000
00000000
10000000
00010000
10000000
00000000
,
01000000
00010000
00001000
00010000
,
01000000
00000000
10000000
00010000
00100000
01000000
10000000
00000000
,
00010000
01000000
00001000
00010000
,
00000010
00000000
00001000
00000100
00000010
00000001
00000100
00000000
,
00000001
00001000
00000100
00001000
,
00000010
00010000
00001000
01000000
00010000
00100000
01000000
00000000
,
10000000
00100000
00000000
00100000
01000000
00000000
00010000
01010000
,
00000000
10000000
01000000
00100000
00010000
01000000
00010000
01000000
,
00001000
00010000
00000000
00000010
00001000
00000000
00000100
00000010
,
00000000
00000001
00001000
00000000
00000100
00000010
00000100
00000000
,
00001000
00000001
00000000
00000100
00001000
00000000
00000100
00001000
,
00000000
00010000
00001000
00000000
00100000
00010000
01000000
00000000
,
00010000
01000000
00000000
00010000
00100000
00000000
01000000
10000000
,
00000000
00100000
10000000
00000000
01000000
00010000
00001000
00000000
,
00010000
00000000
00000010
00000000
00010000
00000000
00000010
00001000
,
00000010
00000000
00001000
00000000
00000001
00001000
00000001
00000000
,
00001000
00000010
00000100
00000101
,
00000001
00001000
00000001
00000000
00001000
00000001
00001000
00000000
,
00000100
00010000
00001000
00011000
,
00010000
00001000
00010000
00000000
00001000
01000000
00001000
00000000
,
00100000
00010000
01000000
00100000
,
10000000
00100000
01000000
00000000
00010000
00100000
01000000
10000000
,
00100000
00000000
00010000
00000000
00001000
00000000
00000010
00000001
,
00000100
00000000
00000101
00000000
00000001
00000010
00000100
00001000
,
00000020
00000000
00000130
00000000
00000000
00000001
00000100
00001000
,
00011000
00000000
11000000
00000000
00010000
00001000
00000100
00000000
,
00000002
00000000
00000000
00000000
00001003
00000000
00000000
00000000
00020100
00000000
00001000
00000000
00031000
00010000
00000000
00000000
,
02000000
00000000
00000000
00000000
03020000
00000000
00000000
00000000
10030000
00000000
00010000
00000000
10000000
00000000
00000000
00000000
00110000
00000000
00000000
00000000
00110000
00000000
00000000
00000000
11000000
00000000
11000000
00000000
00100000
00010000
00100000
00010000
,
01000000
00000000
00010000
01000000
00000000
01000000
00010000
00000000
,
10000000
01000000
00000000
01000000
10000000
00000000
01000000
00010000
,
01000000
00000000
00010000
00000000
00001000
00010000
00000000
00010000
,
00001000
00000000
00000100
00001000
00000000
00001000
00000100
00000000
,
00001000
00000000
00000100
00000001
00000000
00000001
00000100
00000000
,
00000001
00000010
00000000
00000010
00000001
00000000
00001000
00000001
,
00001000
00000000
00000001
00000100
00000000
00001000
00010000
00000000
,
00001000
00010000
00000000
00100000
10000000
00000000
00100000
00000000
,
10000000
00010000
00100000
01000000
,
11000000
00000000
00100000
01000000
00010000
00000000
01000000
00001000
,
00010000
00000000
00001000
00000010
00000100
00000000
00001000
00000000
,
00000001
00000010
00000100
00000000
00010000
00001000
00010000
00000000
,
00100000
10000000
00010000
00000000
00100000
00000000
01000000
00000000
,
10000000
00010000
10000000
00000000
01000000
00000000
00010000
00000000
,
00001000
00010000
00001000
00000000
00010000
00000100
00010000
00000000
,
00000100
00001000
00000001
00000100
00000010
00000000
00000100
00000000
,
00001000
00010000
00000100
00000000
00001000
00000001
00000100
00000000
,
00000001
00000100
00000010
00001000
00000100
00000010
00000001
00000000
,
00000100
00001000
00000100
00000000
00001000
00010000
00001000
00000000
,
01000000
00010000
00100000
01000000
10000000
00100000
01000000
00000000
,
00010000
00000000
10000000
00000000
01000000
00010000
00001000
00000000
,
00010000
00000010
00001000
00000100
,
00001010
00000000
00010100
00011000
,
02000000
00000000
03100000
01000000
10000000
00000000
00010000
01000000
,
00100000
01000000
00010000
10000000
,
01000000
00000000
00010000
00001000
00000000
00001000
00000010
00000000
,
00000010
00000001
00000000
00000001
00000100
00000000
00000001
00001000
,
00000001
00001000
00000100
00000000
00000010
00000000
00000001
00001000
,
00000001
00000000
00000100
00000000
00001000
00010000
00001000
01000000
,
00010000
00100000
01000000
10000000
,
00100000
00010000
00001000
00000000
00010000
00000000
00000010
00001000
,
00000010
00001000
00000100
00000010
00000000
00000010
00000001
00000000
,
00000001
00000100
00000000
00000100
00001000
00000000
00010000
00000100
,
00001000
00000100
00010000
00000000
00001000
00000000
01000000
00010000
,
01000000
00001000
00100000
01000000
,
10000000
00000000
00100000
00000000
00010000
00000000
01000000
00100000
,
10000000
00000000
00010000
01000000
00100000
00000000
01000000
00001000
,
00010000
00000000
00000010
00000100
00000001
00000000
00001000
00000100
,
00000010
00000001
00000100
00001000
00000100
00001000
00010000
00001000
,
00000000
00100000
00010000
10000000
00000000
01000000
00100000
00000000
,
00010000
00000000
10000000
00000000
01000000
00000000
00010000
00001000
,
00010000
00001000
00100000
00000000
01000000
00000000
10000000
00000000
,
00010000
00000000
01000000
00000000
00001000
00010000
00000010
00001000
,
00000010
00000100
00000001
00000010
,
00000100
00001000
00000001
00000100
00000010
00000100
00000001
00001000
,
00000100
00010000
00001000
00010000
00000000
01000000
10000000
00000000
,
10000000
00010000
01000000
00000000
10010000
00000000
00100000
01000000
,
00100000
01000000
00100000
10000000
00000000
00100000
00010000
00000000
,
01000000
00001000
00000000
00010000
00000010
00000000
00001000
00000001
,
00000100
00000001
00001000
00000100
00000000
00000010
00000001
00000000
,
00000100
00001000
00000000
00010000
00001000
00000000
00000010
00001000
,
00010000
00001000
00010000
01000000
00000000
01000000
00100000
00000000
,
00100000
00010000
00000000
10000000
01000000
00000000
10000000
00100000
,
01000000
00010000
10000000
01000000
00100000
00000000
00010000
00100000
,
00001000
00010000
00000100
00000000
00001000
00000001
00000100
00001000
,
00010000
00100000
20000000
00000000
00010000
00000000
00010000
00000000
,
00010000
00000000
00100000
00000000
00100000
00000000
01000000
01000000
,
31000000
00000000
00010000
01000000
00001000
00010000
00000100
00000000
,
00001000
00000010
00000001
00000010
00001000
00000000
00000100
00010000
,
00001000
01000000
00000000
01010000
,
00000000
10000000
00000000
11000000
,
00000000
00001000
00010000
00001000
,
00010000
00000100
00001000
00000100
,
00001000
00000000
00000001
00000100
00000001
00000100
00000010
00001000
,
00000010
00001000
00000100
00010000
00000100
00010000
00002000
00200000
,
00000000
00303000
00000000
00000000
00000000
00000000
00000000
00000000
00000000
00000000
00000000
00000000
00000000
00000000
00000000
00000000
00000000
00000000
00000000
00000000
00000000
00000000
00000000
00000000
00000000
00000000
00000000
00000000
00000000
00000000
00000000
00000000
00000000
00000000
00000000
00000000
00000000
00000000
00000000
00000000
00000000
00000000
00000000
00000000
00000000
00000000
00000000
00000000
00000000
00000000
00000000
00000000
00000000
00000000
00000000
00000000
00000000
00000000
00000000
00000000
00000000
00000000
00000000
00000000
,
00000000
22000000
00000000
00000000
,
00000000
00000000
00000000
00000000
,
33000000
00000000
00000000
00000000
;

//---------------dance-single - ----------------
#NOTES:
     dance-single:
     :
     Challenge:
     10:
     0.868,1.000,0.260,0.087,0.058: // measure 1
0000
0000
0000
0000
,  // measure 2
0000
0000
0000
0000
,  // measure 3
0110
0000
1000
0100
1000
0001
1000
0000
,  // measure 4
0100
0000
0001
0010
0001
0100
0001
0000
,  // measure 5
1000
0010
0000
0100
0001
0000
1000
0100
,  // measure 6
0000
0010
0001
0000
1000
0001
1000
0001
,  // measure 7
0100
0000
0010
1000
0001
0100
0010
0000
,  // measure 8
1000
0000
0010
0100
0001
0010
0100
0000
,  // measure 9
1000
0100
0000
1000
0001
0000
0100
0010
,  // measure 10
2000
0000
3000
0001
,  // measure 11
0001
0010
0001
0010
0100
0000
1000
0000
,  // measure 12
0010
0100
0010
0000
1000
0001
1000
0000
,  // measure 13
0001
0010
0001
0000
0100
0010
0100
0000
,  // measure 14
1000
0001
1000
0000
0001
0100
0001
0000
,  // measure 15
1000
0100
0010
0100
0001
0000
0100
0000
,  // measure 16
1000
0010
0100
0010
0001
0000
0010
0000
,  // measure 17
1000
0001
0000
0100
0010
0000
1000
0100
,  // measure 18
0010
0000
0000
0001
1000
0000
1100
0000
,  // measure 19
0001
0100
0010
0000
1000
0001
0100
0000
,  // measure 20
0010
1000
0001
0000
1000
0100
1000
0000
,  // measure 21
0001
0010
0100
0000
1000
0100
0010
0000
,  // measure 22
0001
0100
0010
1000
0010
0100
0001
0000
,  // measure 23
1000
0100
0010
0000
0001
1000
0001
0000
,  // measure 24
0100
0010
0100
0000
1000
0001
1000
0000
,  // measure 25
0001
0010
0000
0100
1000
0000
0010
0100
,  // measure 26
0001
0000
0001
0000
0001
0000
1000
0001
,  // measure 27
1000
0100
0000
1000
0100
0000
0001
0100
,  // measure 28
0000
0001
0100
0000
0100
0010
0100
0000
,  // measure 29
0010
0001
0000
0010
0001
0000
0010
1000
,  // measure 30
0000
0010
1000
0000
0010
0001
0100
0010
,  // measure 31
1000
0001
0000
0001
1000
0000
1000
0010
,  // measure 32
0000
0010
0100
0000
0001
1000
0001
0000
,  // measure 33
1000
0100
0010
0000
0100
0010
0001
0000
,  // measure 34
1000
0010
0100
0001
0010
0100
1000
0010
,  // measure 35
0200
0010
0001
0310
,  // measure 36
1000
0100
1000
0000
0001
0100
0001
0000
0110
0000
1010
0000
0101
0000
0000
0000
,  // measure 37
0200
0001
0010
1300
,  // measure 38
0010
0000
0100
0000
0010
0000
0000
0000
1000
0000
0001
0000
1000
0000
0000
0000
0001
0000
0001
0000
1000
0000
1000
0000
0010
0000
0100
0000
0001
1000
0010
0100
,  // measure 39
0001
0000
1000
0000
0100
0010
0100
0010
,  // measure 40
0100
0000
0001
0000
0100
0010
0100
0010
,  // measure 41
0100
0000
1000
0000
0010
0100
0010
0100
,  // measure 42
0010
0000
0001
0000
0010
1000
0100
0000
,  // measure 43
1000
0000
0001
0000
1000
0100
0010
0100
,  // measure 44
1000
0000
0001
0000
0100
0010
0001
0010
,  // measure 45
0100
0000
0001
0000
1000
0010
0100
0010
,  // measure 46
0001
0000
0010
0000
1000
0001
0100
0000
,  // measure 47
0101
0000
0010
1000
0000
1000
0100
0000
,  // measure 48
0010
0001
0000
0001
0100
0000
0110
0000
,  // measure 49
1001
0000
0010
0100
0000
0100
1000
0000
,  // measure 50
0001
0100
0000
0100
0010
0000
1001
0000
,  // measure 51
0100
0000
0101
0000
0010
1000
0010
0000
,  // measure 52
1000
0100
1000
0000
0001
0000
0010
0000
,  // measure 53
0100
0000
1000
0000
0001
0100
0001
0000
,  // measure 54
1000
0010
0100
0010
1000
0001
0100
0000
,  // measure 55
0001
0000
0010
0001
0000
0010
1000
0000
,  // measure 56
0010
0001
0000
0100
1000
0000
0101
0000
,  // measure 57
0010
0000
1000
0100
0000
0001
0100
0000
,  // measure 58
1000
0100
0000
0001
0100
0000
0010
0000
,  // measure 59
1000
0001
0100
0010
0001
0010
0100
0001
,  // measure 60
1000
0100
0010
0001
0100
0010
0100
1000
,  // measure 61
0100
0000
0000
0000
0001
0000
0000
0000
0100
0000
0000
0000
0010
0000
0000
0000
1000
0000
0000
0000
0001
0000
0000
0000
0200
0000
0000
0000
0300
0000
1000
0010
,  // measure 62
0100
0001
1000
0100
0000
0100
0001
0000
,  // measure 63
0001
0100
0000
0100
0001
0000
0110
0000
,  // measure 64
0110
0000
0001
0100
0000
0100
1000
0000
,  // measure 65
1000
0100
0000
0100
1000
0000
0110
0000
,  // measure 66
0110
0000
0001
0010
0000
0010
0100
0000
,  // measure 67
0100
1000
0000
1000
0010
0000
1010
0000
,  // measure 68
0101
0010
0010
0010
,  // measure 69
1000
0001
0000
0000
0000
0000
0001
1000
,  // measure 70
0001
0000
1000
0010
0100
0001
1000
0000
,  // measure 71
0010
0000
0100
0001
1000
0100
1000
0000
,  // measure 72
0010
0000
0100
0010
0100
0001
1000
0000
,  // measure 73
0100
0000
0010
0001
0010
0100
1000
0000
,  // measure 74
0001
0000
0100
0010
0000
1000
0001
0000
,  // measure 75
0001
1000
0000
0100
0010
0000
1100
0000
,  // measure 76
0101
0000
0010
0000
1000
0000
1000
0100
,  // measure 77
0010
0001
1000
0000
1000
0000
0001
0100
,  // measure 78
1000
0100
0001
0010
,  // measure 79
0100
1000
0010
0100
0001
0010
1000
0000
,  // measure 80
0010
0001
0100
0010
,  // measure 81
1000
0100
1000
0010
0100
0001
0010
0000
,  // measure 82
0001
0100
0010
1000
,  // measure 83
0001
0100
0010
1000
0100
0001
0100
0000
,  // measure 84
1000
0010
0100
0001
,  // measure 85
1000
0010
0100
0001
0010
1000
0010
0000
,  // measure 86
0001
0100
0010
1000
,  // measure 87
0001
0100
0001
1000
0100
1000
0001
0100
,  // measure 88
0010
1000
0100
0010
,  // measure 89
0001
0000
0100
0010
1000
0001
0010
0100
,  // measure 90
0010
0000
0001
0010
0100
0010
1000
0010
,  // measure 91
0100
1000
0001
0100
0001
0000
1000
0010
,  // measure 92
0100
0001
0010
0100
1000
0010
0100
0001
,  // measure 93
0010
0100
0010
1000
0010
0001
0100
1000
,  // measure 94
0100
0020
0100
0000
0000
1000
0000
0000
,  // measure 95
0001
0031
0000
0010
1000
0000
0100
0010
,  // measure 96
0101
0000
1000
0001
1000
0001
0100
0000
,  // measure 97
0011
0000
1100
0000
0010
1000
0010
0001
,  // measure 98
0010
1000
1100
0000
1000
0001
0100
0000
,  // measure 99
0010
0000
0101
0000
0001
1000
0100
0000
,  // measure 100
0010
0000
1100
0000
0001
0100
0010
0000
,  // measure 101
1000
0100
0010
0000
0001
0100
0010
0000
,  // measure 102
1010
0000
0100
0010
1000
0100
0001
0100
,  // measure 103
1000
0100
0001
0100
1000
0010
0001
0020
,  // measure 104
0200
0330
0000
0000
0000
0000
0000
0000
,  // measure 105
0000
2002
0000
0000
,  // measure 106
0000
0000
0000
0000
,  // measure 107
3003
0000
0000
0000
;

//---------------dance-double - ----------------
#NOTES:
     dance-double:
     :
     Challenge:
     10:
     0.855,1.000,0.492,0.125,0.077:
00000000
00000000
00000000
00000000
,
00000000
00000000
00000000
00000000
,
10000000
01000000
00000000
00010000
01000000
00000000
00001000
00010000
,
00000000
00000100
00000010
00000000
00000101
00000000
00000101
00000000
,
00000010
00010000
00000000
00000100
00001000
00000000
00010000
00001000
,
00000000
00100000
00010000
00000000
11000000
00000000
11000000
00000000
,
00010000
01000000
00000000
00100000
10000000
00000000
01000000
00010000
,
00000000
00001000
00000100
00000000
00000101
00000000
00000101
00000000
,
00000010
00001000
00000000
00000001
00000100
00000000
00000010
00001000
,
00020000
00000000
00030000
00011000
,
00100000
00010000
00100000
00000000
00001000
00000000
00010000
00000000
,
00000010
00001000
00000010
00000000
00000100
00000000
00000001
00000000
,
00000010
00001000
00000010
00000000
00001000
00000000
00010000
00000000
,
01000000
00100000
01000000
00000000
10000000
00000000
00010000
00000000
,
10000000
01000000
10000000
01000000
00010000
00000000
00001000
00000000
,
00010000
00000100
00010000
00001000
00010000
00000000
00000100
00000000
,
00000001
00000100
00000000
00001000
00010000
00000000
01000000
10000000
,
00200000
00000000
00300000
10000000
00010000
00000000
01100000
00000000
,
10000000
01000000
00100000
01000000
10000000
00000000
00010000
00000000
,
01000000
00001000
00010000
00000100
00001000
00000010
00000100
00000000
,
00000001
00000100
00000010
00000100
00000001
00000000
00001000
00000000
,
00000010
00000000
00001000
00000010
00000100
00000000
00001000
00000000
,
00000001
00000100
00000000
00001000
00010000
00000000
00100000
00010000
,
10000000
00000000
00010000
00000000
10000000
00100000
00010000
00100000
,
01000000
00010000
00000000
10000000
01000000
00000000
00010000
00002000
,
00020000
00033000
00011000
00000000
,
00000100
00000010
00000000
00000100
00000010
00000000
00001000
00000001
,
00000000
00001000
00000001
00000000
00000100
00010000
00000100
00010000
,
00001000
00100000
00000000
00010000
00100000
00000000
01000000
10000000
,
00000000
00100000
01000000
00000000
00010000
00000000
10010000
00000000
,
01000000
00010000
00000000
00001000
00000010
00000000
00001000
00010000
,
00000000
01000000
00010000
00000000
00001000
00000010
00001000
00000010
,
00000100
00000000
00000001
00000000
00000100
00000000
00010000
00001000
,
00010000
00000000
00001000
00000000
00100000
01000000
10000000
00200000
,
02000000
00000000
00000000
03300000
,
10000000
00100000
01000000
00000000
00001000
00010000
00000100
00000000
00000010
00000001
00000100
00001000
00010000
01000000
00010000
00001000
,
00000200
00000000
00000000
00000000
00010300
00000000
00000000
00000000
00020000
00000000
00000000
00000000
00000000
01030000
00000000
00000000
,
00100000
00000000
00000000
00000000
10100000
00000000
00000000
00000000
01000000
00000000
00000000
00000000
01010000
00000000
00000000
00000000
00100000
00000000
10000000
00000000
00010000
00000000
00000000
00000000
01000000
00100000
10000000
01000000
10000000
00010000
00100000
00010000
,
01000000
00000000
01100000
00000000
00000000
11000000
00000000
00000000
,
01010000
00000000
00000000
00011000
00000000
00000000
00001100
00000000
,
00000010
00000000
00000101
00000000
00000000
00001100
00000000
00000000
,
00011000
00000000
00000000
01010000
00000000
00000000
10010000
00000000
,
01000000
00010000
00001000
00000000
00010000
00001000
00010000
00000000
,
00000100
00001000
00000100
00000000
00000010
00000001
00000100
00000000
,
00000001
00001000
00000001
00000000
00000100
00001000
00000100
00000000
,
00001000
00010000
00001000
00000000
00010000
01000000
00010000
01000000
,
00100000
00000000
00010000
10000000
00000000
10000000
00010000
00000000
,
10000000
01000000
00000000
10000000
01000000
00000000
00010000
00000000
,
00001000
00000000
00010000
00001000
00000000
00001000
00010000
00000000
,
00000100
00001000
00000000
00000100
00001000
00000000
00000101
00000000
,
00000010
00001000
00010000
00000100
,
00010000
00001000
01000000
00010000
,
10000000
00000000
00010000
10000000
00010000
00000000
10000000
01000000
,
10000000
00000000
00100000
01000000
00100000
00000000
10000000
00010000
,
01000000
00100000
10000000
01000000
00100000
00001000
00010000
00000000
,
00001000
00000010
00000001
00000100
00000010
00001000
00000100
00000000
,
00010000
00001000
00010000
00001000
00100000
00010000
00100000
01000000
,
10000000
00010000
01000000
00010000
00100000
00001000
00010000
00000000
,
00000100
00000000
00000110
00000000
00000000
00000101
00000000
00000000
,
00001100
00000000
00000000
00010100
00000000
00000000
00011000
00000000
,
00100000
00000000
00000000
00000000
01000000
00000000
00000000
00000000
10000000
00000000
00000000
00000000
00010000
00000000
00000000
00000000
00100000
00000000
00000000
00000000
00001000
00000000
00000000
00000000
02000000
00000000
00000000
00000000
03000000
00000000
00010000
01000000
,
00100000
10000000
01000000
00000000
00000000
11000000
00000000
00000000
,
01001000
00000000
00000000
00011000
00000000
00000000
00010100
00000000
,
00001000
00000000
00001010
00000000
00000000
00000101
00000000
00000000
,
00000110
00000000
00000000
00010010
00000000
00000000
00001100
00000000
,
00000010
00000000
00000001
00000100
00000000
00000010
00001000
00000000
,
00000100
00010000
00000000
00001000
01000000
00000000
00010000
00000000
,
10000000
00000000
01000000
00100000
00001000
00010000
00000100
00000000
,
00000010
00000100
00000000
00000000
00000000
00000000
00010000
00001000
,
00100000
00010000
01000000
00100000
00000000
10000000
01000000
00000000
,
00100000
01000000
00000000
00100000
00010000
00000000
10000000
00010000
,
10000000
00010000
01000000
00010000
00000000
00100000
00001000
00000000
,
00010000
00000010
00000000
00000100
00000010
00000000
00001000
00000100
,
00000010
00000001
00000010
00000100
00000000
00001000
00000100
00000000
,
00000010
00000001
00000000
00000100
00001000
00000000
00010000
00100000
,
00010000
00100000
00010000
00100000
00000000
10000000
01000000
00000000
,
10000000
00100000
01000000
00001000
00010000
00000100
00000010
00000001
,
00000100
00000010
00001000
00000000
00000001
00000000
00000100
00000000
,
00001000
00000000
00010000
00000000
01000000
00000000
00100000
01000000
,
10000000
00000000
01000000
00100000
00001000
00000000
00010000
00000100
,
00001000
00000000
00000100
00000010
00000001
00000000
00000011
00000000
,
00001100
00000000
00000001
00000010
00000100
00000000
00000010
00000100
,
00010000
00000000
00001000
00100000
01000000
00000000
00100000
01000000
,
10000000
00000000
00010000
01000000
00100000
00000000
10000000
01000000
,
00010000
00001000
00000000
00000010
00000001
00000000
00001000
00000001
,
00001000
00000000
00000001
00000100
00000010
00000000
00000100
00001000
,
00010000
00000000
00001000
00010000
00100000
00000000
00010000
00100000
,
10000000
00000000
00010000
01000000
00100000
00000000
01000000
00001000
,
00100000
00000000
00001000
00010000
00000100
00000000
00001100
00000000
,
00001010
00000000
00000001
00000100
00000001
00000100
00000001
00000000
,
00001000
00000000
00000010
00001000
00000100
00010000
00001000
00000000
,
00100000
00000000
00010000
01000000
10000000
01000000
00010000
00000000
,
01000000
00000000
00001000
00010000
00001000
00010000
00000100
00001000
,
00000100
00001000
00000001
00000000
00000000
00000010
00000000
00000000
,
00001000
00010000
00001000
00000000
00110000
00000000
01000000
00010000
,
01000000
00000000
00010000
00010000
00010000
00010000
10000000
00000000
,
01000000
00010000
00001000
00000010
,
00000001
00000000
00000101
00000000
00000101
00000000
00000100
00001000
,
00010000
00000000
00011000
00000000
00011000
00000000
00010000
01000000
,
10000000
00000000
11000000
00000000
11000000
00000000
10000000
01000000
,
00010000
00000000
00011000
00000000
00011000
00000000
00001000
00000100
,
00000001
00000000
00000100
00000010
00001000
00000100
00010000
00001000
,
01000000
00010000
10000000
00100000
01000000
00001000
00010000
00000020
,
00000200
00000330
00000000
00000000
00000000
00000000
00000000
00000000
,
00000000
00000202
00000000
00000000
,
00000000
00000000
00000000
00000000
,
00000303
00000000
00000000
00000000
;

//---------------dance-single - ----------------
#NOTES:
     dance-single:
     :
     Medium:
     8:
     0.654,1.000,0.309,0.183,0.014: // measure 1
0000
0000
0000
0000
,  // measure 2
0000
0000
0000
0000
,  // measure 3
0100
0000
0000
0010
0000
0000
1000
0000
,  // measure 4
0000
0001
0000
0000
0020
0000
0100
0000
,  // measure 5
0130
0000
0000
1000
0000
0000
0001
0000
,  // measure 6
0000
0100
0000
0000
0020
0000
1000
0000
,  // measure 7
1030
0000
0001
1000
,  // measure 8
0000
0010
0100
0001
,  // measure 9
0010
0000
0001
0000
1000
0000
0001
0010
,  // measure 10
0000
0000
0000
0000
0001
1000
0001
0000
,  // measure 11
1000
0010
0100
0001
,  // measure 12
0000
1000
0010
0000
0100
0000
0100
0000
,  // measure 13
0001
1000
0010
0100
,  // measure 14
0000
0001
0010
0000
0010
0000
0001
0000
,  // measure 15
0100
0010
1000
0100
,  // measure 16
0000
0001
0100
0000
1000
0000
1000
0000
,  // measure 17
0001
0000
0100
0000
0010
0000
1000
0100
,  // measure 18
0000
0000
0000
0000
0001
1000
0001
1000
,  // measure 19
0010
0010
0100
0100
,  // measure 20
0001
0001
0010
1000
,  // measure 21
0010
0010
0100
0100
,  // measure 22
1000
1000
0001
0010
,  // measure 23
0100
0100
0001
0001
,  // measure 24
0100
0100
1000
0010
,  // measure 25
0100
0001
0000
0100
0001
0000
1000
0001
,  // measure 26
0000
0000
0000
0000
0001
1000
0001
0000
,  // measure 27
1000
0010
1000
0001
,  // measure 28
0000
0010
0001
0000
1000
0000
0010
0000
,  // measure 29
0100
0001
0010
0001
,  // measure 30
0000
0100
0010
0000
1000
0000
0100
0000
,  // measure 31
0001
0100
1000
0010
,  // measure 32
0000
0100
0001
0000
1000
0000
0010
0000
,  // measure 33
0100
0000
0001
0000
1000
0000
0010
0100
,  // measure 34
0010
0000
0010
0000
1000
0001
1000
0001
,  // measure 35
1000
1001
0000
0000
,  // measure 36
0001
0000
1001
0000
0010
0100
0202
0303
,  // measure 37
2002
0000
3003
0000
0100
0000
0000
0000
0001
0000
1000
0000
0000
0101
0000
0000
,  // measure 38
0010
0000
0100
0000
2001
0000
0000
0000
0100
0000
3100
0000
1000
0001
1000
0001
,  // measure 39
1000
0010
0100
0001
,  // measure 40
0010
0001
0100
0010
,  // measure 41
1000
0100
1000
0010
,  // measure 42
0100
0000
0000
0011
0000
0000
1010
0000
,  // measure 43
0100
0001
0010
0001
,  // measure 44
1000
0100
1000
0010
,  // measure 45
0100
0001
1000
0100
,  // measure 46
1000
0000
0000
0101
0000
0000
1010
0000
,  // measure 47
0001
0000
0100
0000
0010
1000
0010
0000
,  // measure 48
1000
0001
0010
0100
,  // measure 49
0010
0000
0001
0000
1000
0001
1000
0000
,  // measure 50
0010
0000
0000
1010
0000
0000
0101
0000
,  // measure 51
0010
0000
1000
0000
0100
1000
0100
0000
,  // measure 52
0010
0001
0100
0010
,  // measure 53
1000
0000
0100
0000
0001
0100
0001
0000
,  // measure 54
0100
0000
0000
1100
0000
0000
1010
0000
,  // measure 55
0100
0000
0001
1000
0000
1000
0001
0000
,  // measure 56
0000
1000
0001
1000
,  // measure 57
0000
0010
0100
0010
,  // measure 58
1000
0001
0000
0001
1000
0000
0010
0000
,  // measure 59
0100
0000
0001
0010
0000
0010
0001
0000
,  // measure 60
0000
1000
0100
0010
,  // measure 61
0000
0001
0100
0110
,  // measure 62
0000
0000
0001
1000
0000
0001
0100
0000
,  // measure 63
0010
1000
0100
0001
,  // measure 64
0100
0010
1000
0010
,  // measure 65
0100
1000
0001
0011
,  // measure 66
0000
0000
1000
0100
0000
1000
0010
0000
,  // measure 67
0100
0001
0010
1000
,  // measure 68
0010
0001
0100
0010
,  // measure 69
0100
0000
1000
0000
0100
0000
0001
1000
,  // measure 70
0001
0000
0100
0010
0000
0100
0010
0000
,  // measure 71
1000
0001
0010
0100
,  // measure 72
1000
0010
0100
0001
,  // measure 73
1000
0010
1000
1010
,  // measure 74
0000
0000
0100
0001
0000
0010
0001
0000
,  // measure 75
1000
0100
0001
0100
,  // measure 76
1000
0010
0100
0001
,  // measure 77
0010
0000
1000
0000
0010
0000
0001
1000
,  // measure 78
0001
1000
0001
0000
0100
0000
0010
0000
,  // measure 79
1000
0000
0100
0000
0010
0000
0001
1000
,  // measure 80
0001
0100
0010
1000
,  // measure 81
0100
0000
0001
0000
0100
0000
1000
0010
,  // measure 82
1000
0001
0100
0010
,  // measure 83
1000
0000
0100
0000
0010
0000
0001
0010
,  // measure 84
0100
1000
0010
0100
,  // measure 85
0001
0000
1000
0000
0010
0000
0100
0001
,  // measure 86
1000
0010
0000
1010
,  // measure 87
0000
0000
0100
0001
0100
0000
0001
0010
,  // measure 88
0001
1000
0000
0011
,  // measure 89
0000
0000
0001
1000
0001
0000
1000
0001
,  // measure 90
1000
0010
0000
1100
,  // measure 91
0000
0001
0100
0010
,  // measure 92
1000
0100
0001
0100
,  // measure 93
1000
0000
0010
0100
0010
0000
0100
0010
,  // measure 94
0100
0000
2002
0000
3003
2200
0000
3300
,  // measure 95
0001
1000
0100
0000
0011
0000
0100
1000
,  // measure 96
0010
0100
0001
0001
0001
0001
0000
0000
,  // measure 97
1000
1000
1000
1000
0000
0000
0001
1000
,  // measure 98
0001
1100
0000
1001
,  // measure 99
0000
0101
0000
1001
,  // measure 100
0000
0120
0130
2001
,  // measure 101
3001
0120
0130
1002
,  // measure 102
1003
0000
0001
0100
0001
0100
0001
0100
,  // measure 103
0001
0100
0010
1000
0010
1000
0020
2000
,  // measure 104
3030
0000
0000
0000
,  // measure 105
0000
2002
0000
0000
,  // measure 106
0000
0000
0000
0000
,  // measure 107
3003
0000
0000
0000
;

//---------------dance-double - ----------------
#NOTES:
     dance-double:
     :
     Medium:
     9:
     0.621,0.920,0.212,0.087,0.014:
00000000
00000000
00000000
00000000
,
00000000
00000000
00000000
00000000
,
00000010
00000000
00000000
00000001
00000000
00000000
00001000
00000000
,
00000000
00000010
00000000
00000000
00010000
00000000
00001000
00000000
,
00010000
00000000
00000000
00001000
00000000
00000000
00010000
00000000
,
00000000
01000000
00000000
00000000
10000000
00000000
01000000
00000000
,
00100000
00001000
00010000
00001000
,
00000100
00000001
00000010
00000001
,
00000100
00000000
00000010
00000000
00001000
00000000
00000010
00010000
,
00000000
00000000
00000000
00000000
00001000
00010000
00001000
00000000
,
00010000
00000100
00000010
00000001
,
00000100
00001000
00010000
00000010
,
00010000
00001000
01000000
00001000
,
00100000
00010000
10000000
01000000
,
00010000
00001000
00000010
00000001
,
00000100
00000010
00010000
00001000
,
01000000
00000000
00100000
00000000
10000000
00000000
00010000
01000000
,
00000000
00000000
00000000
00000000
10000000
00010000
10000000
00010000
,
10000000
10000000
00010000
00010000
,
01000000
00000000
01000000
00000000
00001000
00010000
00001000
00000000
,
00010000
00010000
00000010
00000010
,
00001000
00000000
00001000
00000000
00000001
00001000
00000001
00000000
,
00000100
00000100
00001000
00001000
,
00010000
00000000
00010000
00000000
01000000
10000000
01000000
00000000
,
10000000
00000000
01000000
00000000
00010000
00000000
00001000
00010000
,
00000000
00000000
00000000
00000000
00010000
00001000
00010000
00000000
,
00001000
00010000
00000010
00001000
,
00000100
00000001
00000100
00001000
,
00000010
00010000
00001000
00010000
,
01000000
10000000
00100000
01000000
,
00010000
00100000
00001000
00010000
,
00001000
00000010
00000001
00000100
,
00000010
00010000
00001000
00010000
,
01000000
00000000
10000000
00000000
00010000
01000000
00010000
01000000
,
00001000
00000100
00000001
00000000
00000000
00000000
00000000
00000000
,
00000001
00000000
00001001
00000000
00000010
00001000
00010000
00000000
,
00001000
00000000
00000000
00000000
01010000
00000000
00000000
00000000
10000000
00000000
00010000
00000000
00000000
10010000
00000000
00000000
,
00010000
00000000
10000000
00000000
00010000
00000000
01000000
00000000
00100000
00000000
01000000
00000000
00010000
10000000
00010000
10000000
,
00010000
00000000
10000000
00000000
00000000
01000000
00010000
00000000
,
01000000
00010000
00001000
00000100
,
00000001
00000000
00001000
00000000
00000000
00000001
00001000
00000000
,
00000010
00000000
00000000
00001001
00000000
00000000
00000100
00000000
,
00000010
00000000
00000001
00000000
00000000
00001000
00000001
00000000
,
00000010
00001000
00010000
01000000
,
00100000
00000000
00100000
00000000
00000000
00010000
01000000
00000000
,
00010000
00000000
00000000
10010000
00000000
00000000
00100000
00000000
,
10000000
00000000
01000000
00000000
00000000
10000000
00010000
00000000
,
01000000
00001000
00010000
00000010
,
00000100
00000000
00000001
00000000
00000000
00000001
00001000
00000000
,
00000100
00000000
00000000
00000110
00000000
00000000
00001000
00000000
,
00000100
00000000
00000001
00000000
00000000
00000100
00001000
00000000
,
00000010
00010000
00000010
00000100
,
00001000
00000000
00010000
00000000
00000000
00001000
01000000
00000000
,
00010000
00000000
00000000
01100000
00000000
00000000
10000000
00000000
,
00010000
00000000
00100000
01000000
00000000
10000000
00010000
00000000
,
00100000
00001000
00010000
00000000
,
00001000
00000100
00000010
00000100
,
00000001
00001000
00000000
00001000
00000001
00000000
00000100
00000000
,
00000010
00000000
00001000
00000010
00000000
00010000
00001000
00000000
,
01000000
00100000
10000000
00000000
,
00100000
00010000
00001000
00000110
,
00000000
00000000
00000001
00000000
00000000
00001000
00000001
00000000
,
00000100
00001000
00010000
00100000
,
10000000
01000000
00010000
00001000
,
00000010
00000100
00000010
00000011
,
00000000
00000000
00001000
00000000
00000000
00001000
00010000
00000000
,
00100000
00010000
00001000
00000100
,
00000001
00000010
00001000
00010000
,
00001000
01000000
00010000
00110000
,
00000000
00000000
10000000
00010000
00000000
00010000
01000000
00000000
,
00001000
00010000
00100000
10000000
,
00100000
00010000
00001000
00000100
,
00000001
00000100
00001000
00011000
,
00000000
00000000
00000010
00000001
00000000
00000001
00001000
00000000
,
00000100
00000010
00001000
00010000
,
01000000
10000000
01000000
00100000
,
00010000
01000000
00200000
01000000
,
01300000
10000000
01000000
00010000
,
00100000
00000000
00001000
00000000
00010000
00000000
00000010
00001000
,
00000010
00000100
00000001
00001000
,
00000010
00000000
00000001
00000000
00000010
00000000
00001000
00000100
,
00001000
00000010
00010000
00001000
,
01000000
00000000
00010000
00000000
00100000
00000000
01000000
10000000
,
01000000
10000000
01000000
00100000
,
00001000
00000000
00010000
00000000
00000100
00000000
00001000
00000010
,
00001000
00000000
00000001
00000000
00000000
00001100
00000000
00000000
,
00000001
00000010
00000010
00000001
,
00000001
00000000
00001000
00000000
00000000
00000101
00000000
00000000
,
00000100
00001000
00001000
00010000
,
00010000
00000000
01000000
00000000
00000000
11000000
00000000
00000000
,
10000000
01000000
01000000
00010000
,
00010000
00001000
00000010
00000001
,
00000100
00000000
00001000
00010000
00001000
00000000
01000000
00100000
,
10000000
00000000
02200000
00000000
03300000
02020000
00000000
03030000
,
10000000
00010000
00000000
00000000
01010000
00000000
00010000
00001000
,
00010000
00000000
00000010
00000100
00000010
00000001
00001000
00000000
,
00000001
00000100
00000001
00000100
00001000
00000000
00010000
00001000
,
00010000
01010000
00000000
11000000
,
00000000
01010000
00000000
00011000
,
00000000
00001000
00000100
00000001
,
00000100
00001000
00010000
01000000
,
10000000
00000000
00010000
01000000
00010000
01000000
00010000
01000000
,
00010000
01000000
00001000
00010000
00001000
00010000
00000200
00002000
,
00003300
00000000
00000000
00000000
,
00000000
00002002
00000000
00000000
,
00000000
00000000
00000000
00000000
,
00003003
00000000
00000000
00000000
;

//---------------dance-single - ----------------
#NOTES:
     dance-single:
     :
     Easy:
     6:
     0.521,0.818,0.472,0.202,0.005: // measure 1
0000
0000
0000
0000
,  // measure 2
0000
0000
0000
0000
,  // measure 3
0001
0000
1000
0000
,  // measure 4
0010
0100
0001
0010
,  // measure 5
0100
0000
0100
0000
,  // measure 6
1000
0010
0100
0001
,  // measure 7
1000
0000
1000
0000
,  // measure 8
0010
0010
0010
0000
,  // measure 9
1100
0000
0101
0000
,  // measure 10
1001
0000
0000
0000
,  // measure 11
0010
0000
0100
0000
,  // measure 12
0001
0010
0100
1000
,  // measure 13
0010
0000
0100
0000
,  // measure 14
1000
0001
1000
0001
,  // measure 15
0100
0000
0010
0000
,  // measure 16
1000
1000
1000
0000
,  // measure 17
0101
0000
1100
0000
,  // measure 18
1001
0000
0000
0000
,  // measure 19
0010
1000
0100
1000
,  // measure 20
0010
1000
0100
0000
,  // measure 21
0010
0001
0100
0001
,  // measure 22
0010
0001
0100
0000
,  // measure 23
0010
1000
0100
1000
,  // measure 24
0010
0100
0001
0000
,  // measure 25
1000
0001
1000
0001
,  // measure 26
0100
0000
1001
0000
,  // measure 27
0010
0100
0001
0100
,  // measure 28
0010
0100
0001
0000
,  // measure 29
1000
0100
0010
0100
,  // measure 30
1000
0100
0010
0000
,  // measure 31
0100
1000
0001
1000
,  // measure 32
0001
0100
0001
0000
,  // measure 33
1000
0001
1000
0001
,  // measure 34
0010
0000
1001
0000
,  // measure 35
1001
0101
0000
0000
,  // measure 36
1001
0000
1100
0000
0010
0010
0010
0000
,  // measure 37
1100
0000
0000
0000
0101
0000
0000
0000
0010
0000
0010
0000
0000
0010
0000
0000
,  // measure 38
0101
0000
1100
0000
1000
1000
0001
0001
,  // measure 39
0100
0100
0100
0000
,  // measure 40
0101
0000
1100
0000
,  // measure 41
0010
0010
0010
0000
,  // measure 42
1100
0000
0101
0000
,  // measure 43
0100
0100
0100
0000
,  // measure 44
0101
0000
1100
0000
,  // measure 45
0010
0010
0010
0000
,  // measure 46
1100
0000
0101
0000
,  // measure 47
0010
1000
0001
0000
,  // measure 48
0100
0000
0100
0000
,  // measure 49
0001
0010
0100
0000
,  // measure 50
1000
0000
1000
0000
,  // measure 51
0010
0100
0010
0000
,  // measure 52
0101
0000
1100
0000
,  // measure 53
0010
0001
0100
1000
,  // measure 54
0100
0001
0010
0000
,  // measure 55
1100
0000
0000
0000
,  // measure 56
0010
0100
0001
1000
,  // measure 57
1100
0000
0000
0000
,  // measure 58
0010
0100
0001
1000
,  // measure 59
0101
0000
0000
0000
,  // measure 60
0010
0001
0100
0010
,  // measure 61
1010
0000
0001
1000
,  // measure 62
0000
1000
0100
1000
,  // measure 63
0000
0001
0100
0001
,  // measure 64
0000
0100
0010
0100
,  // measure 65
0000
0001
1000
0001
,  // measure 66
0000
1000
0100
0001
,  // measure 67
0000
0100
1000
0010
,  // measure 68
0100
0010
0000
1001
,  // measure 69
0000
1100
0000
0101
,  // measure 70
0000
0010
1000
0010
,  // measure 71
0000
0100
0001
0100
,  // measure 72
0000
0001
0010
0001
,  // measure 73
0000
1000
0010
1000
,  // measure 74
0000
0001
0100
0001
,  // measure 75
1000
0010
0100
0001
,  // measure 76
0000
1100
0000
0101
,  // measure 77
0000
1001
0000
0110
,  // measure 78
0000
1100
1000
0100
,  // measure 79
1000
0100
1000
0100
,  // measure 80
0000
0100
0001
0100
,  // measure 81
0001
0100
0001
0100
,  // measure 82
0000
0010
1000
0100
,  // measure 83
0001
0100
1000
0010
,  // measure 84
0000
0101
0000
1100
,  // measure 85
0000
0011
0000
1010
,  // measure 86
0000
0001
0100
0010
,  // measure 87
1000
0100
0010
0001
,  // measure 88
0100
0010
1000
0001
,  // measure 89
0100
0010
1000
0100
,  // measure 90
0010
0001
0100
0010
,  // measure 91
1000
0010
0100
0001
,  // measure 92
1000
0110
0000
0000
,  // measure 93
1001
0000
0000
1100
,  // measure 94
0000
0000
2002
0000
3003
0220
0000
0330
,  // measure 95
2002
3003
0010
1000
,  // measure 96
0100
0000
1000
0001
1000
0001
0000
0000
,  // measure 97
0100
0010
0100
0010
1000
0000
0001
0000
,  // measure 98
0100
0002
0000
2003
,  // measure 99
0000
3002
0000
2003
,  // measure 100
0000
3002
2003
3002
,  // measure 101
2003
3002
2003
3002
,  // measure 102
2003
3010
0100
0001
,  // measure 103
0010
1000
0010
0001
,  // measure 104
0200
0300
0000
0000
0000
0000
0000
0000
,  // measure 105
0000
2002
0000
0000
,  // measure 106
0000
0000
0000
0000
,  // measure 107
3003
0000
0000
0000
;

//---------------dance-single - ----------------
#NOTES:
     dance-single:
     :
     Beginner:
     3:
     0.281,0.402,0.202,0.000,0.000: // measure 1
0000
0000
0000
0000
,  // measure 2
0001
0000
0000
0000
,  // measure 3
0010
0000
0001
0000
,  // measure 4
0100
0000
0000
0000
,  // measure 5
1000
0000
0100
0000
,  // measure 6
1000
0000
0000
0000
,  // measure 7
0010
0000
0010
0000
,  // measure 8
0100
0000
0000
0000
,  // measure 9
1001
0000
0000
0000
,  // measure 10
0010
0000
0000
0000
,  // measure 11
0001
0000
0100
0000
,  // measure 12
0001
0000
0000
0000
,  // measure 13
1000
0000
1000
0000
,  // measure 14
0100
0000
0000
0000
,  // measure 15
0001
0000
0001
0000
,  // measure 16
0100
0000
0100
0000
,  // measure 17
1001
0000
0000
0000
,  // measure 18
0010
0000
0100
0000
,  // measure 19
0010
0000
0100
0000
,  // measure 20
0010
0000
0100
0000
,  // measure 21
0010
0000
0100
0000
,  // measure 22
0010
0000
0100
0000
,  // measure 23
0010
0000
0100
0000
,  // measure 24
1000
0000
1000
0000
,  // measure 25
1001
0000
0000
0000
,  // measure 26
0001
0000
0001
0000
,  // measure 27
1000
0000
0001
0000
,  // measure 28
1000
0000
0001
0000
,  // measure 29
1000
0000
0001
0000
,  // measure 30
1000
0000
0001
0000
,  // measure 31
1000
0000
0001
0000
,  // measure 32
0100
0000
0100
0000
,  // measure 33
1001
0000
1001
0000
,  // measure 34
1001
0000
0000
0000
,  // measure 35
1001
0000
0100
0000
,  // measure 36
1001
0000
0100
0000
,  // measure 37
1001
0000
0100
0100
,  // measure 38
0100
0000
0100
0000
,  // measure 39
0100
0000
0100
0000
,  // measure 40
0010
0000
0010
0000
,  // measure 41
0010
0000
0010
0000
,  // measure 42
0001
0000
0001
0000
,  // measure 43
0001
0000
0001
0000
,  // measure 44
1000
0000
1000
0000
,  // measure 45
1000
0000
1000
0000
,  // measure 46
0010
0000
0000
0000
,  // measure 47
0100
0000
0100
0000
,  // measure 48
0001
0000
0000
0000
,  // measure 49
1000
0000
1000
0000
,  // measure 50
0010
0000
0000
0000
,  // measure 51
1001
0000
1001
0000
,  // measure 52
0100
0000
0000
0000
,  // measure 53
1000
0000
0010
0000
,  // measure 54
1000
0000
0000
0000
,  // measure 55
0010
0000
0001
0000
,  // measure 56
0100
0000
0000
0000
,  // measure 57
0010
0000
1000
0000
,  // measure 58
0100
0000
0000
0000
,  // measure 59
0010
0000
0001
0000
,  // measure 60
0100
0000
0001
0001
,  // measure 61
0000
0000
0000
1000
,  // measure 62
0000
1000
0000
1000
,  // measure 63
0000
0001
0000
0001
,  // measure 64
0000
0100
0000
0100
,  // measure 65
0000
0001
0000
0001
,  // measure 66
0000
1000
0000
0001
,  // measure 67
0000
0100
0000
0010
,  // measure 68
0000
0010
0000
0000
,  // measure 69
0000
1001
0000
0000
,  // measure 70
0000
0010
0000
0010
,  // measure 71
0000
0100
0000
0100
,  // measure 72
0000
0001
0000
0001
,  // measure 73
0000
1000
0000
1000
,  // measure 74
0000
0001
0000
0001
,  // measure 75
0000
0100
0000
0100
,  // measure 76
0000
1001
0000
0000
,  // measure 77
0110
0000
0000
0000
,  // measure 78
0000
1000
0000
0100
,  // measure 79
0000
1000
0000
0001
,  // measure 80
0000
0100
0000
0001
,  // measure 81
0000
0100
0000
0001
,  // measure 82
0000
0010
0000
0100
,  // measure 83
0000
1000
0000
0010
,  // measure 84
0000
1001
0000
0000
,  // measure 85
0110
0000
0000
1000
,  // measure 86
0000
0001
0000
0010
,  // measure 87
0000
1000
0000
0010
,  // measure 88
0000
0001
0000
0100
,  // measure 89
0000
1000
0000
0100
,  // measure 90
0000
0001
0000
1000
,  // measure 91
0000
0010
0000
0100
,  // measure 92
0000
0110
0000
0000
,  // measure 93
1001
0000
0000
0110
,  // measure 94
0000
1001
0000
0100
,  // measure 95
0000
0100
0000
0100
,  // measure 96
0000
0100
0000
0010
,  // measure 97
0000
0010
0000
0010
,  // measure 98
0000
1000
0000
0001
,  // measure 99
0000
1000
0000
0001
,  // measure 100
0000
0100
0000
0100
,  // measure 101
0000
0100
0000
0100
,  // measure 102
0000
0010
0000
0010
,  // measure 103
0000
0010
0000
0010
,  // measure 104
0010
0000
0000
0000
,  // measure 105
0000
1001
0000
0000
;

//---------------dance-double - ----------------
#NOTES:
     dance-double:
     :
     Easy:
     7:
     0.508,0.818,0.357,0.116,0.000:
00000000
00000000
00000000
00000000
,
00000000
00000000
00000000
00000000
,
00001000
01000000
00001000
00000000
,
00010000
00000100
00010000
00000000
,
00000010
00000100
00001000
00000000
,
00000001
00000100
00001000
00000000
,
00010000
00100000
01000000
00000000
,
10000000
01000000
00010000
00000000
,
00100000
00000000
11000000
00000000
,
01010000
00000000
10010000
00000000
,
00100000
00000000
01000000
10000000
,
00000000
00010000
00100000
01000000
,
10000000
00000000
01000000
00010000
,
00000000
01000000
00010000
00001000
,
00000100
00000000
00000010
00000100
,
00000000
00000001
00001000
00000100
,
00001000
00000000
00000101
00000000
,
00001100
00000000
00011000
00000000
,
00010000
01000000
00000000
00100000
,
00000000
01000000
00000000
00010000
,
00001000
00010000
00000000
00000100
,
00000000
00001000
00000000
00000001
,
00000000
00000100
00000000
00001000
,
00000000
00010000
00000000
00001000
,
00000010
00001000
00010000
01000000
,
00200000
00000000
00000000
00300000
,
01000000
10000000
00000000
00010000
,
00000000
00100000
00010000
00100000
,
00000000
00001000
00000000
00010000
,
00000000
00001000
00000100
00000001
,
00000000
00000010
00000000
00000100
,
00000000
00001000
00000001
00000100
,
00000000
00001000
00010000
00001000
,
00000200
00000000
00000010
00000300
,
00001001
00001100
00000000
00000000
,
00011000
01010000
00000000
00000000
,
11000000
00000000
10100000
00000000
00100000
00100000
00100000
00000000
,
00110000
00000000
00011000
00000000
00001000
00000010
00000001
00000100
,
00000001
00000000
00001100
00000000
,
00000010
00000100
00010000
00001000
,
01000000
00000000
01010000
00000000
,
00100000
10000000
01000000
00010000
,
00001000
00000000
00011000
00000000
,
00000010
00000001
00001000
00000100
,
00000110
00000000
00001100
00000000
,
00011000
00000000
01001000
00000000
,
00010000
00100000
01000000
00000000
,
10000000
00100000
01000000
00000000
,
00100000
01000000
00001000
00000000
,
00010000
00000010
00000100
00000000
,
00001000
00000010
00000100
00000001
,
00000010
00000100
00001000
00000000
,
00000001
00001000
00000001
00000000
,
00001100
00000000
00011000
00000000
,
01010000
00010000
10000000
01000000
,
10000000
01000000
00100000
00000000
,
01010000
01000000
00001000
00010000
,
00000010
00001000
00000100
00000000
,
00001001
00000001
00000100
00001000
,
00010000
00001000
00000100
00000000
,
00001000
00000000
00010000
00000000
01000000
00000000
00200000
00300000
,
00000000
10000000
00010000
10000000
,
00000000
01000000
00010000
00001000
,
00000100
00000001
00001000
00000001
,
00000000
00000010
00001000
00010000
,
01000000
10000000
00010000
10000000
,
00000000
00100000
00010000
00001000
,
00000100
00000001
00001000
00000001
,
00000000
00000110
00000000
00001001
,
00000000
00001000
00000100
00000010
,
00000001
00000100
00001000
00010000
,
00001000
00000000
01000000
00100000
,
10000000
01000000
00100000
00010000
,
01000000
00000000
00010000
00100000
,
00001000
00010000
00001000
00000010
,
00000001
00000000
00001000
00000100
,
00000001
00000100
00001000
00000010
,
00010000
00011000
00000000
01010000
,
00000000
00100000
10000000
01000000
,
00010000
00001000
00000000
00000011
,
00000000
00000100
00001000
00010000
,
00100000
10000000
00000000
11000000
,
00000000
00100000
00010000
01000000
,
00001000
00010000
00000000
00010010
,
00000000
00001000
00000200
00002000
,
00003300
00001000
00000001
00001000
,
00000001
00001000
00000100
00001000
,
00000100
00010000
00001000
00010000
,
00001000
01000000
00010000
01000000
,
00010000
10000000
00100000
10000000
,
00100000
00010000
00001000
00010000
,
00001000
00000100
00000001
00001000
,
00000100
00000010
00000001
00000100
,
00001000
00000000
00011000
00000000
00000000
10010000
00000000
00000000
,
01100000
00000000
10000000
00000000
00010000
10000000
00010000
10000000
,
00000000
00000000
01000000
00100000
01000000
00100000
00000000
00000000
,
00001000
00010000
00001000
00010000
00000000
00000000
00000100
00000010
,
00000100
00002000
00000000
00003002
,
00000000
00000203
00000000
00002300
,
00000000
00013000
00001000
00010000
,
00001000
01000000
00010000
01000000
,
00010000
10000000
01000000
00010000
,
00001000
00010000
01000000
10000000
,
00020000
00030000
00000000
00000000
00000000
00000000
00000000
00000000
,
00000000
00002002
00000000
00000000
,
00000000
00000000
00000000
00000000
,
00003003
00000000
00000000
00000000
;
