#TITLE:PAPER PLANES;
#SUBTITLE:;
#ARTIST:M.I.A.;
#TITLETRANSLIT:;
#SUBTITLETRANSLIT:;
#ARTISTTRANSLIT:;
#CREDIT:;
#BANNER:PAPER PLANES.png;
#BACKGROUND:PAPER PLANES-bg.png;
#LYRICSPATH:;
#CDTITLE:KALA.png;
#MUSIC:PAPER PLANES.mp3;
#OFFSET:-0.136;
#SAMPLESTART:10.919;
#SAMPLELENGTH:15.000;
#SELECTABLE:YES;
#DISPLAYBPM:86.000;
#BPMS:0.000=86.000;
#STOPS:;
#BGCHANGES:;

//---------------dance-single - ----------------
#NOTES:
     dance-single:
     :
     Hard:
     6:
     0.299,0.334,0.326,0.021,0.000:
0000
0000
0000
0000
,
0000
0000
0000
0000
,
1000
1000
1000
1000
,
1000
1000
1000
1000
,
0011
0100
1000
0000
0010
0000
0010
0000
,
0100
0001
0010
0001
0100
0000
0010
0000
,
1000
0100
1100
0001
0100
0000
0101
0000
,
1000
0100
0001
0000
0010
1000
0100
0000
,
1001
0000
0100
0000
0010
0010
1000
0000
,
0001
0010
1000
0000
0010
0001
0100
0000
,
0010
1000
1010
0001
0010
0000
0011
0000
,
0100
1000
0010
1000
0001
0000
0000
0000
,
0010
0100
1000
0000
0010
0100
1000
0000
,
0010
1000
0001
0000
0010
1000
0001
0000
,
0010
0100
1100
0000
1000
0001
0101
0000
,
1000
0000
0100
0000
1000
1000
1000
0000
,
0010
0100
0001
0100
0010
1000
0010
0000
,
1000
0100
1000
0010
0100
0001
0100
0000
,
0010
1000
0101
0000
0010
0001
1100
0000
,
1000
0010
1000
0000
0001
0000
0000
0000
,
0001
0010
0100
1001
1001
1001
1001
0010
,
0100
1000
0110
0001
1000
0000
0010
0000
,
1000
0100
0010
1001
1001
1001
1001
0100
,
0010
0001
0110
1000
0001
0000
0100
0000
,
0010
1000
0100
1100
1100
1100
1100
0001
,
0010
0100
0011
0100
0010
0000
0001
0000
,
0100
0001
0010
0011
0011
0011
0011
1000
,
0100
0010
1100
0010
0100
0000
1000
0000
,
0002
1000
0000
1000
,
0000
1000
0003
1010
,
0200
1000
0000
1000
,
0000
1000
0000
1300
;

//---------------dance-single - ----------------
#NOTES:
     dance-single:
     :
     Medium:
     5:
     0.257,0.235,0.274,0.000,0.000:
0000
0000
0000
0000
,
0000
0000
0000
0000
,
0001
0001
0001
0001
,
0001
0001
0001
0001
,
1000
0000
0010
0000
1000
0010
1000
0000
,
0100
0000
0010
0000
0001
0100
1000
0000
,
0001
0011
1000
1100
,
0010
0010
0010
0010
0010
0010
0010
0000
,
1000
0000
0001
0000
1000
0001
0100
0000
,
0010
0000
0100
0000
0010
1000
0001
0000
,
0100
1001
0001
0110
,
1000
1000
1000
1000
1000
1000
1000
0000
,
0001
0000
0010
0000
0001
0010
0001
0000
,
1000
0000
0010
0000
0100
0001
1000
0000
,
0100
0000
1000
0000
0100
1000
0100
0000
,
0010
0010
0010
0010
0010
0010
0010
0000
,
0001
0000
0100
0000
1000
0100
0001
0000
,
1000
0000
0001
0000
0010
0100
1000
0000
,
0001
1100
0010
0101
,
0010
0010
0010
0010
0010
0010
0010
0000
,
0000
0000
0000
1001
1001
1001
1001
0000
,
0000
0000
0110
0000
0001
0010
0100
0000
,
0000
0000
0000
0011
0011
0011
0011
0000
,
0000
0000
1100
0000
0010
0100
0001
0000
,
0000
0000
0000
1010
1010
1010
1010
0000
,
0000
0000
0101
0000
0010
0100
1000
0000
,
0000
0000
0000
0110
0110
0110
0110
0000
,
0000
0000
1001
0000
0010
0100
0001
0000
,
1000
0100
1000
0100
,
1000
0100
1000
0001
,
0100
0010
0100
0010
,
0100
0100
0010
0100
0100
0100
0010
0100
;

//---------------dance-single - ----------------
#NOTES:
     dance-single:
     :
     Easy:
     2:
     0.158,0.184,0.210,0.000,0.000:
0000
0000
0000
0000
,
0000
0000
0000
0000
,
0001
0001
0001
0001
,
0001
0001
0001
0001
,
1000
0000
1000
0000
,
0010
0000
0100
0000
,
0001
0001
1000
1000
,
0010
0000
0100
0000
,
0001
0000
0010
0000
,
0001
0000
0100
0000
,
1000
1000
0001
0001
,
0010
0000
0010
0000
,
0100
0000
0100
0000
,
1000
0000
0001
0000
,
0010
0010
0100
0100
,
0001
0000
1000
0000
,
0100
0000
0100
0000
,
1000
0000
0010
0000
,
0100
0100
0010
0010
,
1000
1000
0001
0001
,
0000
0000
0000
1001
1001
1001
1001
0000
,
0000
1001
0000
0000
,
0000
0000
0000
1001
1001
1001
1001
0000
,
0000
1001
0000
0000
,
0000
0000
0000
0110
0110
0110
0110
0000
,
0000
0110
0000
0000
,
0000
0000
0000
0110
0110
0110
0110
0000
,
0000
0110
0000
0000
,
0001
1000
0001
1000
,
0001
1000
0001
0000
,
0010
0100
0010
0100
,
0010
0100
0010
0100
;

//---------------dance-single - ----------------
#NOTES:
     dance-single:
     :
     Beginner:
     1:
     0.081,0.134,0.021,0.042,0.000:
0000
0000
0000
0000
,
0000
0000
0000
0000
,
0010
0010
0010
0010
,
0010
0010
0010
0000
,
1000
0000
1000
0000
,
0001
0000
0000
0000
,
0010
0000
0010
0000
,
0100
0000
1000
0000
,
0001
0000
0100
0000
,
0010
0000
0000
0000
,
1000
0000
1000
0000
,
0001
0000
0000
0000
,
0010
0000
0100
0000
,
0010
0000
0000
0000
,
1000
0000
1000
0000
,
0001
0000
0010
0000
,
0100
0000
1000
0000
,
0100
0000
0000
0000
,
0010
0000
0010
0000
,
1000
0000
1000
0000
,
0001
0001
0000
0000
,
1000
0000
0000
0000
,
0001
0001
0000
0000
,
1000
0000
0000
0000
,
0010
0010
0000
0000
,
0100
0000
0000
0000
,
0010
0010
0000
0000
,
0100
0000
0000
0000
,
2002
0000
0000
0000
,
0000
0000
3003
0000
,
0220
0000
0000
0000
,
0000
0000
0000
0330
;
