#TITLE:ONE MORE TIME;
#SUBTITLE:;
#ARTIST:REAL McCOY;
#TITLETRANSLIT:;
#SUBTITLETRANSLIT:;
#ARTISTTRANSLIT:;
#CREDIT:;
#BANNER:ONE MORE TIME.png;
#BACKGROUND:ONE MORE TIME-bg.png;
#LYRICSPATH:ONE MORE TIME.lrc;
#CDTITLE:THE BEST OF REAL McCOY.png;
#MUSIC:ONE MORE TIME.mp3;
#OFFSET:-0.028;
#SAMPLESTART:6.311;
#SAMPLELENGTH:13.000;
#SELECTABLE:YES;
#DISPLAYBPM:133.000;
#BPMS:0.000=133.093;
#STOPS:;
#BGCHANGES:;

//---------------dance-single - ----------------
#NOTES:
     dance-single:
     :
     Hard:
     7:
     0.427,0.433,0.435,0.000,0.049:
0000
0000
0000
0000
,
0000
0000
0000
0000
,
0000
0000
0000
0000
,
0000
0000
1000
0010
,
1010
0000
1100
0000
0010
0001
0100
0000
,
0101
0000
0011
0000
0100
1000
0010
0000
,
1010
0000
0011
0000
0100
1000
0001
0000
,
0010
0000
0100
1000
,
1100
0000
1010
0000
0100
0001
0010
0000
,
0011
0000
0101
0000
0010
1000
0100
0000
,
1010
0000
0011
0000
0100
1000
0001
0000
,
1000
0000
0000
0000
,
1000
0010
1000
0001
0100
0001
1000
0010
,
1000
0001
0100
0001
1000
0010
1000
0001
,
0010
0001
0100
1000
,
0010
0010
0100
0100
,
1000
0010
1000
0001
0100
0001
1000
0010
,
1000
0001
0100
0001
1000
0010
1000
0001
,
0010
1000
0100
0001
,
0010
0010
0100
0100
,
1000
0000
0100
0000
1000
0000
0001
0000
0010
0000
0100
1000
0000
0000
0001
0000
,
1000
0000
0010
0000
1000
0000
0001
0000
0100
0000
0001
1000
0000
0000
0010
0000
,
0100
0000
0001
0000
0010
0000
0001
0000
0100
0000
0010
1000
0000
0000
0100
0000
,
0010
0000
0001
0000
0100
0000
0001
0000
0010
0000
0100
1000
0000
0000
0010
0000
,
1000
0000
0010
0000
0100
0000
0001
0000
0100
0000
0010
1000
0000
0000
0001
0000
,
0010
0000
0001
0000
1000
0000
0100
0000
1000
0000
0001
0010
0000
0000
0100
0000
,
1000
0000
0010
0000
0100
0000
0001
0000
1000
0000
0010
0100
0000
0000
0001
0000
,
0010
0000
0100
0010
,
0110
0000
1001
0000
0010
1000
0100
0000
,
1001
0000
0110
0000
0010
0100
0001
0000
,
0011
0000
1100
0000
0010
0001
1000
0000
,
0100
0000
1000
0010
,
1010
0000
0101
0000
0010
0001
0100
0000
,
0011
0000
1100
0000
0010
0001
0100
0000
,
1001
0000
0110
0000
1000
0001
0010
0000
,
0001
0000
0000
0000
,
1010
0011
0100
1000
,
1010
0011
1010
0011
,
1100
0101
0010
0100
,
1000
0010
0100
0001
,
0011
0101
0001
1000
,
1010
1100
1010
1100
,
1010
0011
1000
0011
,
1001
1001
1001
0000
,
1000
0010
1000
0001
0100
0000
0000
0000
,
0001
0000
0010
0000
0100
0000
1000
0000
0010
0000
0100
0001
0000
0000
0001
0000
,
1000
0010
1000
0001
0100
0000
0000
0000
,
0001
0000
0010
0000
0001
0000
1000
0000
0100
0000
0010
0001
0000
0000
1000
0000
,
0010
1000
0010
0100
0001
0000
0000
0000
,
1000
0000
0100
0000
0010
0000
0001
0000
0010
0000
0100
1000
0000
0000
0010
0000
,
1000
0010
1000
0001
0100
0001
1000
0010
,
0100
0100
0100
0000
;

//---------------dance-single - ----------------
#NOTES:
     dance-single:
     :
     Medium:
     5:
     0.288,0.357,0.336,0.000,0.000:
0000
0000
0000
0000
,
0000
0000
0000
0000
,
0000
0000
0000
0000
,
0000
0000
1000
0100
,
1100
0101
1100
0101
,
1001
0000
0001
0010
,
0011
1010
0011
1010
,
1001
0000
0010
0001
,
0011
0000
0100
1000
,
1100
0000
1000
0010
,
1010
0011
1010
0011
,
1001
0000
0000
0000
,
0001
0010
0001
0000
1000
0000
1000
0000
,
0010
0010
0100
0100
,
0001
0010
0100
1000
,
0010
1000
0001
0100
,
0010
1000
0010
0000
0100
0000
0001
0000
,
0010
0100
1000
0100
,
0010
0010
0001
0001
,
1000
0010
0100
0000
,
0001
0010
1000
0100
,
0001
0100
1000
0010
,
0001
0100
1000
0100
,
0001
0000
0000
0000
,
1000
0100
0001
0010
,
1000
0010
0001
0100
,
1000
0100
0001
0100
,
1000
0000
0001
0010
,
0011
0101
0011
0101
,
0011
0000
0100
1000
,
1100
1010
1100
1010
,
1100
0000
1000
0001
,
1001
0000
0010
0100
,
0110
0000
0001
0010
,
0011
0101
0011
0101
,
0011
0000
0000
0000
,
0100
1000
0000
0000
,
0100
1000
0001
0010
,
0100
1000
0000
0000
,
0010
1000
0100
0001
,
0010
0100
0000
0000
,
0010
0100
0010
0100
,
0001
1000
0000
0001
,
0010
0100
1000
0000
,
1000
0100
1000
0000
0001
0000
0000
0000
,
1000
0010
0100
0001
,
0010
0001
0010
0000
0100
0000
0000
0000
,
1000
0100
0010
0001
,
1000
0010
1000
0000
0001
0000
0000
0000
,
0001
0100
0010
1000
,
0100
1000
0100
0000
1000
0100
1000
0000
,
0010
0010
0010
0000
;

//---------------dance-single - ----------------
#NOTES:
     dance-single:
     :
     Easy:
     3:
     0.230,0.306,0.158,0.000,0.000:
0000
0000
0000
0000
,
0000
0000
0000
0000
,
0000
0000
0000
0000
,
0000
0000
1000
0100
,
1000
0000
0001
0100
,
0001
0000
1000
1000
,
0001
0010
0100
1000
,
0001
0000
1000
0010
,
1000
0000
0001
0100
,
0001
0000
1000
1000
,
0010
0100
0001
1000
,
0001
0000
0000
0000
,
1000
1000
1000
1000
,
0001
0001
0001
0001
,
1000
0001
1000
0000
,
0001
1000
0001
0000
,
0010
0010
0010
0010
,
0100
0100
0100
0100
,
0010
0100
0010
0000
,
0100
0010
0100
0000
,
1000
1000
0010
0010
,
0001
0001
0100
0100
,
1000
1000
0100
0100
,
0001
0000
0000
0000
,
0001
0001
0010
0010
,
1000
1000
0100
0100
,
0010
0001
1000
0010
,
1000
0000
1000
0100
,
1000
0000
0001
0100
,
0001
0000
1000
1000
,
0001
0010
0100
1000
,
0001
0000
1000
1000
,
0001
0000
0001
0001
,
1000
0000
0010
0100
,
0010
1000
0001
1000
,
0100
0000
0000
0000
,
1001
1001
0000
0000
,
1001
1001
1001
0000
,
1001
1001
0000
0000
,
1001
0000
0000
0000
,
0110
0110
0000
0000
,
0110
0110
0110
0000
,
0110
0110
0000
0000
,
0110
0000
0000
0000
,
1000
1000
1000
0000
,
0001
0001
0001
0000
,
1000
1000
1000
0000
,
0010
0010
0010
0000
,
1000
1000
1000
0000
,
0100
0100
0100
0000
,
1000
1000
1000
0010
,
0100
0100
0100
0000
;

//---------------dance-single - ----------------
#NOTES:
     dance-single:
     :
     Beginner:
     1:
     0.127,0.178,0.069,0.000,0.000: // measure 1
0000
0000
0000
0000
,  // measure 2
0000
0000
0000
0000
,  // measure 3
0000
0000
0000
0000
,  // measure 4
0000
0000
0000
0000
,  // measure 5
1000
0000
0000
0000
,  // measure 6
0001
0000
0000
0000
,  // measure 7
1000
1000
1000
0000
,  // measure 8
0001
0000
0000
0000
,  // measure 9
0010
0000
0000
0000
,  // measure 10
0100
0000
0000
0000
,  // measure 11
0010
0010
0010
0000
,  // measure 12
0100
0000
0000
0000
,  // measure 13
1000
0000
1000
0000
,  // measure 14
0001
0000
0001
0000
,  // measure 15
0010
0000
0100
0000
,  // measure 16
0010
0000
0000
0000
,  // measure 17
1000
0000
0001
0000
,  // measure 18
1000
0000
0010
0000
,  // measure 19
0100
0000
0001
0000
,  // measure 20
0100
0100
0100
0000
,  // measure 21
0001
0000
0000
0000
,  // measure 22
1000
0000
0000
0000
,  // measure 23
0010
0010
0010
0000
,  // measure 24
0010
0000
0000
0000
,  // measure 25
1000
0000
0001
0000
,  // measure 26
1000
1000
1000
0000
,  // measure 27
1001
0000
0000
0000
,  // measure 28
0110
0000
0000
0000
,  // measure 29
0001
0000
0010
0000
,  // measure 30
0100
0000
0000
0000
,  // measure 31
0110
0000
0000
0000
,  // measure 32
1001
0000
0000
0000
,  // measure 33
1000
0000
0100
0000
,  // measure 34
1000
0000
0000
0000
,  // measure 35
0001
0000
0000
0000
,  // measure 36
1001
0000
0000
0000
,  // measure 37
1000
0000
0000
0000
,  // measure 38
0001
0001
0001
0000
,  // measure 39
1000
0000
0000
0000
,  // measure 40
1001
0000
0000
0000
,  // measure 41
0010
0000
0000
0000
,  // measure 42
0100
0100
0100
0000
,  // measure 43
0010
0000
0000
0000
,  // measure 44
0110
0000
0000
0000
,  // measure 45
0001
0001
0001
0000
,  // measure 46
1000
0000
1000
0000
,  // measure 47
0010
0010
0010
0000
,  // measure 48
0100
0000
0000
0000
,  // measure 49
0001
0001
0001
0000
,  // measure 50
1000
0000
1000
0000
,  // measure 51
0100
0100
0100
0000
,  // measure 52
0100
0100
0100
0000
;
