#TITLE:熱帯夜;
#SUBTITLE:;
#ARTIST:RIP SLYME;
#TITLETRANSLIT:Nettaiya;
#SUBTITLETRANSLIT:;
#ARTISTTRANSLIT:;
#CREDIT:DGJ (nddro.mistrust.com);
#BANNER:Nettaiya.png;
#BACKGROUND:Nettaiya-bg.png;
#LYRICSPATH:;
#CDTITLE:cd.png;
#MUSIC:Nettaiya.mp3;
#OFFSET:-11.439;
#SAMPLESTART:11.252;
#SAMPLELENGTH:11.960;
#SELECTABLE:YES;
#BPMS:0.000=169.021;
#STOPS:;
#BGCHANGES:;

//---------------dance-single - ----------------
#NOTES:
     dance-single:
     :
     Hard:
     8:
     0.536,0.496,0.394,0.000,0.000: // measure 1
1000
0100
1000
0000
0010
0100
0010
0000
,  // measure 2
0001
0010
0100
0010
0001
1000
0010
0000
,  // measure 3
0101
0010
1000
0100
,  // measure 4
0011
0001
1000
0100
,  // measure 5
0010
0001
0010
0000
0001
1000
0001
0000
,  // measure 6
0100
0010
1000
0010
0100
0001
0010
0000
,  // measure 7
1100
0010
0001
0100
,  // measure 8
1010
1000
0001
0010
,  // measure 9
0110
0000
0000
1001
0000
0000
1100
0000
,  // measure 10
0011
0000
0000
0010
0001
1000
0100
0000
,  // measure 11
1000
0010
1000
0001
,  // measure 12
0010
0100
1000
0010
0100
0000
0001
0000
,  // measure 13
0010
0100
1000
0001
0010
0001
0100
0010
,  // measure 14
1000
0100
1000
0001
0000
0000
0000
0000
,  // measure 15
0100
0001
0100
0010
,  // measure 16
1000
0100
0010
0001
0100
0000
0010
0000
,  // measure 17
1000
0010
0100
0000
0001
0010
0001
0000
,  // measure 18
0010
0100
1000
0000
0010
0100
0010
0000
,  // measure 19
0001
0100
0001
0010
,  // measure 20
0100
1000
0001
0010
0100
0000
1000
0000
,  // measure 21
0010
0100
0001
1000
0100
1000
0010
0100
,  // measure 22
0001
0010
0001
1000
0000
0000
0001
0010
,  // measure 23
0001
1000
0010
0100
0000
0000
0010
1000
,  // measure 24
0010
0100
0001
1000
0000
0000
0100
0010
,  // measure 25
0100
1000
0001
0100
0000
0010
1000
0100
,  // measure 26
0000
0010
0000
0001
0100
0000
0000
0000
,  // measure 27
1010
1001
0110
0101
,  // measure 28
0010
1000
0100
0000
0100
1000
0010
0000
,  // measure 29
1001
0011
1100
0110
,  // measure 30
0010
0001
0100
0000
0100
0001
0010
0000
,  // measure 31
0011
0101
1010
1100
,  // measure 32
1000
0001
0100
0000
0100
0001
1000
0000
,  // measure 33
0101
0110
1001
1010
,  // measure 34
0001
1000
0010
0000
0010
1000
0001
0000
,  // measure 35
0110
1100
0011
1001
,  // measure 36
0010
1000
0100
0000
0100
1000
0010
0000
,  // measure 37
1100
1010
0101
0011
,  // measure 38
0001
0100
1000
0000
1000
0100
0001
0000
,  // measure 39
0010
0100
1000
0100
1000
0000
0011
0000
,  // measure 40
0001
1000
0010
1000
0010
0000
1100
0000
,  // measure 41
0010
0000
0001
0000
1000
0010
0100
0000
,  // measure 42
0001
0001
0001
0001
0001
0001
1000
0000
,  // measure 43
0100
0100
0010
0001
0100
0010
1000
0100
,  // measure 44
0000
0100
0000
0000
0000
0010
0001
0100
,  // measure 45
0010
1000
0100
0100
1000
0000
0000
1000
,  // measure 46
0001
0010
0100
0100
1000
0000
0000
0000
,  // measure 47
0001
0001
1000
0010
0100
0001
1000
0001
,  // measure 48
0000
0001
0000
0000
0000
1000
0010
0100
,  // measure 49
0001
1000
0001
0001
0100
0000
0000
0100
,  // measure 50
0010
1000
0001
0001
0100
0000
0000
0000
,  // measure 51
0010
0010
1000
0100
0010
0001
1000
0010
,  // measure 52
0000
0010
0000
0000
0000
0010
0100
0001
,  // measure 53
1000
0100
0010
0010
0001
0000
0000
0001
,  // measure 54
1000
0100
0010
0010
0001
0000
0000
0000
,  // measure 55
1000
1000
0001
0100
0010
1000
0001
1000
,  // measure 56
0000
1000
0000
0000
0000
0100
0010
0001
,  // measure 57
1000
0010
1000
1000
0010
0000
0000
0010
,  // measure 58
1000
0001
1000
1000
0010
0000
0000
0000
,  // measure 59
1010
0000
0000
1001
0000
0000
0011
0000
,  // measure 60
0101
0000
0000
0010
1000
0100
0010
0000
;

//---------------dance-single - ----------------
#NOTES:
     dance-single:
     :
     Easy:
     3:
     0.233,0.214,0.145,0.021,0.000:
1000
0000
0001
0000
,
0100
0010
0100
0000
,
0001
0000
1000
0000
,
0010
0100
0010
0000
,
1000
0000
0001
0000
,
0100
0010
0100
0000
,
0001
0000
1000
0000
,
0010
0100
0010
0000
,
2000
0000
0000
0000
,
3001
0000
0000
0000
,
1000
0000
1000
0000
,
0010
0000
0010
0000
,
1000
0010
1000
0000
,
0001
0100
0001
0000
,
0100
0000
0100
0000
,
0001
0000
0001
0000
,
0100
0001
0100
0000
,
0010
1000
0010
0000
,
1000
0000
1000
0000
,
0100
0000
0100
0000
,
1000
0100
1000
0000
,
0001
0010
0001
0000
,
0010
0000
0010
0000
,
0001
0000
0001
0000
,
0010
0001
0010
0000
,
0100
1000
0100
0000
,
0010
0010
0001
0000
,
1000
0000
1001
0000
,
0100
0100
1000
0000
,
0001
0000
0110
0000
,
1000
1000
0001
0000
,
0100
0000
1001
0000
,
0010
0010
0100
0000
,
0001
0000
0110
0000
,
0001
1000
0010
0000
,
0100
0000
1001
0000
,
0100
0010
1000
0000
,
0001
0000
0110
0000
,
1000
0001
1000
0000
,
0100
0010
0100
0000
,
1000
0000
0010
0000
,
0010
1000
0001
0000
,
0001
0000
0010
0000
,
0100
1000
0010
0000
,
1000
0000
0110
0000
,
0001
0000
0110
0000
,
1000
0000
0010
0000
,
0100
0001
0010
0000
,
0100
0000
1001
0000
,
0010
0000
1001
0000
,
0010
0000
1000
0000
,
0100
0010
0001
0000
,
1000
0000
0110
0000
,
0001
0000
0110
0000
,
0001
0000
0100
0000
,
0010
1000
0100
0000
,
0010
0000
1001
0000
,
0100
0000
1001
0000
,
0002
0000
0000
0000
,
1003
0000
0000
0000
;

//---------------dance-single - ----------------
#NOTES:
     dance-single:
     :
     Medium:
     6:
     0.364,0.398,0.249,0.021,0.000:
1000
0010
0100
0000
,
0001
0010
0100
0000
,
1000
0010
0110
0000
,
0100
0001
1001
0000
,
0010
0100
1000
0000
,
0100
0010
0001
0000
,
0100
0001
1001
0000
,
1000
0100
0110
0000
,
1000
0000
0000
0010
0000
0000
1000
0000
,
0001
0000
0000
0000
,
0010
0100
1000
0001
,
1000
0010
0100
0001
,
0011
0100
1000
0010
,
1010
0100
0011
0000
,
0100
0100
1000
1000
,
0001
0001
0010
0010
,
1100
0010
0100
0000
,
0011
0100
1000
0000
,
0001
0100
0010
1000
,
0001
0010
0100
1000
,
1010
0100
0010
0001
,
0101
0010
1100
0000
,
1001
0001
0100
0000
,
0010
1000
1100
0000
,
0110
0000
0001
0000
0100
0000
0010
1000
,
0010
0100
0011
0000
,
0001
0010
0001
1000
,
0010
1000
0100
0000
0010
0000
0101
0000
,
0010
0100
0010
1000
,
0100
0010
0001
0000
0100
0000
0110
0000
,
1000
0010
1000
0001
,
0010
0001
0100
0000
0010
0000
1100
0000
,
0010
1000
0010
0100
,
0001
1000
0010
0000
0100
0000
1001
0000
,
0001
1000
0001
0100
,
0010
1000
0100
0000
1000
0000
0011
0000
,
0100
0010
0100
1000
,
0010
0100
0001
0000
1000
0000
1010
0000
,
0100
0010
0002
0003
,
1000
0010
0200
0300
,
0001
0010
0001
0000
1000
0100
1000
0000
,
1001
0001
0101
0010
,
1000
0001
0100
0000
,
0001
1000
0100
0000
,
0010
0000
0001
0100
0010
0000
1000
0000
,
0100
0000
0010
0001
1000
0000
0000
0000
,
0100
0010
0001
0000
,
0010
0100
1000
0000
,
0001
0000
0010
0100
1000
0000
0010
0000
,
0100
0000
0001
1000
0100
0000
0000
0000
,
1000
0010
0100
0000
,
0001
0100
0010
0000
,
1000
0000
0100
0010
0001
0000
0100
0000
,
0010
0000
1000
0010
0100
0000
0000
0000
,
0001
1000
0100
0000
,
1000
0001
0010
0000
,
0100
0000
0010
0001
0100
0000
0001
0000
,
0100
0000
0010
1000
0100
0000
0000
0000
,
0010
0000
0000
0001
0000
0000
0100
0000
,
0010
0000
0000
0000
;

//---------------dance-single - ----------------
#NOTES:
     dance-single:
     :
     Beginner:
     1:
     0.086,0.153,0.000,0.083,0.000:
1000
0000
0000
0000
,
0000
0000
0000
0000
,
0010
0000
0000
0000
,
0100
0000
0000
0000
,
0010
0000
0000
0000
,
0000
0000
0000
0000
,
1000
0000
0000
0000
,
0001
0000
0000
0000
,
0000
0000
0000
0000
,
0000
0000
0000
0000
,
1000
0000
0000
0000
,
0000
0000
0000
0000
,
0010
0000
0000
0000
,
0000
0000
0000
0000
,
0100
0000
0000
0000
,
0000
0000
0000
0000
,
0001
0000
0000
0000
,
0000
0000
0000
0000
,
1000
0000
0000
0000
,
0001
0000
0000
0000
,
0010
0000
0000
0000
,
0100
0000
0000
0000
,
1000
0000
0000
0000
,
0010
0000
0000
0000
,
0100
0000
0000
0000
,
0001
0000
0000
0000
,
1000
0000
0000
0000
,
0000
0000
0100
0100
,
0000
0000
0000
0000
,
0000
0000
0010
0010
,
0000
0000
0000
0000
,
0000
0000
0001
0001
,
0000
0000
0000
0000
,
0000
0000
0100
0100
,
0000
0000
0000
0000
,
0000
0000
0010
0010
,
0000
0000
0000
0000
,
0000
0000
1000
1000
,
0000
0000
0000
0001
,
0000
0000
0000
0100
,
0000
0000
0000
0000
,
0000
0000
0000
0000
,
0010
0000
0000
0000
,
1000
0000
0000
0000
,
0002
0000
0003
0000
,
0002
0000
0003
0000
,
0100
0000
0000
0000
,
0010
0000
0000
0000
,
2000
0000
3000
0000
,
2000
0000
3000
0000
,
0001
0000
0000
0000
,
0100
0000
0000
0000
,
0020
0000
0030
0000
,
0020
0000
0030
0000
,
1000
0000
0000
0000
,
0001
0000
0000
0000
,
0200
0000
0300
0000
,
0200
0000
0300
0000
,
0000
0000
0000
0000
,
0001
0000
0000
0000
;
