#TITLE:Need You Tonight;
#SUBTITLE:(Static Revenger Mix);
#ARTIST:INXS;
#TITLETRANSLIT:;
#SUBTITLETRANSLIT:;
#ARTISTTRANSLIT:;
#CREDIT:;
#BANNER:Need You Tonight (Static Revenger Mix).png;
#BACKGROUND:Need You Tonight (Static Revenger Mix)-bg.png;
#LYRICSPATH:;
#CDTITLE:Future Retro.png;
#MUSIC:Need You Tonight (Static Revenger Mix).mp3;
#OFFSET:-5.872;
#SAMPLESTART:49.888;
#SAMPLELENGTH:12.000;
#SELECTABLE:YES;
#BPMS:0.000=125.001;
#STOPS:;
#BGCHANGES:;

//---------------dance-single - Basic----------------
#NOTES:
     dance-single:
     Basic:
     Easy:
     2:
     0.175,0.191,0.066,0.000,0.000:
0000
0000
0000
0000
,
0010
0000
0010
0000
,
0000
0000
0000
0000
,
1000
0000
0100
0000
,
1000
0000
0001
0000
,
0100
0000
0001
0000
,
1000
0000
0010
0000
,
0100
0000
0100
0000
,
0001
0001
0001
0000
,
1000
0000
1000
0000
,
0010
0010
0010
0000
,
1000
0000
1000
0000
,
0100
0100
0100
0000
,
1000
0000
0001
0000
,
1000
0000
0000
0000
,
0001
0000
0010
0000
,
0001
1000
0001
0000
,
1000
0000
0100
0000
,
1000
0001
1000
0000
,
0010
0000
0100
0000
,
0010
1000
0010
0000
,
0100
0000
0001
0000
,
0100
0010
0100
0000
,
1000
0100
0001
0000
,
1000
1000
0010
0000
,
1000
0100
0001
0000
,
1000
1000
0100
0000
,
1000
0010
0001
0000
,
0001
0001
0100
0000
,
1000
0010
0001
0000
,
0001
0001
0010
0000
,
1000
0000
0100
0000
,
0001
0000
0010
0000
,
1000
0000
0100
0000
,
0010
0000
0001
0000
,
1000
0010
1001
0000
,
0010
0010
0100
0000
,
1000
0100
1001
0000
,
0100
0100
0001
0000
,
0001
0100
1001
0000
,
1000
1000
0001
0000
,
0001
0100
1001
0000
,
0001
0001
1000
0000
,
0110
0000
0110
0000
;

//---------------dance-single - Trick----------------
#NOTES:
     dance-single:
     Trick:
     Medium:
     5:
     0.277,0.310,0.241,0.000,0.000:
0000
0000
0000
0000
,
1001
0000
0000
0100
0010
0000
0000
0000
,
0000
0000
0000
0000
,
1000
0100
1000
0000
,
0001
0010
0001
0000
,
0100
0010
0100
0000
,
0001
1000
0001
0000
,
0011
0000
0000
1000
0100
0000
0000
0000
,
0010
0000
0010
0100
0010
0000
0000
0000
,
1010
0000
0000
0100
0001
0000
0000
0000
,
1000
0000
1000
0001
1000
0000
0000
0000
,
1100
0000
0000
0001
0010
0000
0000
0000
,
0001
0000
0001
1000
0001
0000
0000
0000
,
1000
0100
1000
0100
1000
0100
1000
0100
,
1000
0000
0000
0000
,
0001
0000
0000
1000
0010
0000
0000
0000
,
0010
0000
1000
0000
0001
1000
0010
0000
,
1000
0000
0000
0001
0100
0000
0000
0000
,
0001
0000
0100
0000
0001
1000
0100
0000
,
1000
0000
0000
0010
0100
0000
0000
0000
,
0010
0000
0100
0000
0001
0100
0010
0000
,
0100
0000
0000
0001
0100
0000
0000
0000
,
0010
0000
0100
0001
1000
0000
0000
0000
,
1000
1010
1010
0000
,
0001
0001
0100
0010
0100
0000
0000
0000
,
0100
0101
0101
0000
,
0010
0010
1000
0100
1000
0000
0000
0000
,
1000
1100
1100
0000
,
1000
1000
0001
0010
0001
0000
0000
0000
,
0001
0011
0011
0000
,
0100
0100
0001
0010
0001
0000
0000
0000
,
1000
0100
0010
0000
,
0001
0010
0100
0000
,
1000
0001
0100
0000
,
0100
0001
1000
0000
,
0100
0101
1100
0000
,
0010
0010
1000
0001
1000
0000
0000
0000
,
0010
0011
1010
0000
,
0100
0100
0010
1000
0010
0000
0000
0000
,
1001
0110
1001
0000
,
1000
1000
0001
0100
0001
0000
0000
0000
,
1000
1010
1100
0000
,
0001
0001
1000
0100
1000
0000
0000
0000
,
0110
0000
0000
0100
0010
0000
0000
0000
;

//---------------dance-single - Maniac----------------
#NOTES:
     dance-single:
     Maniac:
     Hard:
     7:
     0.424,0.429,0.340,0.088,0.170:
1000
0100
0010
0001
1000
0100
0010
0001
,
0011
0000
0000
1000
1001
0000
0000
0000
,
0000
0000
0000
0000
,
0100
0010
1000
0000
0002
0000
0013
0000
,
0001
0100
0010
0000
2000
0000
3100
0000
,
1000
0010
0100
0000
0002
0000
0103
0000
,
0010
0100
0001
0000
2000
0000
3010
0000
,
0110
0000
0000
0010
1001
0000
0100
0000
,
0010
0000
0000
0100
0000
0000
0010
0000
1000
0000
0000
0000
0000
0000
0000
0000
,
0101
0000
0000
0010
1001
0000
0010
0000
,
1000
0000
0000
0100
0000
0000
0010
0000
0001
0000
0000
0000
0000
0000
0000
0000
,
1100
0000
0000
0010
1001
0000
0000
0000
,
0001
0000
0000
0100
0000
0000
0010
0000
0100
0000
0000
0000
0010
0000
0000
0000
,
0100
0100
0100
0010
0010
0010
0100
0100
,
0100
0000
0000
0000
,
0001
0000
1000
0100
0010
0000
0001
0000
,
1000
0000
0000
0100
0000
0000
1000
0000
0001
0000
0010
0000
0001
0000
1000
0000
,
0010
0000
0100
0010
1000
0000
0001
0000
,
0100
0000
0000
0010
0000
0000
0100
0000
0001
0000
1000
0000
0100
0000
1000
0000
,
0001
0000
1000
0001
0100
0000
0010
0000
,
0001
0000
0000
0010
0000
0000
0001
0000
1000
0000
0100
0000
1000
0000
0010
0000
,
0100
0000
0010
0100
0001
0000
1000
0000
,
0100
0000
0000
0001
0000
0000
0100
0000
1000
0000
0100
0000
0001
0000
0000
0000
,
1000
0101
1010
0000
,
0001
0010
0001
0000
0100
0010
0100
0010
0000
0000
0100
0000
0001
0000
0000
0000
,
1000
0011
1100
0000
,
0010
0100
0010
0000
1000
0100
1000
0100
0000
0000
1000
0000
0001
0000
0000
0000
,
1000
0110
1001
0000
,
0100
0001
0100
0000
0010
1000
0010
1000
0000
0000
0010
0000
0100
0000
0000
0000
,
0010
1010
0101
0010
,
1000
0010
1000
0000
0001
0100
0001
0100
0000
0000
0001
0000
1000
0000
0000
0000
,
0001
0010
0001
0000
0200
0000
0310
0000
,
0100
0010
0100
0000
0002
0000
1003
0000
,
0100
1000
0100
0000
2000
0000
3010
0000
,
0100
0010
0100
0000
0002
0000
0103
0000
,
0110
0101
1001
0000
,
0100
0001
0100
0000
0001
1000
0001
1000
0000
0000
0001
0000
0100
0000
0000
0000
,
0011
1100
1001
0000
,
1000
0010
1000
0000
0001
0010
0001
0010
0000
0000
0001
0000
0100
0000
0000
0000
,
1001
0110
1001
0110
,
0001
1000
0001
0000
1000
0100
1000
0100
0000
0000
1000
0000
0010
0000
0000
0000
,
0011
0110
1100
0000
,
1000
0100
1000
0000
0001
0100
0001
0100
0000
0000
0001
0000
1000
0000
0000
0000
,
0110
0000
0000
0001
1001
0000
0000
0000
;
