#TITLE:NOW AND FOREVER;
#SUBTITLE:;
#ARTIST:HINOIチーム;
#TITLETRANSLIT:NOW AND FOREVER;
#SUBTITLETRANSLIT:;
#ARTISTTRANSLIT:HINOI TEAM;
#CREDIT:;
#BANNER:NOW AND FOREVER.png;
#BACKGROUND:NOW AND FOREVER-bg.png;
#LYRICSPATH:;
#CDTITLE:NOW AND FOREVER-cd.png;
#MUSIC:NOW AND FOREVER.mp3;
#OFFSET:-0.882;
#SAMPLESTART:69.968;
#SAMPLELENGTH:13.000;
#SELECTABLE:YES;
#DISPLAYBPM:158.000;
#BPMS:0.000=158.000;
#STOPS:;
#BGCHANGES:;

//---------------dance-single - ----------------
#NOTES:
     dance-single:
     :
     Hard:
     8:
     0.500,0.550,0.250,0.102,0.056:
0000
0000
0000
0000
,
0000
0000
0000
0000
,
0000
0000
0000
0000
,
0000
0000
0000
0000
,
0000
0000
0000
0000
,
0000
0000
0000
0000
,
0000
0000
0000
0000
0000
0000
1000
0100
,
0000
1000
0000
0010
0100
0000
0010
0000
,
1000
0011
0001
1010
,
0001
0100
0001
1000
0000
0000
0000
0000
,
0100
1000
0000
0100
1000
0000
0001
0000
,
0100
0001
0010
0000
0100
0000
1000
0000
,
0001
1100
1000
0101
,
1000
0010
1000
0001
0000
0000
0000
0010
,
0000
0100
1000
0100
1000
0100
1000
0002
,
0000
0000
0000
0000
0000
0000
0000
0003
,
1000
0010
0100
0000
0001
0010
0100
0000
,
1000
0010
0100
0001
0000
0010
0000
0100
,
1000
0001
0010
0000
0001
1000
0010
0000
,
1000
0100
0010
0001
0000
1000
0000
0010
,
0100
0000
0000
0001
0000
0000
0100
0000
0010
0000
0000
1000
0000
0000
0010
0000
,
0100
0000
0000
0001
0000
0000
0100
0000
0010
0000
0000
1000
0000
0000
0010
0000
,
0100
0000
0000
0001
0000
0000
0010
0000
0100
0000
0000
0000
0000
0000
1000
0000
,
0000
0010
0000
0010
0100
0001
0100
0001
,
0010
0000
0000
0100
0000
0000
1000
0000
0100
0000
0000
0010
0000
0000
0001
0000
,
0010
0000
0000
0100
0000
0000
1000
0000
0100
0000
0000
0010
0000
0000
0001
0000
,
0011
0000
1001
0000
0000
1100
0000
0101
,
0000
1000
0000
1000
0010
0100
0010
0100
,
0001
1000
0100
0000
1000
0001
0100
0000
,
0020
2030
3002
0103
,
0001
0010
0100
0000
1000
0010
0100
2002
,
0000
0000
3003
0000
0000
1000
0000
0010
,
0100
0001
1000
0000
0100
1000
0001
2002
,
0000
3003
1001
0000
0000
0010
0000
1000
,
0001
0100
0001
0100
1000
0100
1000
0100
,
0001
0010
0001
0010
1000
0010
1000
0010
,
0001
0000
0000
0010
0000
0000
0100
0000
1000
0000
0000
0000
0000
0000
0220
0000
,
0000
0000
0330
0000
0000
0001
0000
0010
,
0100
1000
0001
0000
0100
0001
1000
0000
,
0010
1000
0001
0000
0010
0001
1000
0000
,
0100
1010
0000
0101
,
0000
0000
0000
0000
1100
0000
0000
0000
0010
0000
0000
0100
0000
0000
0001
0000
,
1000
0100
0001
0000
0001
0100
1000
0000
,
0001
0000
0100
0000
1000
0000
0000
0000
1000
0000
0000
0100
0000
0000
0001
0000
,
1000
0010
1000
0000
0001
0010
0001
0100
,
0000
0001
0000
1000
0100
0000
1100
0000
,
1000
0010
0001
0010
1000
0010
0001
0010
,
1000
0100
0001
0100
1000
0100
0001
0100
,
1000
0010
0100
0000
0001
0010
0100
0000
,
1000
0010
0100
0001
0100
0010
1000
0000
,
0001
0010
1000
0010
0001
0010
1000
0010
,
0001
0100
1000
0100
0001
0100
1000
0100
,
0001
0000
0001
0000
0000
1000
0000
0010
,
0000
0100
0000
0001
0010
0000
1001
0000
,
1000
0001
0100
0001
1000
0001
0100
0001
,
1000
0010
1000
0001
1000
0010
1000
0001
,
1000
0010
0100
0001
0000
1000
0000
0001
,
0000
0010
0100
0000
1010
0000
0101
0000
,
1000
0100
0010
0100
1000
0100
0010
0100
,
1000
0001
0100
0001
1000
0001
0100
0001
,
1000
0000
0101
0000
0000
0001
0000
1100
,
0000
1100
0000
0001
0100
0000
0101
0000
,
1000
0101
0001
1100
,
0010
1000
0010
0100
0000
0000
0000
0000
,
0001
1000
0000
0001
1000
0000
0010
0000
,
0100
0010
0100
0000
0001
0000
1000
0000
,
0001
1000
0000
0101
0000
1100
0000
0000
,
1000
0010
0100
0001
0000
0000
0000
1000
,
0000
0001
0100
0001
0100
0001
0100
0020
,
0000
0000
0000
0000
0000
0000
0000
0030
;

//---------------dance-single - ----------------
#NOTES:
     dance-single:
     :
     Medium:
     6:
     0.383,0.447,0.417,0.046,0.000:
0000
0000
0000
0000
,
0000
0000
0000
0000
,
0000
0000
0000
0000
,
0000
0000
0000
0000
,
0000
0000
0000
0000
,
0000
0000
0000
0000
,
0000
0000
0000
0000
0000
0000
1000
0100
,
0000
1000
0000
0001
0100
0000
0101
0000
,
1000
0000
0001
1000
0000
0001
0000
0100
,
0000
0000
0001
0010
,
0100
0000
1000
0001
0000
0100
0000
0010
,
0000
0000
0100
0001
,
1000
0000
0001
0010
0000
0001
0000
1000
,
0000
0000
1000
0010
,
0100
0001
0100
0001
0100
0001
0100
0001
,
0000
0000
0000
0000
,
1000
0100
1000
0001
,
0000
0000
0000
0000
0000
1000
0000
0001
,
0010
0001
0010
0100
,
0000
0000
0000
0000
0000
0100
0000
1000
,
0010
0000
1000
0010
1000
0000
0001
0100
,
0001
0000
1000
0010
1000
0000
0001
0100
,
0001
0000
1000
0010
1000
0000
0000
0000
,
0000
0001
0000
0100
0010
0100
0010
0100
,
0001
0000
0010
0001
0010
0000
0100
1000
,
0100
0000
0010
0001
0010
0000
0100
1000
,
0100
0000
1000
0000
0000
0001
0000
0100
,
0000
0010
0000
0010
1000
0010
1000
0010
,
0100
0001
0000
0000
,
2000
3020
0230
0302
,
1003
0000
1000
0000
0001
0000
0000
1100
,
0000
0000
0000
1000
,
0010
0000
0010
0000
0100
0000
0000
0101
,
0000
0000
0000
1000
,
0001
0010
0001
0000
1000
0100
1000
0000
,
0001
0010
0001
0000
1000
0100
1000
0000
,
0001
0000
0100
0000
0010
0000
0000
1010
,
0000
0000
0000
0001
,
1000
0100
1000
0000
0100
1000
0100
0000
,
0010
0001
0010
0000
0001
0010
0001
0000
,
0000
1100
0000
0101
,
0000
1001
0010
0100
,
0001
2000
0000
0000
,
0000
0000
3000
0000
0100
0000
1000
0010
,
1000
0000
0000
0000
0000
0000
0000
0011
,
0000
1100
0000
1000
0001
0000
0100
0000
,
0101
1100
0101
1100
,
0101
0000
1000
0010
,
0110
1010
0110
0101
,
0110
0000
1000
0100
,
1100
0101
1100
0101
,
1100
0000
0010
0100
,
0110
0000
1001
0000
0000
0001
0000
1000
,
0000
0010
0000
1000
0001
0000
0100
0000
,
0101
1001
1010
1001
,
0101
0000
0001
0010
,
0011
1001
1100
1001
,
1010
0000
0010
0100
,
0110
0101
0110
1010
,
1001
0000
0001
0010
,
0001
0000
1100
0000
0000
1100
0000
0101
,
0000
0101
0000
1000
0010
0000
0100
0000
,
0010
0000
1000
0001
0000
0100
0000
0010
,
0000
0000
1000
0100
,
1000
0000
0001
0100
0000
0010
0000
1000
,
0000
0000
0001
0010
,
0100
0000
1000
0010
0000
1000
0000
0001
,
0000
0000
0010
0001
,
1000
0010
1000
0010
1000
0010
1000
0001
;

//---------------dance-single - ----------------
#NOTES:
     dance-single:
     :
     Easy:
     3:
     0.289,0.382,0.241,0.046,0.000:
0000
0000
0000
0000
,
0000
0000
0000
0000
,
0000
0000
0000
0000
,
0000
0000
0000
0000
,
0000
0000
0000
0000
,
0000
0000
0000
0000
,
0000
0000
0000
0000
,
0000
0000
0100
0100
,
0001
0000
0010
0000
0100
0000
1000
0001
,
0000
0000
1000
1000
,
0001
1000
0010
0100
,
0001
0000
0100
0001
,
1000
0001
0010
0001
,
1000
0000
1000
0010
,
0100
0100
0100
0100
,
0000
0000
0000
0000
,
1000
0100
1000
0001
,
0000
0000
0000
1000
,
1000
0010
0100
0001
,
0000
0000
0000
0100
,
0011
0000
0011
0000
,
0011
0000
0011
0000
,
0011
0000
0011
0000
,
0001
0000
0010
0010
,
0000
1010
0000
1010
,
0000
1010
0000
1010
,
0001
1000
0000
0001
,
0000
0010
1000
1000
,
0100
0001
0000
0000
,
2000
3020
0230
0302
,
1003
1000
0001
0000
,
1001
0000
0000
1000
,
0001
1000
0100
0000
,
1100
0000
0000
1000
,
0001
0001
1000
1000
,
0001
0001
1000
1000
,
0001
0100
0010
0000
,
1010
0000
0000
0000
,
1000
1000
0100
0100
,
0010
0010
0001
0001
,
0000
1100
0000
0101
,
0000
1001
0010
0100
,
0001
2000
0000
0000
,
0000
3000
0100
0010
,
0100
0000
0000
0000
,
0011
1100
0001
0100
,
0001
0100
1000
0100
,
0001
0000
1000
0010
,
0100
1000
0100
0001
,
0100
0000
0001
0010
,
0100
1000
0100
0001
,
1000
0000
0010
0100
,
0110
1001
0000
0001
,
1000
0010
0001
0100
,
0100
0001
1000
0010
,
0001
0000
0001
0010
,
1000
0001
0100
0001
,
1000
0000
0010
0100
,
0010
0001
0010
1010
,
1001
0000
0001
0010
,
0001
1100
1100
0101
,
0101
0000
0010
0100
,
0010
1000
0001
0100
,
0010
0000
1000
0100
,
1000
0001
0100
0010
,
1000
0000
0001
0010
,
0100
1000
0010
1000
,
0001
0000
0010
0001
,
1000
1000
1000
1000
;

//---------------dance-single - ----------------
#NOTES:
     dance-single:
     :
     Beginner:
     1:
     0.127,0.159,0.037,0.000,0.000: // measure 1
0000
0000
0000
0000
,  // measure 2
0000
0000
0000
0000
,  // measure 3
0000
0000
0000
0000
,  // measure 4
0000
0000
0000
0000
,  // measure 5
0000
0000
0000
0000
,  // measure 6
0000
0000
0000
0000
,  // measure 7
0000
0000
0000
0000
,  // measure 8
0000
0000
0001
0000
,  // measure 9
1000
0000
1000
0000
,  // measure 10
0010
0000
0000
0000
,  // measure 11
0100
0000
0100
0000
,  // measure 12
0001
0000
0000
0000
,  // measure 13
0010
0000
0001
0000
,  // measure 14
1000
0000
0000
0000
,  // measure 15
0010
0010
0010
0010
,  // measure 16
0000
0000
0000
0000
,  // measure 17
1000
0000
0000
0000
,  // measure 18
0000
0000
0000
0001
,  // measure 19
0001
0000
0000
0000
,  // measure 20
0000
0000
0000
0010
,  // measure 21
0010
0000
0010
0000
,  // measure 22
0010
0000
0010
0000
,  // measure 23
0100
0000
0100
0000
,  // measure 24
0000
0000
0000
0000
,  // measure 25
1000
0000
1000
0000
,  // measure 26
1000
0000
1000
0000
,  // measure 27
0010
0010
0000
0000
,  // measure 28
0010
0000
0000
0000
,  // measure 29
1000
0000
0000
0000
,  // measure 30
0000
0000
0000
0000
,  // measure 31
0001
0000
0000
0000
,  // measure 32
1001
0000
0000
0000
,  // measure 33
0010
0000
0000
0000
,  // measure 34
0110
0000
0000
0000
,  // measure 35
0001
0000
0001
0000
,  // measure 36
0001
0000
0001
0000
,  // measure 37
1000
0000
1000
0000
,  // measure 38
0010
0000
0000
0000
,  // measure 39
1000
0000
1000
0000
,  // measure 40
1000
0000
1000
0000
,  // measure 41
0000
0001
0000
1000
,  // measure 42
0000
1001
0000
0000
,  // measure 43
1000
0000
0000
0000
,  // measure 44
0000
0000
0001
0001
,  // measure 45
0001
0000
0000
0000
,  // measure 46
0000
0000
0000
0000
,  // measure 47
1000
1000
1000
0000
,  // measure 48
0001
0000
0000
0000
,  // measure 49
0010
0010
0010
0000
,  // measure 50
0100
0000
0000
0000
,  // measure 51
1000
0000
0001
0000
,  // measure 52
1000
0000
0000
0000
,  // measure 53
0010
0000
0000
0000
,  // measure 54
0000
0000
0001
0000
,  // measure 55
1000
1000
1000
0000
,  // measure 56
1000
0000
0000
0000
,  // measure 57
0010
0010
0010
0000
,  // measure 58
0010
0000
0000
0000
,  // measure 59
1000
0000
0001
0000
,  // measure 60
1000
0000
0000
0000
,  // measure 61
1001
0000
0000
0000
,  // measure 62
0000
0000
0000
0000
,  // measure 63
1000
0000
1000
0000
,  // measure 64
1000
0000
0000
0000
,  // measure 65
0010
0000
0010
0000
,  // measure 66
0010
0000
0000
0000
,  // measure 67
0100
0000
0100
0000
,  // measure 68
0100
0000
0000
0000
,  // measure 69
0001
0001
0001
0001
;
