#TITLE:NOT GONNA GET US;
#SUBTITLE:;
#ARTIST:t.A.T.u.;
#TITLETRANSLIT:;
#SUBTITLETRANSLIT:;
#ARTISTTRANSLIT:;
#CREDIT:;
#BANNER:NOT GONNA GET US.png;
#BACKGROUND:NOT GONNA GET US-bg.png;
#LYRICSPATH:;
#CDTITLE:200 KMH IN THE WRONG LANE.png;
#MUSIC:NOT GONNA GET US.mp3;
#OFFSET:-2.768;
#SAMPLESTART:47.020;
#SAMPLELENGTH:12.000;
#SELECTABLE:YES;
#BPMS:0.000=130.000;
#STOPS:;
#BGCHANGES:-1.000=NOT GONNA GET US.avi=1.000=1=1=0
,192.000=NOT GONNA GET US-bg.png=1.000=0=0=1
;

//---------------dance-single - ----------------
#NOTES:
     dance-single:
     :
     Easy:
     3:
     0.176,0.202,0.083,0.083,0.000:
0000
0000
0000
0000
,
0000
0000
0000
0000
,
1000
0000
1000
0000
,
0001
0000
0001
0000
,
0200
0000
0300
0000
,
0010
0000
0010
0000
,
0100
0000
0100
0000
,
0002
0000
0003
0000
,
0100
0000
0000
0000
,
0100
0000
0000
0000
,
1000
0000
0000
0000
,
1000
0000
0000
0000
,
0001
0000
0000
0000
,
0001
0000
0000
0000
,
0010
0000
0000
0000
,
0010
0000
0100
0000
,
1000
0000
0001
1000
,
0001
0000
0001
1000
,
0001
0000
0100
0000
,
0100
0000
0100
0010
,
0100
0000
0100
0010
,
0100
0000
0100
0010
,
1000
0000
0001
0000
,
0010
0010
0020
0030
,
1000
0000
1001
0000
,
0001
0000
1001
0000
,
0010
0100
0010
0000
,
0100
0010
0100
0000
,
0010
0000
1001
0000
,
0100
0000
1001
0000
,
1000
0001
1000
0000
,
0001
1000
0001
0000
,
1000
0100
0002
0003
,
0000
0100
0000
0100
,
0001
0100
2000
3000
,
0000
0010
0000
0010
,
1000
0100
0002
0003
,
0000
0100
0000
0100
,
0001
0100
2000
3000
,
0000
0010
0000
0010
,
0100
0000
0100
0010
,
1001
0000
0010
0000
,
1000
0000
0001
0010
,
0110
0000
1000
0000
,
0100
0000
0010
0010
,
0110
0000
1000
0000
,
0100
0000
0001
1000
,
0110
0000
0001
0001
,
0200
0000
0000
0300
;

//---------------dance-single - ----------------
#NOTES:
     dance-single:
     :
     Medium:
     5:
     0.296,0.303,0.217,0.155,0.000:
0000
0000
0000
0000
,
0000
0000
0000
0000
,
1001
0010
0010
0010
,
1001
0100
0100
0100
,
0010
0000
0010
0000
,
0110
0001
0001
0001
,
1000
0000
0100
0000
,
0110
1000
1000
1000
,
0002
0000
0100
0003
,
2000
0000
0100
3000
,
0020
0000
0100
0030
,
2000
0000
0001
3000
,
0001
0001
0002
0003
,
0000
0100
0010
0000
,
1000
1000
2000
3000
,
0000
0100
0010
0000
,
0001
0000
0000
0000
1000
0001
1000
0000
,
0010
0000
0000
0000
0100
0010
0100
0000
,
0001
0000
0000
0000
1000
0100
1000
0000
,
0010
0000
0000
0000
0001
0100
0001
0000
,
1000
0000
0000
0010
0100
0000
0001
0000
,
1000
0000
0000
0000
0100
0010
0100
0000
,
1000
0000
0000
0001
1000
0000
0001
0000
,
1000
0000
0010
0000
1000
0001
1000
0000
,
0001
0010
0100
1000
0200
0000
0300
0000
,
1000
0010
0001
0100
,
0001
0011
0011
0000
,
1000
1010
1010
0000
,
1000
0010
0100
0001
0200
0000
0300
0000
,
0001
0010
1000
0100
,
1000
1100
1100
0000
,
0001
0101
0101
0000
,
0020
1000
0200
0330
,
1000
0001
1000
0000
0010
0000
0010
0000
,
0001
0110
0001
0000
,
1000
0110
1000
0000
,
0200
0001
0020
0330
,
0001
1000
0001
0000
0100
0000
0100
0000
,
1000
0110
0001
0000
,
0001
0110
1000
0000
,
0010
0000
0100
0000
0000
0001
1000
0000
,
0100
0000
0100
0000
1000
0001
0000
0000
,
0100
0000
0101
0000
0000
1000
0100
0000
,
0010
0000
0110
0000
0001
1000
0001
0000
,
1000
0000
0100
0000
1000
0002
0000
0003
,
0100
0000
0101
0000
0000
1000
0100
0000
,
1000
0000
0001
0000
0000
0100
0010
0000
,
1000
0000
1001
0000
0010
0100
0010
0000
,
2002
0000
0000
3003
;

//---------------dance-single - ----------------
#NOTES:
     dance-single:
     :
     Hard:
     7:
     0.433,0.454,0.238,0.124,0.129: // measure 1
0000
0000
0000
0000
,  // measure 2
0000
0000
0000
0000
,  // measure 3
1100
0000
1000
0010
0100
0001
0000
0000
,  // measure 4
0101
0000
0001
0010
0100
1000
0000
0000
,  // measure 5
0010
0000
1000
0010
0001
0000
0010
0000
,  // measure 6
0100
0000
0001
0010
1000
0000
0001
0000
,  // measure 7
0100
1000
0010
0000
0100
0001
0010
0000
,  // measure 8
1001
0000
0100
0010
1000
0200
0000
0300
,  // measure 9
1000
0001
0100
0000
,  // measure 10
0001
0010
1000
0000
,  // measure 11
1000
0100
0001
0000
,  // measure 12
0000
0100
0010
1000
0100
1000
0000
0000
,  // measure 13
0010
0001
0200
0300
,  // measure 14
0000
0001
1000
0000
1000
0001
0000
0000
,  // measure 15
0100
0010
1000
0000
,  // measure 16
0100
0000
0000
0000
0010
0000
0001
0000
0010
0000
0100
0000
1000
0001
1000
0001
,  // measure 17
1000
0000
0010
0100
0001
0010
0100
0000
,  // measure 18
0001
0000
1000
0010
0100
0001
1000
0000
,  // measure 19
0100
0000
0000
0001
1000
0000
0010
0000
0100
0000
0000
0000
0001
0000
0000
0000
,  // measure 20
0100
0000
0000
0010
1000
0000
0100
0000
0010
0000
0000
0000
0001
0000
0000
0000
,  // measure 21
1000
0000
0010
0100
0010
0001
0010
0000
,  // measure 22
1000
0000
0100
0001
0010
0001
1000
0000
,  // measure 23
0100
0000
0000
0001
1000
0000
0100
0000
0010
0000
0000
0000
0001
0000
0000
0000
,  // measure 24
1100
0000
0001
1000
0010
0200
0000
0300
,  // measure 25
0110
0000
0000
0000
1000
0000
0000
0001
1000
0000
0010
0000
0100
0000
0000
0000
,  // measure 26
1001
0000
0000
0000
0010
0000
0000
0100
0010
0000
0001
0000
1000
0000
0000
0000
,  // measure 27
0210
0000
0000
0000
0001
0000
0000
0000
0010
0000
0310
0000
0100
0010
0000
0000
,  // measure 28
0120
0000
0000
0000
1000
0000
0000
0000
0100
0000
0130
0000
0010
0100
0000
0000
,  // measure 29
0011
0000
0000
0000
0100
0000
0000
1000
0010
0000
0100
0000
0001
0000
0000
0000
,  // measure 30
1010
0000
0000
0000
0100
0000
0000
0001
0010
0000
0100
0000
1000
0000
0000
0000
,  // measure 31
0021
0000
0000
0000
0100
0000
0000
0000
1000
0000
1030
0000
0010
0001
0000
0000
,  // measure 32
1020
0000
0000
0000
0100
0000
0000
0000
0001
0000
0031
0000
0010
1000
0000
0000
,  // measure 33
0100
0000
0000
0000
1001
0000
0000
0100
0010
0000
1000
0000
0100
0000
0010
0000
,  // measure 34
0001
0000
0000
0000
0110
0000
0000
1000
0001
0000
0100
0000
0010
0000
1000
0000
,  // measure 35
0100
0000
0000
0000
1001
0000
0000
0010
0100
0000
0001
0000
0010
0000
0100
0000
,  // measure 36
1000
0000
0000
0000
0110
0000
0000
0001
1000
0000
0010
0000
0100
0000
0001
0000
,  // measure 37
0010
0000
0000
0000
1001
0000
0000
0100
0010
0000
1000
0000
0100
0000
0001
0000
,  // measure 38
0100
0000
0000
0000
0110
0000
0000
1000
0001
0000
0010
0000
0001
0000
0100
0000
,  // measure 39
1000
0100
0001
0000
1000
0100
1000
0000
,  // measure 40
0001
0100
0100
0000
1000
0100
0100
0000
,  // measure 41
1000
0001
2000
0000
0001
0000
3001
0000
,  // measure 42
0110
0000
0000
0000
0010
0000
0000
1000
0000
0000
0001
0000
0100
0000
0000
0000
,  // measure 43
1000
0000
0001
0000
0200
0000
0000
0010
0000
0000
0310
0000
0100
0000
0000
0000
,  // measure 44
0001
0000
0000
0000
1001
0000
0000
0100
0000
0000
0001
0000
1000
0000
0000
0000
,  // measure 45
0010
0100
0020
0000
0100
0000
0130
0000
,  // measure 46
1000
0000
0010
0000
0100
0000
0000
0010
0000
0000
0100
0000
0001
0000
0000
0000
,  // measure 47
1000
0000
0010
0000
1010
0000
0000
0001
0000
0000
1000
0000
0100
0000
0000
0000
,  // measure 48
0001
0000
0100
0000
0010
0000
0000
1000
0000
0000
0001
0000
0101
0000
0000
0000
,  // measure 49
2200
0000
0000
3300
;

//---------------dance-single - ----------------
#NOTES:
     dance-single:
     :
     Beginner:
     1:
     0.114,0.149,0.041,0.000,0.000:
0000
0000
0000
0000
,
0000
0000
0000
0000
,
1000
0000
1000
0000
,
0001
0000
0001
0000
,
0100
0000
0000
0000
,
0010
0000
0010
0000
,
0100
0000
0100
0000
,
0001
0000
0000
0000
,
0100
0000
0000
0000
,
0100
0000
0000
0000
,
1000
0000
0000
0000
,
1000
0000
0000
0000
,
0001
0000
0000
0000
,
0001
0000
0000
0000
,
0010
0000
0000
0000
,
0010
0000
0000
0000
,
1000
0000
0001
0000
,
1000
0000
0001
0000
,
0010
0000
0000
0000
,
0100
0000
0000
0000
,
0100
0000
0010
0000
,
0100
0000
0010
0000
,
1000
0000
0000
0000
,
0010
0000
0000
0000
,
1000
0000
1000
0000
,
0001
0000
0001
0000
,
0010
0000
0010
0000
,
0100
0000
0100
0000
,
0010
0000
1000
0000
,
0001
0000
0100
0000
,
0010
0000
0000
0000
,
0100
0000
0000
0000
,
1000
0000
0100
0000
,
0001
0000
0000
0000
,
0001
0000
0100
0000
,
1000
0000
0000
0000
,
1000
0000
0010
0000
,
0001
0000
0000
0000
,
0001
0000
0010
0000
,
1000
0000
0000
0000
,
0100
0000
0100
0000
,
1001
0000
0010
0000
,
0010
0000
0010
0000
,
0110
0000
1000
0000
,
1000
0000
1000
0000
,
1001
0000
0001
0000
,
0001
0000
0001
0000
,
1001
0000
0010
0000
,
0100
0000
0000
0000
;

//---------------dance-double - ----------------
#NOTES:
     dance-double:
     :
     Hard:
     8:
     0.447,0.454,0.217,0.062,0.155:
00000000
00000000
00000000
00000000
,
00000000
00000000
00000000
00000000
,
00100000
00000000
01000000
00001000
00010000
00000010
00000000
00000000
,
00000010
00000000
00000100
00010000
00001000
01000000
00000000
00000000
,
10010000
00000000
00000000
00000000
01000000
00000000
00000000
00100000
01000000
00000000
00010000
00000000
10000000
00000000
00000000
00000000
,
01000000
00000000
00000000
00000000
00010000
00000000
00000000
00001000
00010000
00000000
00001000
00000000
00100000
00000000
00000000
00000000
,
00010000
00000000
00000000
00000000
01000000
00000000
00000000
00001000
00010000
00000000
00001000
00000000
00010000
00000000
00000000
00000000
,
00000100
00000000
00001001
00000000
00000100
00000001
00001000
00000000
,
00000001
00000100
00001000
00000100
00000000
00000010
00000000
00001000
,
00000001
00000100
00000000
00001000
00000000
00010000
00000000
00001000
,
01000000
00001000
00000000
00010000
00000000
00100000
00000000
10000000
,
01000000
10000000
00000000
01000000
00000000
01000000
00000000
00010000
,
00001000
00010000
00000000
00000010
00000000
00001000
00000000
00000001
,
00000010
00000100
00000000
00000001
00000000
00001000
00000000
00000010
,
00000100
00000001
00001000
00000100
00000100
00000000
00000010
00000000
,
00000001
00000000
00000100
00000000
00001000
00000000
00010000
00000000
01000000
00000000
10000000
00000000
00010000
10000000
00010000
10000000
,
00010000
00000000
00000000
00000000
01000000
00000000
00000000
00100000
00000000
00000000
10000000
00000000
01000000
00000000
00000000
00000000
,
00100000
00000000
00000000
00000000
00011000
00000000
00000000
00001000
00000000
00000000
00000100
00000000
00000010
00000100
00000000
00000000
,
00000001
00000000
00000000
00000000
00000100
00000000
00000000
00000010
00000000
00000000
00001000
00000000
00000100
00000000
00000000
00000000
,
00000001
00000000
00000000
00000000
00001001
00000000
00000000
00000010
00000000
00000000
00000100
00000000
00001000
00010000
00000000
00000000
,
00100000
00000000
00000000
00000000
10000000
00000000
00000000
00010000
00000000
00000000
01000000
00000000
00010000
00000000
00000000
00000000
,
00100000
00000000
00000000
00000000
01001000
00000000
00000000
00010000
00100000
00000000
00010000
00000000
00100000
00010000
00000000
00000000
,
00001000
00000000
00000000
00000000
00000100
00000000
00000000
00000010
00000000
00000000
00000001
00000000
00000100
00000000
00000000
00000000
,
00000010
00000000
00000101
00000000
00001000
00000010
00001000
00000000
,
00000001
00000100
00001000
00000010
00000100
00000001
00000000
00000100
,
00000010
00001000
00010000
01000000
00100000
10000000
00000000
00010000
,
01000000
00100000
01100000
00000000
10000000
01000000
00010000
00000000
,
00001000
00010000
00011000
00000000
00000100
00000010
00000001
00000000
,
00001000
00000010
00000100
00000001
00000010
00001000
00000000
00010000
,
00001000
00100000
00001000
00010000
00100000
01000000
00000000
00010000
,
10000000
01000000
11000000
00000000
01000000
00010000
00001000
00000000
,
00000010
00000001
00000011
00000000
00001000
00000010
00000100
00000000
,
00000001
00000010
00000000
00000000
00000010
00000001
00000000
00000000
00000001
00000000
00000100
00000000
00001000
00000000
00000000
00000000
,
00010000
00001000
00000100
00000000
00000010
00000000
00000110
00000000
,
00001000
00010000
00000000
00000000
00010000
00001000
00000000
00000000
00100000
00000000
00010000
00000000
01000000
00000000
00000000
00000000
,
01000000
10000000
00100000
00000000
00100000
00010000
01000000
00000000
,
00010000
10000000
00000000
00000000
10000000
01000000
00000000
00000000
01000000
00000000
00100000
00000000
00001000
00000000
00000000
00000000
,
00010000
00000100
00000010
00000000
00000001
00000000
00000101
00000000
,
00000010
00001000
00000000
00000000
00001000
00000010
00000000
00000000
00000100
00000000
00001000
00000000
00010000
00000000
00000000
00000000
,
00010000
00001000
00000010
00000000
00000010
00000100
00001000
00000000
,
00000012
00000000
00000000
00000000
00001003
00000000
00000000
00000001
00001000
00000000
00000100
00000000
00010000
00000000
00000000
00000000
,
00012000
00000000
00000000
00000000
00013000
00000000
00000000
01000000
10000000
00000000
00010000
00000000
00100000
00000000
00000000
00000000
,
10020000
00000000
00000000
00000000
00130000
00000000
00000000
00010000
10000000
00000000
00100000
00000000
01000000
00000000
00000000
00000000
,
02010000
00000000
00000000
00000000
03001000
00000000
00000000
00010000
00000100
00000000
00001000
00000000
00000010
00000000
00000000
00000000
,
00000110
00000000
00001000
00000001
00000100
00001000
00010000
00000000
,
00001000
00000000
00000000
00000000
00110000
00000000
00000000
00010000
00100000
00000000
00010000
00000000
10000000
00000000
00000000
00000000
,
01000000
00000000
00000000
00000000
01010000
00000000
00000000
00001000
00010000
00000000
00001000
00000000
00000100
00000000
00000000
00000000
,
00000010
00000000
00000000
00000000
00000101
00000000
00000000
00000100
00001000
00000000
00010000
00000000
00001000
00000000
00000000
00000000
,
00002200
00000000
00000000
00003300
;

//---------------dance-double - ----------------
#NOTES:
     dance-double:
     :
     Medium:
     5:
     0.318,0.303,0.072,0.062,0.047:
00000000
00000000
00000000
00000000
,
00000000
00000000
00000000
00000000
,
00100000
00000000
00010000
00000000
01000000
00001000
00000000
00000000
,
00000010
00000000
00001000
00000000
00000100
00010000
00000000
00000000
,
00001000
00000000
00100000
00000000
00010000
01000000
00010000
00000000
,
10000000
00000000
01000000
00000000
00010000
00001000
00010000
00000000
,
00000010
00000000
00010000
00000000
00000100
00001000
00000100
00000000
,
00001000
00000000
00000010
00000000
00001000
00000001
00001000
00000000
,
00000001
00000010
00000100
00001000
00000000
00000000
00000000
00000000
,
00000010
00000100
00000010
00000000
,
00000100
00010000
00001000
01000000
00000000
00000000
00000000
00000000
,
00010000
00100000
10000000
00000000
,
01000000
00100000
00010000
10000000
00000000
00000000
00000000
00000000
,
00010000
00100000
00001000
00000000
,
00010000
00000100
00001000
00000010
00000000
00000000
00000000
00000000
,
00000001
00000000
00000100
00000000
00000010
00000000
00000100
00000100
,
00000100
00000000
00000000
00000000
00000001
00000000
00000000
00001000
00000000
00000000
00000001
00000000
00000100
00000000
00000000
00000000
,
00001000
00010000
00001000
00100000
,
00010000
00000000
00000000
00000000
01000000
00000000
00000000
00010000
00000000
00000000
10000000
00000000
01000000
00000000
00000000
00000000
,
00100000
10000000
00010000
01000000
,
00001000
00000000
00000000
00000000
00010000
00000000
00000000
00000100
00000000
00000000
00010000
00000000
00001000
00000000
00000000
00000000
,
00000010
00000001
00000100
00001000
,
00010000
00000000
00000000
00000000
01000000
00000000
00000000
10000000
00000000
00000000
00100000
00000000
00010000
00000000
00000000
00000000
,
00001000
00010000
00000100
00000000
00001000
00000010
00010000
00000000
,
00001000
00000100
00000002
00000000
00000100
00000000
00000103
00000000
,
00001000
00000000
00010000
00000000
00001000
00010000
00000000
00000000
,
00010000
00100000
10000000
01000000
,
00001000
00000010
00000001
00000100
,
00010000
01000000
20000000
00000000
00100000
00000000
30100000
00000000
,
00010000
00000000
00001000
00000000
00010000
00001000
00000000
00000000
,
00001000
00000010
00000001
00000100
,
00010000
00100000
10000000
01000000
,
00001000
00000000
00011000
00000000
00000010
00000200
00000000
00000000
,
00000300
00000000
00000001
00000000
00001000
00000001
00001000
00000000
,
00000010
00000000
00011000
00000000
00100000
01000000
00000000
00000000
,
00010000
00000000
10000000
00000000
00100000
10000000
00000000
00000000
,
00100000
00000000
10010000
00000000
01000000
00020000
00000000
00000000
,
00030000
00000000
00001000
00000000
00010000
00000010
00010000
00000000
,
00000100
00000000
00000100
00000000
00000010
00001000
00000000
00000000
,
00000001
00000000
00000010
00000000
00001000
00000001
00000000
00000000
,
00000100
00000000
00001001
00000000
00000010
00001000
00000100
00000000
,
00010000
00000000
00000000
00000000
00001000
00000000
00000000
00010000
00000000
00000000
00001000
00000000
00100000
00000000
00000000
00000000
,
00010000
00000000
11000000
00000000
00010000
10000000
01000000
00000000
,
00010000
00000000
00000000
00000000
01000000
00000000
00000000
10000000
00000000
00000000
00010000
00000000
01000000
00000000
00000000
00000000
,
00001000
00000000
00010100
00000000
00001000
00000010
00000000
00000000
,
00000100
00000000
00000000
00000000
00000001
00000000
00000000
00001000
00000000
00000000
00000001
00000000
00000010
00000000
00000000
00000000
,
00001000
00000000
00000000
00000000
00010000
00000000
00000000
00001000
00000000
00000000
00010000
00000000
00001000
00000000
00000000
00000000
,
00010000
00000000
00000000
00000000
00100000
00000000
00000000
10000000
00000000
00000000
01000000
00000000
00010000
00000000
00000000
00000000
,
02020000
00000000
00000000
03030000
;

//---------------dance-double - ----------------
#NOTES:
     dance-double:
     :
     Easy:
     3:
     0.203,0.278,0.083,0.135,0.000:
00000000
00000000
00000000
00000000
,
00000000
00000000
00000000
00000000
,
00000001
00000010
00000100
00000000
,
00010000
00100000
01000000
00000000
,
00000000
10000000
00000000
00010000
,
10000000
01000000
00100000
00000000
,
00000000
00010000
00000000
00010000
,
00001000
00000100
00000010
00000000
,
00000001
00000000
00000000
00000000
,
00000100
00000000
00000000
00000000
,
00001000
00000000
00000000
00000000
,
00010000
00000000
00000000
00000000
,
01000000
00000000
00000000
01000000
,
10010000
00000000
00000000
00000000
,
00100000
00000000
00000000
00000000
,
00010000
00000000
00000000
00011000
,
00011000
00000000
00000100
00000010
,
00000001
00000000
00000001
00000000
,
00000010
00000100
00001000
00010000
,
01000000
00000000
10000000
01000000
,
10000000
00010000
00100000
00000000
,
00100000
00000000
00010000
00100000
,
00200000
00300000
02000000
03000000
,
00010000
01000000
01010000
00000000
,
00001000
00000000
00000100
00000000
,
00000001
00001000
00000010
00000100
,
00001000
00000000
01000000
00000000
,
00010000
00000000
00000100
00000000
,
00010000
00000000
00100000
00000000
,
10000000
01000000
00100000
01000000
,
00010000
00000000
00000100
00000000
,
00001000
00000000
01000000
00000000
,
00010000
00100000
20020000
00000000
,
30030000
00000000
00010000
00001000
,
00000010
00000100
00002002
00003003
,
00000100
00000100
00000200
00000300
,
00001000
00000010
00002002
00000000
,
00003003
00000000
00000010
00001000
,
00010000
00100000
20020000
30030000
,
01000000
01000000
02000000
03000000
,
00010000
00000000
00010000
01000000
,
00010000
00000000
00001000
01000000
,
00001000
00000000
00010000
00000010
,
00010000
00000000
00000100
00000001
,
00000100
00000000
00001000
00010000
,
00001000
00000000
00100000
00010000
,
00100000
00000000
10000000
01000000
,
00010000
00000000
00001000
00010000
,
00000200
00000000
00000000
00000300
;
