#TITLE:MERMAID;
#SUBTITLE:(Delaction Remix);
#ARTIST:TSUKASA;
#TITLETRANSLIT:;
#SUBTITLETRANSLIT:;
#ARTISTTRANSLIT:;
#CREDIT:;
#BANNER:MERMAID (Delaction Remix).png;
#BACKGROUND:MERMAID (Delaction Remix)-bg.png;
#LYRICSPATH:;
#CDTITLE:Hime Trance 2.png;
#MUSIC:MERMAID (Delaction Remix) - TSUKASA.mp3;
#OFFSET:-6.680;
#SAMPLESTART:23.182;
#SAMPLELENGTH:12.000;
#SELECTABLE:YES;
#BPMS:0.000=145.000;
#STOPS:;
#BGCHANGES:;

//---------------dance-single - ----------------
#NOTES:
     dance-single:
     :
     Hard:
     9:
     0.656,0.666,0.023,0.000,0.629: // measure 1
1001
0000
0000
0000
1000
0100
1000
0000
,  // measure 2
0001
0000
0001
0000
0100
0010
1000
0000
,  // measure 3
0001
0000
0100
0010
0100
0010
0100
0000
0001
0000
1000
0010
1000
0010
1000
0000
,  // measure 4
0001
0100
0000
0100
0010
0000
0010
1000
0000
0001
0100
0001
0100
0000
0000
0000
,  // measure 5
0000
0010
1000
0010
1000
0000
0000
0000
0000
0001
0100
0001
0100
0000
0000
0000
,  // measure 6
0000
0010
1000
0000
0000
1000
0010
0000
0000
0010
0100
0000
0000
0001
1000
0000
,  // measure 7
0100
0010
0100
0010
0001
0100
0010
1000
,  // measure 8
0100
1000
0001
0010
0001
0100
0010
1000
,  // measure 9
0100
0010
0100
0010
0100
0010
0100
0010
0100
0010
0100
0010
0100
0010
0100
0010
,  // measure 10
0100
0000
0000
0000
,  // measure 11
1000
0000
0010
0100
0000
0100
0001
0000
0010
0000
0010
0000
0010
0000
0001
0000
,  // measure 12
1000
0100
1000
0100
1000
0000
0010
0000
0100
0000
0100
0000
0100
0000
0000
0000
,  // measure 13
0001
0000
1000
0010
1000
0010
1000
0000
0001
0100
0001
0000
0001
0000
0000
0000
,  // measure 14
1000
0100
1000
0000
0010
0000
1000
0100
1000
0000
0010
0000
0010
0000
0000
0000
,  // measure 15
1000
0000
0100
0010
0000
0010
0001
0000
0100
0000
0100
0000
0100
0000
0010
0000
,  // measure 16
1000
0100
1000
0100
1000
0000
0001
0000
0010
0000
0010
0000
0010
0000
0000
0000
,  // measure 17
0001
0000
0100
0010
0100
0010
0100
0000
0001
0000
0010
0100
0010
0100
0010
0000
,  // measure 18
0001
1000
0000
1000
0100
0000
1000
0010
0000
0100
0001
0100
0001
0000
0000
0000
,  // measure 19
0010
0000
0001
0100
0000
0100
0010
0000
1000
0000
1000
0000
1000
0000
0001
0000
,  // measure 20
0100
0010
0100
0010
0100
0000
0001
0000
0010
0000
0010
0000
0010
0000
0000
0000
,  // measure 21
0001
0000
1000
0100
1000
0100
1000
0000
0001
0010
0001
0000
0001
0000
0000
0000
,  // measure 22
1000
0010
1000
0000
0100
0000
1000
0010
1000
0000
0100
0000
0100
0000
0000
0000
,  // measure 23
1000
0000
0010
0100
0000
0100
0001
0000
0010
0000
0010
0000
0010
0000
0001
0000
,  // measure 24
1000
0100
1000
0100
1000
0000
0010
0000
0100
0000
0100
0000
0100
0000
0000
0000
,  // measure 25
0001
0000
1000
0100
1000
0100
1000
0000
0001
0000
0100
0010
0100
0010
0100
0000
,  // measure 26
0001
1000
0000
1000
0100
0000
0010
0001
0000
0100
0010
0100
0010
0000
0000
0000
,  // measure 27
1000
0000
0100
0000
1000
0000
0010
0000
0100
0000
0000
0001
0000
0001
0010
0000
,  // measure 28
0001
0000
0100
0000
0010
0000
1000
0000
0100
0000
0000
1000
0000
1000
0010
0000
,  // measure 29
0100
0000
0001
0000
0010
0000
0100
0000
1000
0000
0000
0010
0000
0010
0100
0000
,  // measure 30
0001
0000
1000
0000
0100
0000
1000
0010
1000
0000
0100
0000
1000
0000
0000
0000
,  // measure 31
0001
0000
0100
0000
0001
0000
0010
0000
0001
0000
0000
0100
0000
0010
1000
0010
,  // measure 32
1000
0000
0001
0000
0100
0000
0010
0000
1000
0000
0000
0100
0000
0010
0001
0010
,  // measure 33
0001
0000
0100
0000
0010
0000
1000
0000
0100
0000
0000
1000
0000
0000
0100
0000
,  // measure 34
0010
0001
0100
0010
1000
1000
1000
0000
,  // measure 35
0001
0001
0001
0000
0100
0100
0100
0000
,  // measure 36
0001
0001
0100
0100
1000
1000
0010
0000
,  // measure 37
0101
0000
0000
0000
,  // measure 38
0000
0000
0000
0000
,  // measure 39
0100
0000
0010
1000
0000
1000
0100
0000
0010
0000
0010
0000
0010
0000
0001
0000
,  // measure 40
1000
0100
1000
0100
1000
0000
0010
0000
0100
0000
0100
0000
0100
0000
0000
0000
,  // measure 41
0010
0000
1000
0001
1000
0001
1000
0000
0001
0100
0001
0000
0010
0000
0000
0000
,  // measure 42
0001
0100
0001
0000
0010
0000
0001
0100
0001
0000
0001
0000
0001
0000
0000
0000
,  // measure 43
1000
0000
0100
0010
0000
0010
0001
0000
0100
0000
0100
0000
0100
0000
0010
0000
,  // measure 44
1000
0100
1000
0100
1000
0000
0001
0000
0010
0000
0010
0000
0010
0000
0000
0000
,  // measure 45
0001
0000
0100
0010
0100
0010
0100
0010
0100
0000
0001
1000
0001
1000
0001
0000
,  // measure 46
0100
0010
0000
0010
1000
0000
0100
1000
0000
0001
0010
0001
0010
0000
0001
0000
,  // measure 47
0001
0100
0000
0100
0010
0000
1000
0100
0000
1000
0010
1000
0010
0000
0100
0000
,  // measure 48
0001
0000
0000
0000
;

//---------------dance-single - ----------------
#NOTES:
     dance-single:
     :
     Easy:
     3:
     0.274,0.293,0.125,0.204,0.000:
0001
0000
0000
0000
,
0100
0100
0000
0000
,
0020
0030
2000
3000
,
0001
0001
0100
0000
,
0010
0010
1000
1000
,
0001
1000
0100
1000
,
0010
0010
0010
0010
,
0010
0100
0100
0100
,
0002
0000
0000
0000
,
1003
0000
0000
0000
,
0110
1000
0001
0001
,
1000
0000
1000
0000
,
0110
0000
0001
0001
,
1000
0000
0001
0010
,
1001
0100
1000
0000
,
0100
0001
1001
0010
,
0200
0300
0200
0300
,
0010
0010
1000
1000
,
0110
0001
1000
0000
,
0100
0100
1000
0000
,
1001
0000
0010
0000
,
0100
0001
0010
0010
,
1100
0001
0100
0000
,
0010
0010
1000
0000
,
0200
0300
2000
3000
,
0001
0001
1000
0100
,
2000
3000
0001
0010
,
0002
0003
1000
0100
,
2000
3000
0002
0003
,
1000
0100
1000
1000
,
0002
0103
0010
0010
,
2000
3100
1000
1000
,
0020
0130
0001
0001
,
0010
0100
0001
0000
,
1000
0000
0100
0000
,
1000
0100
0001
0010
,
1000
0000
0000
0000
,
0000
0000
0000
0000
,
1001
0010
0100
0000
,
0001
0001
2000
3100
,
1001
0000
0001
0001
,
1100
0000
0001
0010
,
1001
0010
0100
0100
,
0002
0003
1000
0100
,
2000
3000
0200
0300
,
1000
1000
0001
0100
,
0010
0010
1000
0100
,
1000
0000
0000
0000
;

//---------------dance-single - Copied from----------------
#NOTES:
     dance-single:
     Copied from:
     Medium:
     6:
     0.408,0.453,0.091,0.011,0.113:
1001
0001
0000
0000
,
1100
0100
0000
0000
,
1000
0100
1000
0000
0001
0010
0001
0000
,
1000
0000
0000
0100
0000
0000
1000
0000
0000
0010
0000
0000
0100
0000
0000
0000
,
0000
0001
0000
0000
0000
0100
0000
0000
,
0000
0010
0000
1000
0000
0100
0000
1000
,
0100
0100
0100
0100
0100
0100
0100
0100
,
1000
0010
0100
0001
1000
0100
1000
0010
,
0200
0000
0000
0000
,
0301
0000
0000
0000
,
1000
0000
0000
0100
0000
0000
1000
0000
0010
0000
1000
0000
0010
0000
0000
0000
,
0100
0001
0100
0000
0010
0000
0010
0000
,
1000
0100
1000
0000
0001
0100
0001
0000
,
1000
0100
1000
0000
0010
0100
0001
0000
,
1000
0000
0000
0100
0000
0000
1000
0000
0001
0000
0010
0000
0001
0000
0100
0000
,
0010
0010
0100
0001
1000
0000
1000
0000
,
0100
0010
1000
0000
0100
0010
1000
0000
,
0001
0000
0000
1000
0000
0000
0100
0000
0000
1000
0000
0000
0001
0000
0000
0000
,
1000
0000
0000
0100
0000
0000
0010
0000
0100
0000
1000
0000
0001
0000
0000
0000
,
0001
0100
0010
0000
0001
0100
0001
0000
,
1000
0000
1000
0000
0100
0010
1000
0000
,
0001
0100
0010
0000
1000
0000
1000
0000
,
0001
0000
0000
0100
0000
0000
0010
0000
1000
0000
0100
0000
1000
0000
0001
0000
,
0100
0100
0010
0000
1000
0100
0001
0000
,
0100
0000
0100
0000
,
1001
0000
0000
0001
0000
0000
1000
0000
0000
0100
0000
0000
1010
0000
0000
0000
,
0001
0000
0000
0000
0001
0000
0000
0000
1000
0000
0000
1000
0000
0000
1000
0000
,
0100
0000
1000
0000
0010
0000
0000
0000
0100
0000
0000
0100
0000
0000
0100
0000
,
0001
0000
0000
0000
0001
0000
0000
0000
1000
0000
0000
1000
0000
0000
1000
0000
,
0100
0010
1000
0000
0001
0100
0001
0000
,
1000
0000
0000
0000
1000
0000
0000
0000
0100
0000
0000
0100
0000
0000
0100
0000
,
1000
0000
0010
0000
1000
0000
0000
0000
0001
0000
0000
0001
0000
0000
0001
0000
,
0100
0010
1000
0000
0001
0000
0001
0000
,
0100
0010
1000
0000
0100
0100
0100
0000
,
1000
1000
1000
0000
0010
0010
0010
0000
,
0100
0100
0001
0001
1000
1000
0100
0000
,
1000
0000
0000
0000
,
0000
0000
0000
0000
,
0001
0000
0000
0100
0000
0000
0010
0000
1000
0000
0100
0000
1000
0000
0000
0000
,
0001
0100
0001
0000
1000
1000
0100
0000
,
1000
0000
1000
0000
0001
0100
0010
0000
,
1000
0000
0000
0000
0100
0000
1000
0100
1000
0000
0010
0000
0100
0000
0000
0000
,
0001
0000
0000
0001
0000
0000
1000
0000
0100
0000
0010
0000
0100
0000
1000
0000
,
0001
0001
0100
0010
1000
0000
1000
0000
,
0001
0100
0010
0000
0001
0100
0010
0000
,
1000
0000
0000
1100
0000
0000
1010
0000
0001
0000
0100
0000
0010
0000
1000
0000
,
0001
0000
0000
0101
0000
0000
0110
0000
1000
0000
0100
0000
1000
0000
0000
0000
,
0001
0000
0000
0000
;
