#TITLE:MAMBO NO. SEX;
#SUBTITLE:;
#ARTIST:E-ROTIC;
#TITLETRANSLIT:;
#SUBTITLETRANSLIT:;
#ARTISTTRANSLIT:;
#CREDIT:;
#BANNER:MAMBO NO. SEX.png;
#BACKGROUND:MAMBO NO. SEX-bg.png;
#LYRICSPATH:;
#CDTITLE:DANCE MANIA BASS 6.PNG;
#MUSIC:MAMBO NO. SEX.mp3;
#OFFSET:-0.028;
#SAMPLESTART:38.560;
#SAMPLELENGTH:12.000;
#SELECTABLE:YES;
#BPMS:0.000=87.004;
#STOPS:;
#BGCHANGES:;

//---------------dance-single - BASIC----------------
#NOTES:
     dance-single:
     BASIC:
     Easy:
     4:
     0.283,0.251,0.043,0.182,0.000:
0000
0000
0000
0000
,
0000
0000
0000
0000
,
0010
0010
0000
0000
0200
0000
0320
0000
,
0130
0100
0100
0000
0001
1000
0001
1000
,
0010
0010
0000
0000
2000
0000
3002
0000
,
0103
0100
0100
0000
1001
0000
0000
0000
,
0010
0010
0010
0000
1000
1000
1000
0000
,
0001
0001
0001
0000
0100
0100
0100
0000
,
0010
0000
1000
0000
0001
1000
0001
0000
,
0100
0000
0010
0000
1000
0100
1000
0000
,
0001
0000
0001
0000
1000
0001
0100
0010
,
1000
0100
0100
0010
,
0010
0000
1000
0000
1000
1000
0001
0001
,
0100
0000
0001
1000
0001
1000
0001
0000
,
0200
0000
0310
0000
1000
0100
1000
0100
,
1000
0000
0001
0000
0100
0100
0100
0000
,
0002
0000
0013
0000
0001
1000
0001
1000
,
0002
0103
0010
0000
,
0000
1000
0001
0000
0100
0010
0100
0010
,
0200
0000
0310
0000
1000
1000
0001
0001
,
0200
0000
0310
0000
1000
0001
1000
0001
,
2000
3100
1001
0000
,
0010
0010
1000
1000
,
0001
0010
0001
0010
0001
0000
0000
0000
,
0100
0100
0010
0010
,
1000
0000
0001
1000
0001
1000
0001
0000
,
0200
0000
0310
0000
1000
0001
1000
0001
,
2000
0000
3100
0000
0001
0001
0001
0000
,
2000
0000
3010
0000
0100
0001
0100
0001
,
0200
0310
1001
0000
,
0000
1000
0001
0000
0100
0010
0100
0010
,
0200
0000
0310
0000
1000
0001
1000
0001
,
2000
0000
3010
0000
0100
0001
0100
0001
,
0200
0310
1001
0000
;

//---------------dance-single - MANIAC----------------
#NOTES:
     dance-single:
     MANIAC:
     Hard:
     7:
     0.461,0.448,0.844,0.150,0.032:
0000
0000
0000
0000
,
0000
0000
0000
0000
,
1000
1000
0001
0001
1000
1000
0001
0001
,
0200
0000
0310
0000
1000
0001
1001
0010
,
0100
0100
0001
0001
1000
1000
0001
0001
,
0200
0000
0301
1000
0110
0000
0000
0000
,
0010
0100
1001
1001
0100
0010
1001
1001
,
0010
0100
0001
1000
1100
0101
1001
0100
,
0001
1000
0110
0110
1000
0001
0110
0110
,
1000
0100
0010
0001
1001
0110
1001
0000
,
0010
0010
0110
0000
1000
1100
1000
0010
,
0100
0101
0100
0010
1010
0000
0110
1000
,
0001
0000
1000
0000
0001
0101
1100
0101
,
1100
0000
0000
0000
0000
1000
0001
1000
0001
0000
0100
0010
0000
0000
0000
0000
,
1000
1100
0001
0101
1000
1100
0001
0101
,
2002
0000
0000
3003
0000
0100
0001
1000
,
0010
0110
1000
1001
0100
0110
0001
1001
,
0220
0330
1001
0000
,
0010
1010
0100
0101
0010
0011
0100
1100
,
2002
0000
3003
0000
0101
0110
1010
0000
,
1001
1000
1100
0100
0110
0010
0011
0001
,
2002
0000
3003
0000
0110
1001
0110
1001
,
0001
0010
0100
1000
0100
0010
0001
0000
,
1000
0010
0100
0001
0100
0010
1000
0000
,
0001
0010
0100
1000
0100
0010
0001
0000
,
1001
0000
0000
0000
0000
1000
0001
1000
0001
0000
0100
0010
0000
0000
0000
0000
,
1000
1100
0010
0011
1000
1010
0100
0101
,
1001
0000
0010
0010
0100
0100
0010
0000
,
1000
1010
0010
0011
0001
0101
0100
1100
,
1001
0000
0100
0100
0010
0010
0100
0000
,
0011
0001
0101
0100
0110
0010
1010
1000
,
2002
0000
3003
0000
0110
1001
0110
0000
,
1010
0010
0110
0100
0101
0001
0011
0110
,
2200
3300
1001
0000
;

//---------------dance-single - TRICK----------------
#NOTES:
     dance-single:
     TRICK:
     Medium:
     6:
     0.365,0.322,0.342,0.107,0.000: // measure 1
0000
0000
0000
0000
,  // measure 2
0000
0000
0000
0000
,  // measure 3
1000
0100
1100
0000
0001
0100
0101
0000
,  // measure 4
1000
1000
0001
0001
1000
1000
0001
0001
,  // measure 5
0100
0010
0110
0000
1000
0001
1001
0000
,  // measure 6
0100
0100
0100
0100
2002
0000
3003
0000
,  // measure 7
0010
1000
1000
1000
0001
0100
0100
0100
,  // measure 8
0001
0001
1000
1000
0010
0010
0100
0100
,  // measure 9
0101
0000
1100
0000
0010
0010
0010
0010
,  // measure 10
0020
0000
1030
0000
0100
0100
0100
0100
,  // measure 11
0200
0000
1300
0000
0001
1001
1000
0000
,  // measure 12
0010
0000
0100
0100
0110
0000
1001
0000
,  // measure 13
0100
0000
0100
0000
0100
0010
0020
0000
,  // measure 14
0130
0000
0100
0010
0110
0000
1001
0000
,  // measure 15
0010
0010
0100
0100
1000
1000
0001
0001
,  // measure 16
1001
1001
0020
0130
,  // measure 17
1000
1000
0100
0100
0010
0010
0001
0001
,  // measure 18
1001
0110
0002
0103
,  // measure 19
0010
0010
1000
1000
0100
0100
0010
0010
,  // measure 20
0110
0000
1001
0000
0010
0100
0010
0000
,  // measure 21
1000
1000
0001
0001
0100
0100
0010
0010
,  // measure 22
1010
0101
0020
0130
,  // measure 23
0001
1000
0001
1000
0001
1000
0001
1000
,  // measure 24
0010
0100
0010
0100
0010
0000
0000
0000
,  // measure 25
1000
0001
1000
0001
1000
0001
1000
0001
,  // measure 26
0200
0000
0310
0100
0110
0000
1001
0000
,  // measure 27
0010
0010
1000
1000
0100
0100
1000
1000
,  // measure 28
0101
1100
0020
0130
,  // measure 29
0001
0001
0010
0010
0100
0100
1000
1000
,  // measure 30
0110
0000
1001
0000
0010
0100
0010
0000
,  // measure 31
1000
1000
0001
0001
0010
0010
0100
0100
,  // measure 32
1001
0000
0110
0000
0001
1001
1000
0000
,  // measure 33
0010
0010
0100
0100
0001
0001
1000
1000
,  // measure 34
0101
1010
1001
0000
;

//---------------dance-single - BEGINNER----------------
#NOTES:
     dance-single:
     BEGINNER:
     Beginner:
     1:
     0.136,0.125,0.043,0.000,0.000:
0000
0000
0000
0000
,
0000
0000
0000
0000
,
0010
0000
0100
0100
,
0100
0000
0001
0001
,
0001
0000
1000
1000
,
1000
0000
1001
0000
,
0010
0000
1000
0000
,
0001
0000
0100
0000
,
0010
0000
0001
0000
,
0100
0000
1000
0000
,
0001
0000
1000
1000
,
1000
0000
0100
0000
,
0010
0000
1000
1000
,
1000
0000
0001
0001
,
0001
0000
1000
1000
,
1000
0000
0100
0000
,
0001
0000
0001
0001
,
0001
0000
0010
0000
,
0001
0000
0100
0100
,
0100
0000
1000
1000
,
1000
0000
0001
0001
,
0001
0000
0110
0000
,
0010
0010
0010
0000
,
0010
0010
0010
0000
,
0100
0100
0100
0000
,
1000
0000
0100
0100
,
0100
0000
1000
1000
,
1000
0000
0001
0001
,
0001
0000
0100
0100
,
0100
0000
1001
0000
,
1000
0000
0100
0100
,
0100
0000
1000
1000
,
1000
0000
0100
0100
,
0100
0000
1001
0000
;

//---------------dance-double - MANIAC----------------
#NOTES:
     dance-double:
     MANIAC:
     Hard:
     8:
     0.370,0.394,0.160,0.000,0.112:
00000000
00000000
00000000
00000000
,
00000000
00000000
00000000
00000000
,
00010000
00000000
00000000
00000000
10000000
00000000
00000000
00100000
00000000
00100000
00000000
00100000
01000000
00000000
00000000
00000000
,
00010000
00000000
10000000
00000000
01000000
00001000
00010000
00000100
,
00001000
00000000
00000000
00000000
00000001
00000000
00000000
00000010
00000000
00000010
00000000
00000010
00000100
00000000
00000000
00000000
,
00001000
00000000
00000001
00000000
00000110
00001000
00010000
00001000
,
00100000
00100000
10000000
10000000
01000000
01000000
00010000
00010000
,
00100000
00100000
00001000
00001000
00000100
00000100
00000001
00000001
,
00000101
00000100
00000110
00000010
00001010
00001000
00001100
00000100
,
00010100
00010000
00001000
01000000
00010000
10000000
01000000
00001000
,
00000100
00001000
01000000
10000000
00010000
00001000
00000010
00000001
,
00000110
00000000
00001100
00000001
00000100
00000100
00001000
00100000
,
10000000
00100000
00001000
00010000
00000100
00000001
00000100
00010000
,
00011000
00000000
00000000
00000000
00000000
00010000
00001000
00010000
00001000
00000000
00010000
00001000
00000000
00000000
00000000
00000000
,
00010000
01000000
00001000
00000100
00010000
00001000
00000100
00000001
,
00001000
00010000
01000000
00010000
00100000
00001000
00000100
00000000
,
00000001
00001000
00010000
01000000
00100000
10000000
00010000
01000000
,
00001000
00000100
00000001
00001000
00000100
00000000
00010000
00000000
,
00011000
00100000
01000000
10000000
00010000
00001000
00000010
00000100
,
00000001
00001000
00000100
00010000
01000000
00000000
11000000
00000000
,
00100000
01000000
00010000
10000000
00010000
00000100
00000001
00001000
,
01000000
10000000
00010000
01000000
01100000
00000000
00000000
00000000
,
00010000
00000000
10000000
00000000
00010000
00000000
00000000
10000000
00000000
00010000
00000000
10000000
00010000
00000000
00000000
00000000
,
00001000
00000000
00000001
00000000
00001000
00000000
00000000
00000001
00000000
00001000
00000000
00000001
00001000
00000000
00000000
00000000
,
01000000
00000000
10000000
00000000
01000000
00000000
00000000
10000000
00000000
01000000
00000000
10000000
00010000
00000000
00000000
00000000
,
00000100
00000000
00000001
00000000
00000000
00001000
00000100
00001000
00000100
00000000
00010000
00001000
00000000
00000000
00000000
00000000
,
01000000
00010000
10000000
00010000
00001000
00000100
00000001
00001000
,
00000100
00000010
00000001
00001000
00010000
01000000
00100000
00000000
,
00010000
00100000
10000000
00100000
00010000
00001000
00000100
00000001
,
00001000
01000000
00100000
00010000
00000100
00000000
00000001
00000000
,
00000110
00001000
01000000
10000000
00010000
01000000
00001000
00000010
,
00000001
00001000
00100000
01000000
00010000
00000000
11000000
00000000
,
00010000
01000000
00010000
00000100
00000010
00001000
00100000
10000000
,
01000000
00001000
00000100
00010000
00011000
00000000
00000000
00000000
;

//---------------dance-double - TRICK----------------
#NOTES:
     dance-double:
     TRICK:
     Medium:
     6:
     0.339,0.358,0.150,0.128,0.032:
00000000
00000000
00000000
00000000
,
00000000
00000000
00000000
00000000
,
00010000
00000000
10000000
00000000
00010000
10000000
01000000
00100000
,
00010000
00000000
10000000
00000000
01000000
00010000
00001000
00000100
,
00000001
00000000
00001000
00000000
00000010
00000100
00000001
00001000
,
00000100
00000000
00000001
00000000
00000110
00000000
00010000
00001000
,
00100000
00000000
00010000
10000000
01000000
00000000
00010000
01000000
,
00100000
00000000
00100000
00001000
00010000
00000100
00000100
00000000
,
00000110
00000110
00000110
00000000
00001001
00001001
00001001
00000000
,
00000010
00010000
00001000
01000000
00010000
10000000
01000000
00000000
,
10000000
01000000
00010000
00001000
00010000
00001000
00000010
00000000
,
00001010
00000000
00000011
00000000
00000100
00000100
00001000
00000000
,
00010000
00100000
00010000
00000000
00001000
00000100
00001000
00000000
,
00011000
00000000
00000000
00000000
00000000
00010000
00001000
00010000
00001000
00000000
00010000
00001000
00000000
00000000
00000000
00000000
,
00020000
00000000
00032000
00000000
00013000
00001000
00000100
00000001
,
00000100
00001000
00010000
00100000
10000000
00100000
00010000
00000000
,
20000000
00000000
30020000
00000000
01030000
00100000
10000000
01000000
,
00100000
00001000
00010000
00000100
00000010
00000000
00000001
00000000
,
00000100
00000010
00001000
00000000
00000100
00010000
00001000
00100000
,
00010000
01000000
00100000
00000000
01000000
00000000
10010000
00000000
,
00200000
00000000
20300000
00000000
30010000
00100000
00001000
00010000
,
00000100
00000010
00000001
00000000
00000101
00000000
00000000
00000000
,
00000001
00000001
00000001
00000001
00000001
00000001
00000001
00000000
,
00001000
00001000
00001000
00001000
00001000
00001000
00001000
00000000
,
00010000
00010000
00010000
00010000
00010000
00010000
00010000
00000000
,
00011000
00000000
00000000
00000000
00000000
00001000
00010000
00001000
00010000
00000000
00001000
00010000
00000000
00000000
00000000
00000000
,
00002000
00000000
00023000
00000000
01030000
10000000
01000000
00010000
,
00001000
00000100
00000001
00000100
00001000
00010000
00001000
00000000
,
00020000
00000000
00032000
00000000
00013000
00000010
00001000
00000100
,
00010000
00001000
01000000
00010000
00100000
00000000
00001000
00000000
,
01000000
00010000
10000000
00000000
00010000
01000000
00001000
00010000
,
00000010
00001000
00000001
00000100
00000010
00000000
00000110
00000000
,
00000002
00000000
00002003
00000000
00003010
00001000
00000001
00000100
,
00001000
00010000
01000000
00000000
10000000
00000000
00000000
00000000
;

//---------------dance-double - BASIC----------------
#NOTES:
     dance-double:
     BASIC:
     Easy:
     2:
     0.160,0.161,0.053,0.000,0.000:
00000000
00000000
00000000
00000000
,
00000000
00000000
00000000
00000000
,
00010000
00000000
10000000
00010000
,
01000000
00000000
00000000
00000000
,
00010000
00000000
00001000
00000100
,
00000001
00000000
00000110
00000000
,
00001000
00010000
00001000
00010000
,
00000100
00001000
00000100
00001000
,
00000010
00000100
00000001
00001000
,
00000100
00010000
00001000
01000000
,
00100000
10000000
01000000
00010000
,
00001000
00010000
00001000
00000000
,
00000100
00000100
00000100
00000100
,
00000100
00000000
00000100
00001001
,
00000010
00000000
00000010
00000000
,
00001000
00000001
00000100
00001000
,
00010000
00000000
00010000
00000000
,
01000000
10000000
00100000
01000000
,
01000000
00000000
01000000
00000000
,
10000000
00010000
01000000
00100000
,
10000000
00000000
10000000
00000000
,
01000000
00010000
00011000
00000000
,
00001000
00000100
00001000
00000100
,
00010000
00001000
00010000
00001000
,
00100000
00010000
00100000
00010000
,
01000000
00001000
00011000
00000000
,
01000000
00000000
00010000
00000000
,
10000000
00010000
00100000
00001000
,
00010000
00000000
00010000
00000000
,
00000010
00000100
00000001
00000100
,
00001000
00000000
00001000
00000000
,
00010000
00100000
10000000
01000000
,
01000000
00000000
01000000
00000000
,
00010000
00001000
00011000
00000000
;
