#TITLE:MAGIC OF THE MOON;
#SUBTITLE:(2005 EXTENDED);
#ARTIST:T.A.K.;
#TITLETRANSLIT:;
#SUBTITLETRANSLIT:;
#ARTISTTRANSLIT:;
#CREDIT:;
#BANNER:MAGIC OF THE MOON (2005 EXTENDED)-bn.png;
#BACKGROUND:MAGIC OF THE MOON (2005 EXTENDED)-bg.png;
#LYRICSPATH:;
#CDTITLE:muzie.png;
#MUSIC:MAGIC OF THE MOON (2005 EXTENDED).mp3;
#OFFSET:-0.040;
#SAMPLESTART:35.748;
#SAMPLELENGTH:16.820;
#SELECTABLE:YES;
#BPMS:0.000=72.500,16.000=145.000,232.000=72.500;
#STOPS:;
#BGCHANGES:;

//---------------dance-single - EXORBITANT----------------
#NOTES:
     dance-single:
     EXORBITANT:
     Hard:
     8:
     0.491,0.544,0.194,0.000,0.245: // measure 1
0000
0000
0000
0000
,  // measure 2
0000
0000
0000
0000
,  // measure 3
0000
0000
0000
0000
,  // measure 4
0000
0000
0000
0000
0000
0000
0000
0000
0000
0000
0000
0000
0000
1000
0100
0010
,  // measure 5
0001
0000
0000
0000
,  // measure 6
0000
0000
0000
0000
,  // measure 7
0001
0100
0001
0100
0010
1000
0010
1000
,  // measure 8
0000
0001
0000
1000
0100
1000
0100
0010
,  // measure 9
0001
0001
0010
0100
,  // measure 10
1000
0000
1000
0000
0010
0000
1000
0100
,  // measure 11
0010
0000
0000
0001
0000
0000
0100
0000
0010
0000
1000
0000
0001
0000
0100
0000
,  // measure 12
0010
0000
0000
0000
,  // measure 13
0001
0010
0001
0010
0100
1000
0010
0000
,  // measure 14
0100
0001
0100
0001
0010
0010
0100
0100
,  // measure 15
1000
0001
0010
0001
1000
0001
0010
0001
,  // measure 16
1000
0000
0100
0000
0001
0100
1000
0010
,  // measure 17
1001
0000
0000
0000
0110
0000
0000
1001
,  // measure 18
0000
0000
0000
0000
0000
1000
0010
1000
,  // measure 19
0001
0100
0001
0100
0001
0100
0010
1000
,  // measure 20
0100
0100
0100
0100
0100
0000
1000
0100
,  // measure 21
0010
0000
0001
0000
0100
0001
0000
0010
0000
0001
0100
0000
0001
0000
0010
0000
,  // measure 22
0100
1000
0000
0100
1000
0000
0001
0010
0001
0000
1000
0000
0001
0100
0000
0000
,  // measure 23
1000
0100
1000
0100
1000
0100
0010
0001
,  // measure 24
0100
0100
0100
0100
0100
0000
0010
1000
,  // measure 25
0001
0000
1000
0000
0010
1000
0000
0100
0000
1000
0010
0000
1000
0000
0100
0000
,  // measure 26
0000
0010
0000
0000
0100
0000
1000
0100
0000
0010
0001
0010
0000
1001
0000
0000
,  // measure 27
0010
0000
0000
1000
0000
0000
0010
0000
0100
0000
0000
0000
1001
0000
0000
0000
,  // measure 28
0010
0000
0000
1000
0000
0000
0100
0000
0010
0000
0000
0000
1000
0000
0001
0000
,  // measure 29
0010
0000
0000
0100
0000
0000
0010
0000
0000
0001
0000
0000
0100
0000
0001
0000
,  // measure 30
0010
0100
1000
0010
,  // measure 31
1001
0000
0000
0010
0000
0000
0001
0000
0100
0000
0000
0000
0010
0000
0000
0000
,  // measure 32
1000
0000
0000
0001
0000
0000
1000
0000
0010
0000
0100
0000
0001
0000
0010
0000
,  // measure 33
0001
0000
0000
1000
0000
0000
0001
0000
0100
0000
0000
0000
1010
0000
0000
0000
,  // measure 34
0110
0000
0000
0000
,  // measure 35
1000
0000
0000
0000
1000
0000
0000
0001
0000
0010
0001
0000
0000
0000
0000
0000
,  // measure 36
0010
0001
0010
0001
1000
0000
0101
0000
,  // measure 37
1000
0000
0000
0011
0000
0000
0100
0000
0000
0000
0000
0000
1001
0000
0000
0000
,  // measure 38
0001
0000
0100
0000
0010
1000
0100
0000
,  // measure 39
0001
0000
0000
0000
0001
0000
0000
1000
0000
0010
1000
0000
0000
0000
0000
0000
,  // measure 40
0010
1000
0010
1000
0001
0000
0011
0000
,  // measure 41
0100
1000
0100
1000
0000
0010
0000
0100
,  // measure 42
0001
0010
0100
1000
0010
0000
1001
0000
,  // measure 43
0000
0100
0001
0100
0010
0000
1000
0000
,  // measure 44
0100
1000
0010
1000
0100
0010
1100
0000
,  // measure 45
1001
0000
0000
0101
0000
0000
1001
0000
0000
1100
0000
0000
1000
0000
0001
0000
,  // measure 46
0010
0100
0010
0100
0001
0100
0001
0100
,  // measure 47
1000
0001
1000
0100
0010
0000
0001
0000
,  // measure 48
0100
0001
0010
0001
0100
0010
0101
0000
,  // measure 49
1001
0000
0101
0000
0000
0010
0001
0010
,  // measure 50
0000
1000
0100
1000
0010
0100
0001
0010
,  // measure 51
0001
1000
0001
1000
0001
1000
0001
1000
,  // measure 52
0100
0100
0100
0100
0100
0000
0010
0001
,  // measure 53
1000
0000
0010
0000
1000
0100
0000
1000
0000
0010
1000
0000
0100
0000
1000
0000
,  // measure 54
0010
0100
0000
0010
0100
0000
0001
0100
0001
0000
1000
0000
0001
0010
0000
0000
,  // measure 55
1000
0001
1000
0001
1000
0001
1000
0001
,  // measure 56
0100
0100
0100
0100
0100
0000
0010
1000
,  // measure 57
0001
0000
0010
0000
0001
0100
0000
0001
0000
0010
0001
0000
0100
0000
0001
0000
,  // measure 58
0010
0000
0000
0100
0000
1000
0100
0000
0010
0001
0010
0001
1000
0000
0000
0000
,  // measure 59
0010
1000
0001
1000
0010
0100
0001
0000
0010
0001
1000
0100
0010
0010
0001
0001
;

//---------------dance-single - GENUINE----------------
#NOTES:
     dance-single:
     GENUINE:
     Medium:
     6:
     0.339,0.407,0.083,0.000,0.000:
0000
0000
0000
0000
,
0000
0000
0000
0000
,
0000
0000
0000
0000
,
0000
0000
0000
0000
0000
0000
0000
0010
,
1001
0000
0000
0000
,
0000
0000
0000
0000
,
0100
0000
0000
0000
,
0000
1000
0000
1000
0010
1000
0010
0000
,
0100
0001
1000
0010
,
0100
0000
0001
0000
0010
0000
0100
0010
,
0100
1000
0001
0010
,
0001
0000
0000
0000
,
1000
0010
1000
0010
1000
0010
1000
0000
,
1000
0100
1000
0100
0010
0001
0010
0000
,
0001
0100
0001
0100
0010
1000
0010
0000
,
1000
0000
0100
0000
0010
0100
1000
0010
,
1010
0000
0000
0000
1001
0000
0000
1100
,
0000
0000
0000
0000
,
0010
0001
0010
0000
0001
1000
0001
0000
,
1000
0100
1000
0000
0001
0000
1000
0010
,
0100
0001
0010
0010
,
0000
0100
1000
0000
0001
0000
0001
0000
,
0100
0010
0100
0000
0010
0000
1000
0000
,
0100
0010
0100
0000
1000
0000
0100
0010
,
0001
0010
0001
1000
,
0000
0001
0100
0000
0001
1000
0010
0000
,
1000
1000
0100
0000
,
0010
0000
0001
0000
1000
0000
0001
0100
,
0001
0010
0100
1000
,
0010
0010
0010
0010
,
1000
0000
0100
0010
,
0001
0000
0100
0010
,
1000
0001
1000
0100
,
0010
0001
0100
1000
,
0010
0000
0000
0000
0010
0001
1000
0000
,
0010
1000
0001
0000
0010
0100
0010
0000
,
0001
1000
0010
0110
,
0001
0001
1000
0000
0100
0000
0010
0000
,
1100
0000
0000
0000
0100
1000
0100
0000
,
0010
0001
0010
0000
0001
0000
1000
0000
,
0010
1000
0010
1000
0000
1000
0000
1000
,
0100
1000
0100
0000
1001
0000
1001
0000
,
0000
0100
0010
0000
0100
0000
0010
0000
,
0001
0010
0001
0010
0001
0010
0001
0000
,
1000
0000
0000
0100
0000
0000
0010
0000
,
0001
1000
0001
1000
0010
0000
0100
0000
,
0001
0000
1000
0000
,
0100
1000
0100
1000
0010
0000
0000
0000
,
0100
0001
0100
0000
0001
0010
0001
0000
,
0010
0010
0100
0100
1000
1000
1000
0000
,
0001
0100
0001
0000
0100
0010
0100
0000
,
0010
1000
0010
0000
1000
0100
1000
0000
,
0100
0010
0001
1000
,
0000
0010
1000
0000
0100
0100
0100
0000
,
1000
0100
0010
0001
,
0100
0001
0100
0001
0100
0000
0010
0000
,
1000
0100
1000
0000
0001
0010
0001
0000
,
1000
0100
0001
0000
0100
1000
1001
0000
,
0010
1000
0100
0010
;

//---------------dance-single - ----------------
#NOTES:
     dance-single:
     :
     Easy:
     4:
     0.206,0.243,0.037,0.000,0.000:
0000
0000
0000
0000
,
0000
0000
0000
0000
,
0000
0000
0000
0000
,
0000
0000
0000
0000
,
0001
0000
0000
0000
,
0000
0000
0000
0000
,
1000
0000
0000
0000
,
0000
0000
0100
0100
,
0010
0100
0010
0001
,
0100
0100
0010
0000
,
0010
0010
1000
0000
,
0001
0000
0000
0000
,
1000
0100
0100
1000
,
0100
0010
0010
0100
,
0010
0001
0010
0001
,
0100
0000
0000
0000
,
0001
0000
0000
0000
1000
0000
0000
0100
,
0000
0000
0000
0000
,
1000
1000
1000
1000
,
0010
0010
0010
0000
,
0001
0001
0010
0010
,
1000
1000
1000
1000
,
0100
0100
0010
0010
,
0001
0001
0001
0000
,
1000
1000
0010
0010
,
0100
0100
0100
0001
,
0010
0000
0000
0100
,
1000
0000
0000
0010
,
0100
0000
0001
0000
,
0010
0010
0001
0000
,
1000
0000
0000
0100
,
1000
0000
0000
0010
,
0100
0000
0001
0000
,
0010
0000
0000
0000
,
0100
0100
0010
0000
,
0100
1000
0010
0000
,
1000
0100
0010
0001
,
0100
0000
0100
0000
,
0010
0000
0000
1000
,
0001
0000
0000
0010
,
0100
0000
0010
0000
,
0001
0000
1001
0110
,
0000
1000
0100
0010
,
0001
0000
0100
0000
,
0010
0010
1000
1000
,
0001
0010
0001
0100
,
0000
0010
1000
0000
,
0100
0000
0010
0000
,
0001
0000
1000
0000
,
0010
0100
0001
1001
,
1000
1000
1000
1000
,
0001
0010
0010
0010
,
0001
0001
0100
0100
,
1000
1000
0100
0100
,
0001
0001
0001
0010
,
0100
1000
0100
0000
,
0010
0001
1000
0100
,
0010
0000
0001
0000
,
1001
0000
0010
0000
;

//---------------dance-single - ----------------
#NOTES:
     dance-single:
     :
     Beginner:
     1:
     0.157,0.321,0.129,0.000,0.000:
0000
0000
0000
0000
,
0000
0000
0000
0000
,
0000
0000
0000
0000
,
0000
0000
0000
0000
,
1000
0000
0000
0000
,
0000
0000
0000
0000
,
0001
0000
0000
0000
,
0000
0000
0010
0010
,
0010
0000
0000
0000
,
0001
0000
0000
0000
,
0001
0000
1000
1000
,
1000
0000
0000
0000
,
0010
0010
0010
0000
,
0100
0100
0100
0000
,
0001
0000
0000
1000
,
1000
0000
0000
0000
,
1001
0000
1001
0000
,
1001
0000
0000
0000
,
0110
0000
0010
0000
,
0001
0000
0001
0000
,
1000
0000
1000
0000
,
0010
0000
0010
0000
,
0100
0000
0100
0000
,
0001
0000
0001
0000
,
1000
0000
1000
0000
,
0100
0000
0000
0000
,
1001
0000
0000
0000
,
0001
0000
0010
0000
,
0001
0000
0000
0000
,
1000
1000
1000
0000
,
0001
0000
0000
0000
,
0100
0000
0000
0000
,
0010
0000
0010
0010
,
0010
0000
0000
0000
,
1001
0000
1000
0000
,
0001
0000
1000
0000
,
0001
0000
0001
0000
,
0010
0000
0010
0000
,
1001
0000
0001
0000
,
1000
0000
0001
0000
,
1000
0000
1000
0000
,
0010
0000
0110
0110
,
0000
0000
0001
0000
,
1000
1000
1000
1000
,
1000
0000
0000
0000
,
0001
0001
0001
0001
,
0000
0010
0000
0010
,
0000
0100
0000
0100
,
0000
1000
0000
1000
,
1000
1000
1000
0000
,
0001
0000
0001
0000
,
0100
0000
0100
0000
,
0010
0000
0010
0000
,
0000
1000
0000
1000
,
0000
0001
0000
0001
,
0000
0010
0000
0010
,
0000
1000
1000
0000
,
1001
1001
1001
1001
,
1001
0000
0000
0000
;
