#TITLE:ラッキーチャチャチャ!;
#SUBTITLE:;
#ARTIST:ミニモニ。;
#TITLETRANSLIT:Lucky Cha Cha Cha!;
#SUBTITLETRANSLIT:;
#ARTISTTRANSLIT:Minimoni;
#CREDIT:;
#BANNER:Lucky Cha Cha Cha!.png;
#BACKGROUND:Lucky Cha Cha Cha!-bg.png;
#LYRICSPATH:;
#CDTITLE:Hello! Project.png;
#MUSIC:Lucky Cha Cha Cha!.mp3;
#OFFSET:-0.147;
#SAMPLESTART:54.010;
#SAMPLELENGTH:12.000;
#SELECTABLE:YES;
#BPMS:0.000=160.084;
#STOPS:;
#BGCHANGES:0.000=lucky cha cha cha!.avi=1.000=0=0=1
,244.000=lucky cha cha cha!-bg.png=1.000=0=0=1
;

//---------------dance-single - ----------------
#NOTES:
     dance-single:
     :
     Easy:
     3:
     0.258,0.385,0.086,0.043,0.000:
0000
0000
0000
0000
,
0000
0000
0000
0000
,
1000
0000
0001
0001
,
0100
0000
0010
0010
,
1000
0000
0100
0100
,
0001
0000
0000
0000
,
1000
0000
0100
0100
,
0001
0000
0010
0010
,
1000
0000
0100
0100
,
0010
0000
0000
0000
,
0100
0000
0100
0000
,
0000
0010
0010
0000
,
1000
0001
1000
0010
,
0100
0001
1000
0001
,
0100
0010
1000
0001
,
1000
0000
0000
0000
,
0001
0000
0100
0000
,
1000
0000
0100
0000
,
0001
0000
0010
0000
,
0001
0000
0000
0000
,
1000
0000
0100
0000
,
0001
0000
0100
0000
,
0001
0000
0100
0000
,
0010
0010
0010
0010
,
0020
0000
0000
0000
,
2030
0000
0000
0000
,
3001
0010
0001
0100
,
0010
0000
1000
0000
,
0020
0000
0000
0000
,
2030
0000
0000
0000
,
3001
0100
0001
0100
,
0001
0000
1000
0000
,
0001
0010
0001
0010
,
0001
0000
0100
0000
,
0010
0010
0100
0100
,
0001
0000
0000
0000
,
1000
0001
0100
0100
,
0001
1000
0010
0010
,
0100
0010
1000
1000
,
0010
0100
0001
0001
,
1001
0000
0010
0010
,
1001
0000
0100
0010
,
0100
0000
0001
0000
,
1000
0000
0000
0000
,
0010
0000
0010
0000
,
0000
1000
1000
0000
,
1001
0001
0100
0001
,
1001
1000
0100
1000
,
1001
0001
0010
0001
,
1001
1000
0010
1000
,
0001
0001
0100
0010
,
1000
1000
0010
0100
,
0001
0001
0100
0010
,
1000
0000
0000
0000
,
1001
0000
1001
0000
,
0000
0010
0010
0000
,
1000
0001
1000
0010
,
0100
0001
1000
0001
,
0100
0010
1000
0001
,
1000
0000
0000
0000
,
0010
0000
0000
0000
;

//---------------dance-single - ----------------
#NOTES:
     dance-single:
     :
     Medium:
     6:
     0.460,0.522,0.449,0.096,0.011:
0000
0000
0000
0000
,
0000
0000
0000
0000
,
1001
0000
0001
0000
1000
0010
1000
0000
,
0001
0000
0100
0001
0000
0100
0000
0010
,
0000
0100
0001
0000
0001
0100
0001
0100
,
0000
1001
0000
1001
0000
1000
0010
0000
,
1001
0000
1000
0000
0010
0100
0010
0000
,
1000
0000
0001
0100
0000
0010
0000
0100
,
0000
0001
0100
0000
1000
0100
1000
0001
,
0000
0010
0000
0001
0010
0000
0000
0000
,
1000
0000
0100
0000
,
0000
0001
0010
0100
1000
0000
0010
0000
,
1001
0000
1100
0000
1000
0100
0000
1100
,
0000
1000
0001
0000
0001
0010
0000
0001
,
0100
0000
0101
0000
0001
1000
0000
1100
,
0000
1001
0000
1000
0010
0000
0000
0000
,
0100
0001
0001
0010
,
0100
1000
1000
0100
,
0010
0001
0001
0100
,
0010
0000
0000
0000
,
0100
0001
1000
0010
,
1000
0100
0001
0100
,
1000
0010
0100
0001
,
0100
0100
0100
0100
,
0200
0000
0010
0000
,
0302
0000
1000
0000
,
0103
0000
0001
0000
1000
0000
0010
0100
,
0010
1000
0001
0100
,
0020
0000
0100
0000
,
2030
0000
0001
0000
,
3010
0110
0100
0110
,
0010
1000
0001
0100
,
0001
1001
1000
1001
,
0001
0100
1000
0010
,
0200
0302
2003
3020
,
0130
0000
0010
0000
0100
0000
0010
0000
0000
0110
0000
0000
,
1001
0000
1010
0000
1000
0001
1000
0000
,
0011
0000
0001
0100
0000
1000
0000
0010
,
0000
0100
0001
0000
0001
0100
0001
0000
,
0100
0010
0000
1001
0000
1001
0000
0000
,
1100
0000
1001
0000
0010
0100
0010
0000
,
1000
0000
0001
0100
0000
0010
0000
1000
,
0000
0001
0100
0001
1000
0010
0000
0110
,
0000
1010
0000
0001
0100
0000
0000
0000
,
1001
0000
1001
0000
,
0000
0100
0010
0100
0010
0000
0000
0000
,
0110
0000
1001
0000
1000
0001
1000
0000
,
0010
0000
0100
0001
0000
0100
0000
0001
,
0000
1000
0010
0100
0010
1000
0010
0100
,
0000
0001
0000
1000
0001
1000
0001
0000
,
1001
0000
1001
0000
0100
0010
0100
0000
,
0001
0000
1000
0001
0000
0100
0000
0010
,
0000
1000
0100
1000
0100
1000
0100
1000
,
0000
1001
0000
0100
0010
0000
0000
0000
,
1010
0000
0101
0000
,
0000
1000
0100
0010
0100
0000
1100
0000
,
1001
0000
0011
0000
0001
1000
0000
1001
,
0000
1000
0100
0000
0001
0100
0000
1000
,
0010
0000
0011
0000
0100
0001
0000
1001
,
0000
1100
0000
1000
0001
0000
0000
1001
,
0000
0101
0000
0001
2000
0000
0000
0000
,
3000
0000
0000
0000
;

//---------------dance-single - ----------------
#NOTES:
     dance-single:
     :
     Hard:
     7:
     0.539,0.489,0.385,0.150,0.032: // measure 1
0000
0000
0000
0000
,  // measure 2
0000
0000
0000
0000
,  // measure 3
1001
0000
1001
0000
0100
0010
0100
0000
,  // measure 4
0001
0000
1000
0001
0000
0100
0000
0010
,  // measure 5
0000
1000
0001
1000
0010
0100
0010
1000
,  // measure 6
0000
0001
0000
1000
0010
0100
0001
0000
,  // measure 7
1010
0000
0011
0000
1000
0010
0100
0000
,  // measure 8
0001
0000
0100
0010
0000
1000
0000
0001
,  // measure 9
0000
0010
0001
0100
0010
1000
0000
0011
,  // measure 10
0000
1100
0000
0001
0100
0000
0000
0000
,  // measure 11
1000
0000
0001
0000
,  // measure 12
0000
0100
0100
0010
0010
0000
1001
0000
,  // measure 13
0200
0000
0301
0000
0001
2000
0000
3010
,  // measure 14
0000
1000
0001
0000
0100
0010
0000
0100
,  // measure 15
0002
0000
0103
0000
0010
2000
0000
3001
,  // measure 16
0000
1001
0000
1000
1000
0000
0000
0000
,  // measure 17
0010
1000
0100
0001
,  // measure 18
0100
0000
0000
0000
1000
0000
0000
0000
0010
0100
0000
0100
0010
0000
0000
0000
,  // measure 19
1000
0010
0001
0100
,  // measure 20
2000
0000
0000
0000
0000
0000
3010
0100
0010
0000
0000
0000
0100
0010
0100
0000
,  // measure 21
0001
0010
0100
1000
0100
0010
0001
0100
,  // measure 22
0010
1000
0100
0010
0001
0000
0100
0000
,  // measure 23
0010
1000
0001
0000
1000
0001
0100
0000
,  // measure 24
0010
1000
0001
1000
0001
1000
0001
1000
,  // measure 25
0010
0100
0010
2000
0000
3001
0000
0001
,  // measure 26
0010
0001
0100
0020
0000
1030
0000
1000
,  // measure 27
0001
0010
0001
0100
0010
1000
0100
1000
,  // measure 28
0001
0100
0001
0100
,  // measure 29
0001
0000
1000
0200
0000
1300
0000
0010
,  // measure 30
0200
0000
0301
1000
0000
0020
0000
0130
,  // measure 31
0001
1010
0001
1010
,  // measure 32
1000
1000
0010
0010
0100
0000
0001
0000
,  // measure 33
1000
0101
1000
0101
,  // measure 34
1000
0100
0001
0100
1000
0000
0002
0000
,  // measure 35
1003
2000
3010
0020
,  // measure 36
1030
0000
0010
0000
0100
0000
0001
0000
0000
1000
0000
0000
,  // measure 37
1001
0000
1100
0000
0010
0010
0010
0000
,  // measure 38
0100
0000
0001
1000
0000
0010
0000
0100
,  // measure 39
0000
0001
0010
0001
1000
0100
1000
0010
,  // measure 40
0000
0110
0000
1000
0100
0010
0100
0000
,  // measure 41
0011
0000
0101
0000
1000
1000
1000
0000
,  // measure 42
0001
0000
0100
0010
0000
0101
0000
0010
,  // measure 43
0000
1000
0100
1000
0001
0100
0001
1000
,  // measure 44
0000
1001
0000
1000
0001
0000
0100
0000
,  // measure 45
0001
0000
0101
0000
,  // measure 46
0000
1000
1000
0001
0001
0000
0000
0000
,  // measure 47
1001
0000
1010
0000
0001
0100
0001
0000
,  // measure 48
1000
0010
0100
0001
0100
0001
1000
0000
,  // measure 49
0001
0010
0100
0010
0001
1000
0010
0100
,  // measure 50
0001
1000
0000
1000
0000
1000
1000
0000
,  // measure 51
0101
0000
1010
0000
0100
0001
1000
0000
,  // measure 52
1000
0100
0001
0100
1000
0100
0010
0000
,  // measure 53
0001
0100
0010
0000
0100
0010
1000
0001
,  // measure 54
0000
0101
0000
1000
0010
0000
0000
0000
,  // measure 55
1001
0000
1001
0000
,  // measure 56
0000
0001
0001
0001
0001
0000
0110
0000
,  // measure 57
1001
0000
1100
0000
0001
0100
0000
1001
,  // measure 58
0000
1000
0010
0000
0010
0100
0000
0100
,  // measure 59
0001
0000
1001
0000
1000
0010
0000
1010
,  // measure 60
0000
1010
0000
1000
0001
0000
0000
1010
,  // measure 61
0000
1010
0000
1000
0002
0000
0000
0000
,  // measure 62
0003
0000
0000
0000
;
