#TITLE:LOVEMAKERS ON VIDEO;
#SUBTITLE:(DJ Matt Hite Mashup);
#ARTIST:THE LOVEMAKERS vs. TRANS-X;
#TITLETRANSLIT:;
#SUBTITLETRANSLIT:;
#ARTISTTRANSLIT:;
#CREDIT:;
#BANNER:LOVEMAKERS ON VIDEO (DJ Matt Hite Mashup).png;
#BACKGROUND:LOVEMAKERS ON VIDEO (DJ Matt Hite Mashup)-bg.png;
#LYRICSPATH:;
#CDTITLE:Sixx Mixx.png;
#MUSIC:LOVEMAKERS ON VIDEO (DJ Matt Hite Mashup).mp3;
#OFFSET:-7.290;
#SAMPLESTART:49.673;
#SAMPLELENGTH:13.000;
#SELECTABLE:YES;
#BPMS:0.000=132.001;
#STOPS:;
#BGCHANGES:;

//---------------dance-single - Basic----------------
#NOTES:
     dance-single:
     Basic:
     Easy:
     3:
     0.196,0.189,0.052,0.000,0.000: // measure 1
0001
0000
1000
0000
,  // measure 2
0001
0000
0100
0000
,  // measure 3
0010
0000
0100
0000
,  // measure 4
0001
0000
1000
0000
,  // measure 5
0001
0001
0001
0000
,  // measure 6
0100
0000
0010
0000
,  // measure 7
1000
1000
1000
0000
,  // measure 8
0100
0000
0010
0000
,  // measure 9
0100
0010
0100
0000
,  // measure 10
0010
0010
1000
0000
,  // measure 11
0001
1000
0001
0000
,  // measure 12
1000
1000
0010
0000
,  // measure 13
0001
0010
0001
0000
,  // measure 14
0010
0010
0001
0000
,  // measure 15
1000
0100
1000
0000
,  // measure 16
0100
0100
1000
0000
,  // measure 17
1001
0000
0000
0000
,  // measure 18
0010
0100
0100
0000
,  // measure 19
1001
0000
0000
0000
,  // measure 20
0010
0010
0100
0000
,  // measure 21
1001
0000
0000
0000
,  // measure 22
0001
0001
1000
0000
,  // measure 23
1001
0000
0000
0000
,  // measure 24
0010
0000
0010
0000
,  // measure 25
1000
1000
0001
0001
,  // measure 26
1000
0001
1000
0000
,  // measure 27
0001
0001
0100
0100
,  // measure 28
0001
0100
0001
0000
,  // measure 29
0100
0100
0010
0010
,  // measure 30
0100
0010
0100
0000
,  // measure 31
0010
0010
1000
1000
,  // measure 32
0010
1000
0010
0000
,  // measure 33
1000
1000
0010
0010
,  // measure 34
0100
0001
0100
0000
,  // measure 35
0001
0001
1000
1000
,  // measure 36
0010
0100
0010
0000
,  // measure 37
1000
1000
0010
0010
,  // measure 38
0100
0001
0100
0000
,  // measure 39
0010
0010
0100
0100
,  // measure 40
0010
0100
0010
0000
,  // measure 41
1000
0000
0010
0000
,  // measure 42
0001
0000
0100
0000
,  // measure 43
1000
0000
0010
0000
,  // measure 44
0001
0000
1000
0000
,  // measure 45
0001
1000
0001
1000
,  // measure 46
1001
0000
0000
0000
;

//---------------dance-single - Trick----------------
#NOTES:
     dance-single:
     Trick:
     Medium:
     5:
     0.331,0.330,0.210,0.021,0.000:
0010
0001
1000
0100
,
1000
0001
0010
0001
,
1000
0100
0010
0001
,
0010
0100
1000
0001
,
1000
0000
0100
0010
0100
0000
1000
0000
,
0001
0000
0010
0000
0001
0100
0001
0000
,
0100
0000
0010
1000
0010
0000
0100
0000
,
0001
0000
1000
0000
0100
0010
0100
0000
,
0010
0010
0100
0101
,
0000
0000
0001
0000
0100
0010
1000
0000
,
0001
0001
0010
1010
,
0000
0000
1000
0000
0001
0010
0100
0000
,
1000
1000
0010
0110
,
0000
0000
0001
0000
1000
0001
0010
0000
,
0100
0100
0010
0011
,
0000
0000
0010
0000
1000
0001
0100
0000
,
0110
0000
1000
0010
,
0100
0000
0001
0010
0001
1000
0001
0000
,
0101
0000
0001
1000
,
0010
0000
1000
0010
1000
0001
0010
0000
,
1010
0000
0010
0100
,
1000
0000
0010
0100
0010
1000
0001
0000
,
1001
0000
0000
0000
,
1000
0001
1000
0001
1000
0001
1000
0000
,
0011
0001
0010
0100
,
1000
0100
1000
0000
0001
0010
0001
0000
,
1010
0010
0100
0001
,
0100
0001
0100
0000
0010
1000
0010
0000
,
1001
0001
0100
0010
,
1000
0001
1000
0000
0010
0100
0010
0000
,
0101
0001
0100
0010
,
2000
0010
0001
3010
,
1010
0011
0001
0100
,
0001
1000
0001
1000
0010
0000
0100
0000
,
1100
1010
1000
0001
,
0100
0010
0100
0010
1000
0000
0001
0000
,
1001
0011
1000
0001
,
0010
0001
0010
0001
1000
0000
0010
0000
,
1010
0110
0010
1000
,
0002
0100
0010
1003
,
0001
1000
0100
0000
,
0010
0001
1000
0000
,
0010
0100
0001
0000
,
1000
0010
0100
0000
,
0010
0100
0010
0100
0010
0100
0010
0000
,
0100
0000
0000
0000;

//---------------dance-single - Maniac----------------
#NOTES:
     dance-single:
     Maniac:
     Hard:
     7:
     0.429,0.354,0.210,0.126,0.000:
0010
1000
0001
0100
,
0010
0100
0010
0100
,
0001
0010
0001
0000
0001
0100
0001
0000
,
1000
0010
1000
0000
1000
0100
1000
0000
,
0010
0000
1000
0100
1000
0010
0000
0010
,
0000
0010
0100
0001
1000
0001
0100
0000
,
0010
0000
1000
0100
0001
0100
0000
1000
,
0000
0100
1000
0010
0100
0001
1000
0000
,
0001
0001
0010
0001
0100
0000
0011
0000
,
0000
1000
0100
0010
0001
1000
0001
0000
,
1000
1000
0100
1000
0010
0000
1100
0000
,
0000
0001
0010
0100
1000
0001
1000
0000
,
0010
0010
0100
0010
1000
0000
1010
0000
,
0000
1000
0100
0001
0100
1000
0100
0000
,
0001
0001
0100
0001
0010
0000
0101
0000
,
0000
0100
0001
0100
1000
0100
0001
0000
,
2200
3300
1000
0010
,
0100
0010
1000
0000
1000
0010
0100
0000
,
0022
0033
0001
1000
,
0010
1000
0001
0000
0001
1000
0010
0000
,
2020
3030
0001
0010
,
0100
1000
0010
0000
0010
1000
0100
0000
,
0202
0303
0001
1000
,
1000
1000
0100
0100
0010
0010
0001
0001
,
1000
0000
1010
0000
1000
0001
0100
0000
,
0001
0010
0100
0010
0001
0010
0100
1000
,
0001
0000
0101
0000
0100
0001
1000
0000
,
1000
0010
0100
0010
1000
0010
0100
0001
,
1000
0000
1100
0000
0001
0100
0010
0000
,
1000
0001
0100
0001
1000
0001
0100
0010
,
1000
0010
0100
0001
,
0001
0001
0100
0100
0010
0010
1000
1000
,
0001
0000
0011
0000
1000
0010
0100
0000
,
0010
0100
0001
0100
0010
0100
0001
1000
,
0010
0000
0110
0000
0010
1000
0100
0000
,
0010
0001
0100
0001
0010
0001
0100
0010
,
1000
0000
1001
0000
0001
0010
0100
0000
,
1000
0010
0100
0010
1000
0010
0100
0001
,
0100
0101
0100
0100
,
0001
0001
0010
0000
0100
0100
1000
0000
,
1010
0002
0103
1000
,
1010
0002
0103
1000
,
0101
2000
3100
0001
,
0101
2000
3100
0001
,
0100
0100
0010
0010
0100
0100
0010
0000
,
0110
0000
0000
0000
;
