#TITLE:LOVE & SUNSHINE;
#SUBTITLE:(Delaction Remix);
#ARTIST:4 SKIPS;
#TITLETRANSLIT:;
#SUBTITLETRANSLIT:;
#ARTISTTRANSLIT:;
#CREDIT:;
#BANNER:LOVE & SUNSHINE (Delaction Remix).png;
#BACKGROUND:LOVE & SUNSHINE (Delaction Remix)-bg.png;
#LYRICSPATH:;
#CDTITLE:HIME TRANCE.png;
#MUSIC:LOVE & SUNSHINE (Delaction Remix) - 4 SKIPS.mp3;
#OFFSET:-6.640;
#SAMPLESTART:21.502;
#SAMPLELENGTH:12.000;
#SELECTABLE:YES;
#BPMS:0.000=145.000;
#STOPS:;
#BGCHANGES:;

//---------------dance-single - ----------------
#NOTES:
     dance-single:
     :
     Hard:
     8:
     0.566,0.538,0.077,0.011,0.402: // measure 1
1001
0000
0000
0100
0000
0000
0010
0000
1000
0000
0000
0100
0000
0000
0010
0000
,  // measure 2
0100
0000
0000
1000
0000
0000
0001
0000
0010
0000
0000
0000
0000
0000
0000
0000
,  // measure 3
1001
0000
0000
0001
0000
0000
0100
0000
0001
0000
0000
0010
0000
0000
0001
0000
,  // measure 4
1000
0000
0000
0100
0000
0000
1000
0000
0001
0000
0000
0000
0000
0000
0000
0000
,  // measure 5
0010
0100
1000
0001
1000
0100
1000
0001
,  // measure 6
1000
0100
1000
0001
1000
0100
1000
0001
,  // measure 7
0100
0000
0100
0000
0100
0000
0100
0000
0100
0000
0100
0000
0100
0000
0001
0100
,  // measure 8
0001
0000
1000
0000
0100
0000
1000
0000
0010
0000
1000
0000
,  // measure 9
0000
0000
0000
0000
,  // measure 10
0100
0000
0010
0001
0000
0001
0100
0000
0010
0000
1000
0100
0000
0100
0010
0000
,  // measure 11
0001
0000
0100
0010
0000
0010
1000
0000
0100
0000
0000
0000
1001
0000
0000
0000
,  // measure 12
0001
0000
0100
0010
0000
0010
1000
0000
0001
0000
0010
0100
0000
0100
1000
0000
,  // measure 13
0001
0000
0100
0010
0000
0010
1000
0000
0001
0000
0100
0000
0100
0000
0000
0000
,  // measure 14
0001
0000
0000
0000
1001
0000
0000
0000
0010
0000
0100
0001
0000
0001
1000
0000
,  // measure 15
0100
0000
0010
0001
0000
0001
0100
0000
0010
0000
0000
0000
1001
0000
0001
0000
,  // measure 16
0100
0000
0010
1000
0000
1000
0100
0000
0010
0000
0100
1000
0000
1000
0001
0000
,  // measure 17
0100
0000
0010
1000
0000
1000
0100
0000
1000
0001
1000
0000
0001
0000
0001
0000
,  // measure 18
0000
0100
0000
0010
1000
0000
0100
1000
,  // measure 19
0010
0000
1000
0010
0100
0001
0100
0001
,  // measure 20
0000
0010
0000
0001
1000
0000
0001
0010
,  // measure 21
0100
0000
1000
0010
1000
0001
1000
0001
,  // measure 22
1000
1000
0001
0001
1000
1000
0010
0010
,  // measure 23
0100
0100
0001
0001
1000
1000
0010
0010
,  // measure 24
1000
1000
0100
0100
0010
0010
0001
0001
,  // measure 25
0000
0000
1000
0100
0000
0000
1000
0000
0100
0000
1000
0000
0001
0000
0010
0000
,  // measure 26
0000
0001
0000
1000
0000
0100
0000
1000
,  // measure 27
0000
0001
0000
1000
0001
1000
0001
1000
,  // measure 28
0000
0100
0000
1000
0000
0100
0000
0010
,  // measure 29
0000
0001
0000
1000
0010
1000
0010
1000
,  // measure 30
0001
0001
0100
0100
1000
1000
0100
0100
,  // measure 31
0010
0010
1000
1000
0100
0100
0001
0001
,  // measure 32
0100
0100
1000
1000
0010
0010
0100
0100
,  // measure 33
0000
0000
0001
1000
0000
0000
0010
0000
1000
0000
0100
0000
1000
0000
0000
0000
,  // measure 34
0100
0000
0010
0001
0000
0001
0100
0000
0010
0000
1000
0001
0000
0001
0100
0000
,  // measure 35
0010
0000
1000
0100
0000
0100
0010
0000
0001
0000
0000
0000
1001
0000
0000
0000
,  // measure 36
0100
0000
0001
0010
0000
0010
0100
0000
1000
0000
0010
0100
0000
0100
0001
0000
,  // measure 37
0010
0000
0001
1000
0000
1000
0100
0000
0010
0000
0001
0000
0001
0000
0000
0000
,  // measure 38
0010
0000
0100
1000
0000
1000
0010
0000
0100
0000
0001
0010
0000
0010
0100
0000
,  // measure 39
1000
0000
0010
0100
0000
0100
0001
0000
0010
0000
0000
0000
1001
0000
0000
0000
,  // measure 40
0100
0000
0010
0001
0000
0001
0100
0000
0010
0000
1000
0100
0000
0100
0010
0000
,  // measure 41
0001
0000
0100
0010
0000
0010
1000
0000
0001
0100
0001
0000
0010
0000
0000
0000
,  // measure 42
0001
0000
1000
0000
0100
0000
1000
0010
0000
0100
0010
0000
1000
0000
0000
0000
,  // measure 43
0001
0000
0010
0000
0100
0000
0010
0001
0000
1000
0100
0000
1000
0000
0000
0000
,  // measure 44
0100
0000
0010
0000
0001
0000
0100
0010
0000
1000
0001
0000
0010
0000
0000
0000
,  // measure 45
0001
0100
0010
0000
,  // measure 46
1000
0000
0100
0000
0010
0000
0001
0100
0000
0010
1000
0000
0100
0000
1000
0000
,  // measure 47
0001
0000
0010
0000
0100
0000
1000
0010
0000
0100
0001
0000
0010
0000
0001
0000
,  // measure 48
0100
0000
0010
0000
1000
0000
0100
0010
0000
0001
1000
0000
0100
0000
1000
0000
,  // measure 49
0020
0000
0000
0000
0000
0000
0000
0030
;

//---------------dance-single - ----------------
#NOTES:
     dance-single:
     :
     Easy:
     2:
     0.178,0.188,0.000,0.011,0.000:
0100
0000
0100
0000
,
0010
0000
0010
0000
,
1000
0000
1000
0000
,
0001
0000
0001
0000
,
1000
0000
0001
0000
,
1000
0000
0001
0000
,
1000
1000
1000
1000
,
0001
0000
0000
0000
,
0000
0000
0000
0000
,
1000
0000
1000
0000
,
0100
0100
0100
0000
,
0010
0000
0001
0000
,
1000
1000
1000
0000
,
0001
0000
0010
0000
,
0001
0001
0001
0000
,
1000
0000
0100
0000
,
1000
1000
1000
0000
,
0000
0001
0000
0001
,
0000
1000
0000
1000
,
0000
0001
0000
0001
,
0000
1000
0000
1000
,
0010
0010
0000
0000
,
0100
0100
0000
0000
,
0010
0010
0000
0000
,
0000
1000
0001
0010
,
0000
0001
0000
0001
,
0000
0100
0000
0100
,
0000
0010
0000
0010
,
0000
1000
0000
0000
,
0100
0100
0000
0000
,
0010
0010
0000
0000
,
0001
0001
0000
0000
,
0000
1000
0100
1000
,
0001
0000
0001
0000
,
0010
0010
0010
0000
,
0100
0000
1000
0000
,
0010
0010
0010
0000
,
0100
0000
0100
0000
,
0001
0001
0001
0000
,
0010
0000
0001
0000
,
1000
1000
1000
0000
,
0001
0001
0001
0000
,
1000
1000
1000
0000
,
0100
0100
0100
0000
,
1000
1000
1000
0000
,
0001
0001
0001
0000
,
0100
0100
0100
0000
,
0010
0010
0010
0000
,
2000
0000
0000
3000
;

//---------------dance-single - Copied from----------------
#NOTES:
     dance-single:
     Copied from:
     Medium:
     5:
     0.335,0.374,0.132,0.000,0.022:
1000
1000
0001
0001
,
1000
0001
1001
0000
,
0100
0100
0010
0010
,
1000
0100
1100
0000
,
0001
0000
1001
0000
,
1000
1000
1000
1000
,
0001
0100
0001
0100
0001
0100
0001
0100
,
0001
0000
1000
0000
0010
0000
1000
0000
0010
0000
1000
0000
,
0000
0000
0000
0000
,
0001
0001
1000
1000
,
0100
1000
0001
0101
,
1000
1000
0100
0100
,
1000
0000
0001
0000
0010
0001
0001
0000
,
1000
1001
0010
0010
,
0100
0100
0001
1001
,
0010
0000
1001
0000
,
0100
0000
0010
0000
1000
0100
1000
0000
,
0000
0100
1000
0010
,
1000
0000
0100
0000
1000
0100
1000
0100
,
1000
0100
0010
0001
,
0100
0000
0010
0000
1000
0100
1000
0100
,
1000
0000
1000
0000
0001
0100
0001
0000
,
1000
0000
1000
0000
0001
0100
0001
0000
,
1000
0000
1000
0000
0001
0100
0001
0000
,
0000
1000
0001
1001
,
0000
0100
0000
0010
0000
1000
0000
0100
,
0000
1000
0000
0001
0000
0010
0000
0001
,
0000
0100
0000
0010
0000
1000
0000
0100
,
0000
1000
0000
0001
0000
0100
0000
0010
,
1000
0000
1000
0000
0100
0001
0100
0000
,
1000
0000
1000
0000
0100
0001
0100
0000
,
1000
0000
1000
0000
0100
0001
0100
0000
,
0000
1000
0100
1100
,
0001
0001
1000
1000
,
0100
1000
0001
0011
,
1000
1000
0100
0100
,
1000
0000
0001
0000
1000
0100
0100
0000
,
1000
1000
0001
0001
,
0100
0001
0100
0110
,
1000
1000
0001
0001
,
0010
0000
0001
0000
1000
0100
1000
0000
,
0001
0100
0001
0100
,
0100
0010
1000
0010
,
0010
1000
0010
1000
,
1000
0100
0001
0000
,
0100
1000
0100
0001
,
0010
1000
0100
0001
,
0010
1000
0100
0010
,
1001
0001
0100
0000
;
