#TITLE:LOVE & JOY;
#SUBTITLE:(Red Monster Remix);
#ARTIST:木村由姫;
#TITLETRANSLIT:;
#SUBTITLETRANSLIT:;
#ARTISTTRANSLIT:Yuki Kimura;
#CREDIT:;
#BANNER:LOVE & JOY (Red Monster Remix).png;
#BACKGROUND:LOVE & JOY (Red Monster Remix)-bg.png;
#LYRICSPATH:;
#CDTITLE:cdtitle.png;
#MUSIC:LOVE & JOY (Red Monster Remix).mp3;
#OFFSET:-7.540;
#SAMPLESTART:31.062;
#SAMPLELENGTH:12.000;
#SELECTABLE:YES;
#BPMS:0.000=173.000;
#STOPS:;
#BGCHANGES:;

//---------------dance-single - ----------------
#NOTES:
     dance-single:
     :
     Hard:
     7:
     0.569,0.497,0.913,0.164,0.012:
1100
0000
1010
0000
0001
0100
0010
0000
,
1000
0100
0010
0001
0100
0010
1000
0000
,
1001
0000
0101
0000
0001
0100
0001
0000
,
1000
0100
1000
0000
0001
0001
0001
0000
,
1000
0011
0101
1000
,
0001
0100
0001
0000
0000
0000
1000
0000
,
0010
1010
1001
0001
,
1000
0010
0100
0000
0001
0000
1001
0000
,
1000
1100
1001
0010
,
0100
0001
0000
1000
,
0001
0101
0011
1000
,
0001
0010
0001
0000
,
1000
0100
0001
0100
1000
0000
1001
0000
,
0001
0100
1000
0100
0001
0000
1001
0000
,
0010
0100
0001
0100
0010
0100
0001
1000
,
0100
0000
0000
1000
0000
0000
0001
0000
0100
0000
0000
0010
0000
0000
0100
0000
,
0001
0000
0000
0000
0000
1000
0100
1000
,
0100
1100
1010
0001
,
2100
0001
0100
3001
,
1001
1100
1010
0001
,
0102
1000
0100
1003
,
1001
1001
0101
0011
,
1100
1010
1001
0011
,
2000
3010
0020
1030
,
2002
0000
0000
3003
0000
0100
0001
0100
,
0001
1010
1001
0100
,
1002
1000
0100
1003
,
1010
1100
1010
0001
,
0210
0001
0010
0301
,
0101
1100
1010
1100
,
0110
0011
0110
0011
,
2000
3001
0002
1003
,
2002
0000
0000
3003
,
1000
0100
1000
0000
0001
0100
0001
0000
,
1100
1010
1100
1001
,
0100
0010
0001
0000
0001
0100
0010
0000
,
1100
1001
1100
1010
,
0001
0100
0010
0000
0010
1000
0100
0000
,
1001
1010
0110
0011
,
1000
0100
0001
0000
0100
1000
0010
0000
,
0100
0100
0100
0000
0001
0001
0001
0000
,
1010
1100
1010
1100
,
0001
0100
0010
1000
0010
1000
0100
0000
,
1100
1010
1100
1001
,
0001
0100
0010
1000
0010
1000
0100
0000
,
1001
1100
1010
1001
,
0001
0010
0100
1000
0010
1000
0100
0000
,
0011
1100
1010
1100
,
0001
0100
0010
0100
0001
1000
0010
1000
,
0100
1000
0100
0001
,
0010
1000
0100
0001
,
1100
0001
1100
0010
,
0100
0100
0001
2020
,
3030
0000
0000
0000
;

//---------------dance-single - ----------------
#NOTES:
     dance-single:
     :
     Easy:
     4:
     0.340,0.371,0.340,0.105,0.000: // measure 1
1000
0100
1000
1000
,  // measure 2
0002
0003
2000
3000
,  // measure 3
0100
1000
0010
0010
,  // measure 4
0200
0300
0002
0003
,  // measure 5
1001
0010
0100
0000
,  // measure 6
0001
0100
0000
0001
,  // measure 7
0100
0010
0000
1000
,  // measure 8
0100
1000
0001
1001
,  // measure 9
0010
0100
0001
0000
,  // measure 10
1100
0001
0000
0100
,  // measure 11
0010
0000
1000
0000
,  // measure 12
0001
0100
0010
0000
,  // measure 13
1001
0001
0001
0000
,  // measure 14
1010
1000
1000
0000
,  // measure 15
0101
0000
0101
0000
,  // measure 16
1000
0100
1000
0000
,  // measure 17
0001
0000
0000
0000
,  // measure 18
1001
1100
1001
0000
,  // measure 19
0010
0100
0001
0000
,  // measure 20
1100
1010
1100
0000
,  // measure 21
0001
0100
0010
0000
,  // measure 22
0001
0001
1100
1100
,  // measure 23
0001
0001
0101
0101
,  // measure 24
0020
0030
2000
3000
,  // measure 25
1001
0010
0100
0000
,  // measure 26
0011
0110
0011
0000
,  // measure 27
1000
0100
1000
0000
,  // measure 28
0110
1001
1001
0000
,  // measure 29
0001
0100
0010
0000
,  // measure 30
1000
1000
0101
0101
,  // measure 31
1000
1000
1010
1010
,  // measure 32
0002
0003
0200
0300
,  // measure 33
0020
0000
0030
0000
,  // measure 34
1000
0100
1000
1000
,  // measure 35
0001
0000
0001
0000
,  // measure 36
1000
0100
1000
1000
,  // measure 37
0010
0000
0010
0000
,  // measure 38
1000
0100
0001
0100
,  // measure 39
1000
0000
1000
0000
,  // measure 40
0001
0100
0010
0100
,  // measure 41
0001
0000
0000
0001
,  // measure 42
1000
0100
1000
1000
,  // measure 43
0010
0000
0010
0010
,  // measure 44
1000
0100
1000
1000
,  // measure 45
0001
0000
0001
0001
,  // measure 46
0100
0010
1000
1000
,  // measure 47
0100
0000
0100
0100
,  // measure 48
1000
0010
0100
0100
,  // measure 49
0001
0001
0001
0001
,  // measure 50
1000
0001
1000
0001
,  // measure 51
1000
0001
1000
0001
,  // measure 52
0010
0010
0010
0100
,  // measure 53
0001
1000
0010
0101
;

//---------------dance-single - Copied from----------------
#NOTES:
     dance-single:
     Copied from:
     Medium:
     6:
     0.442,0.463,0.597,0.035,0.000:
1000
0100
1000
0001
,
1000
0100
1000
0000
0010
1000
0010
0000
,
0100
0001
0100
0010
,
1000
0100
1000
0000
0001
1000
0001
0000
,
0100
0010
1100
0000
,
0101
0010
0000
1000
,
0100
1001
1100
0000
,
0010
0100
0001
1001
,
0010
0010
0101
0000
,
1000
0100
0000
0100
,
1000
0010
0000
0100
,
0001
0010
0011
0000
,
1000
0100
1000
1001
,
0010
0100
0001
0101
,
1000
1000
0001
0001
,
0100
0000
0010
0000
1000
0000
0100
1000
,
0200
0000
0000
0300
,
1100
1010
1100
0001
,
0011
1100
1001
0000
,
0011
0101
1010
0100
,
1010
1100
1010
0000
,
1001
1001
0001
0001
,
1001
1001
1000
1000
,
0010
1000
0001
0010
,
0002
0000
0000
0000
0000
0003
0000
0000
,
1100
1010
1100
0001
,
0011
1100
0011
0000
,
1010
1100
1010
0001
,
0011
1100
0011
0000
,
1001
1001
0001
0001
,
1001
1001
1000
1000
,
0010
0010
0100
0100
,
0002
0000
0000
0000
0000
0003
0000
0000
,
1000
1000
0100
0100
,
1000
0001
1000
0000
0001
0100
0001
0000
,
0100
0100
0010
0010
,
1000
0100
1000
0000
0001
0100
0001
0000
,
1000
1000
0001
0001
,
1000
0100
0001
0000
0001
0100
1000
0000
,
0010
0000
0010
0000
1000
0100
1000
0000
,
0001
0000
0001
0000
1000
0001
1000
0000
,
1100
1100
0001
0001
,
1000
0000
0100
0000
1000
0100
1000
0000
,
1001
1100
0001
0001
,
0100
0000
0010
0000
0100
0001
0100
0000
,
1100
1010
0001
0100
,
0010
1000
0010
0000
0001
0000
0001
0000
,
1000
0010
1000
0000
0001
1000
0001
0000
,
1010
0100
1010
0100
,
0001
0001
0001
0001
,
0001
0001
0001
0001
,
1100
0010
0100
0001
,
0100
0100
0001
1010
;
