#TITLE:LONDON BRIDGE;
#SUBTITLE:(Speed Version);
#ARTIST:SPEEDMASTER;
#TITLETRANSLIT:;
#SUBTITLETRANSLIT:;
#ARTISTTRANSLIT:;
#CREDIT:;
#BANNER:LONDON BRIDGE (Speed Version).png;
#BACKGROUND:LONDON BRIDGE (Speed Version)-bg.png;
#LYRICSPATH:;
#CDTITLE:HAPPY SPEED.png;
#MUSIC:LONDON BRDIGE (Speed Version) - SPEEDMASTER.mp3;
#OFFSET:-10.580;
#SAMPLESTART:42.122;
#SAMPLELENGTH:12.000;
#SELECTABLE:YES;
#BPMS:0.000=182.000;
#STOPS:;
#BGCHANGES:;

//---------------dance-single - ----------------
#NOTES:
     dance-single:
     :
     Hard:
     8:
     0.570,0.538,0.328,0.249,0.051: // measure 1
1000
0000
1010
0000
0002
0000
0003
0100
,  // measure 2
0010
1000
0100
0010
0001
0100
0010
1000
,  // measure 3
0100
0000
1010
0000
2000
0000
3000
0001
,  // measure 4
0010
0001
0100
0010
2000
0000
0000
3000
,  // measure 5
0001
0000
0110
0000
0002
0000
0003
1000
,  // measure 6
0100
0010
0001
0100
0010
1000
0001
0010
,  // measure 7
0001
0000
0101
0000
0020
0000
0030
0001
,  // measure 8
0100
0010
1000
0100
2000
0000
3001
0010
,  // measure 9
0001
0000
1000
0001
1000
0000
0010
0000
,  // measure 10
1000
0000
1010
0000
1010
0000
0001
0100
,  // measure 11
0010
0000
1000
0100
1000
0000
0001
0000
,  // measure 12
0100
0000
1001
0000
1001
0000
0001
0100
,  // measure 13
0010
0000
1000
0001
1000
0000
0010
0000
,  // measure 14
1000
0000
1010
0000
1010
0000
0001
0100
,  // measure 15
0001
0000
1000
0100
0010
0000
0100
0000
,  // measure 16
1000
1001
1001
0000
,  // measure 17
0001
0000
0000
0100
0000
0000
0010
0000
1000
0000
0000
0100
0000
0000
1000
0000
,  // measure 18
0001
0000
0000
0010
0000
0000
0001
0000
1000
0000
0100
0000
0010
0000
0001
0000
,  // measure 19
0100
0000
0000
0010
0000
0000
1000
0000
0100
0000
0000
1000
0000
0000
0001
0000
,  // measure 20
0100
0000
0000
0010
0000
0000
0100
0000
0001
0000
1000
0000
0100
0000
1000
0000
,  // measure 21
0010
0000
0000
0100
0000
0000
0001
0000
0010
0000
0000
0001
0000
0000
0100
0000
,  // measure 22
0010
0000
0000
1000
0000
0000
0100
0000
0010
0000
0100
0000
1000
0000
0010
0000
,  // measure 23
0100
0000
0010
1000
0100
0000
0100
1000
,  // measure 24
0010
1000
1010
0000
,  // measure 25
2001
0000
3001
0000
1000
0000
0001
0100
,  // measure 26
0000
0100
0010
1000
0100
0000
1000
0000
,  // measure 27
2001
0000
3001
0000
1002
0000
1003
0010
,  // measure 28
0000
0010
0100
0001
0010
0000
0101
0000
,  // measure 29
0001
0000
1000
0100
0000
0100
0010
0001
,  // measure 30
0000
1000
0100
1000
0001
0000
1001
0000
,  // measure 31
0001
0000
0100
0010
0000
0010
0100
0001
,  // measure 32
0000
1000
0010
1000
0100
0000
1000
0000
,  // measure 33
2001
0000
3001
0000
1000
0000
0001
0010
,  // measure 34
0000
0010
0001
0100
0010
0000
1000
0000
,  // measure 35
1002
0000
1003
0000
2001
0000
3001
0100
,  // measure 36
0000
0100
0010
1000
0100
0000
1000
0000
,  // measure 37
1100
0000
0001
0100
0000
0100
0010
1000
,  // measure 38
0000
0001
0100
0001
0010
0000
1001
0000
,  // measure 39
0001
0000
0100
0010
0000
0010
1000
0100
,  // measure 40
0000
0000
0000
0000
,  // measure 41
1000
0000
0110
0000
2000
0000
3000
0001
,  // measure 42
0100
0010
0100
0001
1000
0010
1000
0100
,  // measure 43
0010
0000
0101
0000
0020
0000
0030
0001
,  // measure 44
1000
0001
0010
0001
2000
0000
0000
3000
,  // measure 45
0001
0000
1010
0000
0002
0000
0003
1000
,  // measure 46
0001
0010
0100
1000
0010
0100
0001
0010
,  // measure 47
0001
0000
0110
0000
0002
0000
0003
1000
,  // measure 48
0001
0010
0100
1000
0020
0000
0000
0030
,  // measure 49
1000
0100
0010
0100
1000
0100
0010
0100
,  // measure 50
1000
0100
0010
0100
0001
0100
1000
0100
,  // measure 51
0001
0000
0101
0000
0020
0000
0030
0001
,  // measure 52
1000
0100
0010
0100
2000
0000
0000
3000
,  // measure 53
0001
0010
0100
0010
0001
0010
1000
0010
,  // measure 54
0001
0010
0100
0010
1000
0010
0001
0010
,  // measure 55
1000
0000
1010
0000
0002
0000
0003
1000
,  // measure 56
0100
0001
0100
1000
0020
0000
0000
0000
,  // measure 57
0130
0000
0000
0000
;

//---------------dance-single - ----------------
#NOTES:
     dance-single:
     :
     Easy:
     4:
     0.324,0.348,0.215,0.158,0.000:
1000
1000
0001
0000
,
0010
0100
0001
1000
,
0100
0100
1000
0000
,
0001
0010
0002
0003
,
1000
1000
0001
0000
,
0010
0001
1000
0100
,
1000
1000
0200
0300
,
1000
0001
0010
0000
,
0001
0000
0001
0000
,
0001
1000
1001
0000
,
1000
0000
1000
0000
,
1000
0001
1001
0000
,
0100
0000
0100
0000
,
0100
0010
0110
0000
,
1000
0000
1000
0000
,
0100
0010
0110
0000
,
1000
0000
1000
0000
,
0001
1000
1001
1000
,
0001
0000
0001
0001
,
1000
0010
0110
0100
,
0001
0000
0001
1000
,
1001
1000
0001
0000
,
0001
1000
0000
0100
,
1000
0000
0000
0000
,
1001
0000
1001
0000
,
0010
0100
0001
0000
,
1001
0000
1001
0000
,
0100
1000
0010
0000
,
0100
0000
0001
1000
,
0000
0100
1000
0010
,
0100
0000
0010
0001
,
0000
0010
0100
0001
,
0110
0000
0110
0000
,
1000
0100
1000
0001
,
0110
0000
0110
0000
,
0001
1000
0100
1000
,
0001
0000
0010
0001
,
0000
0100
0010
1000
,
0100
0000
1000
0010
,
0000
0100
0001
0010
,
0001
0001
0002
0003
,
1000
0100
1000
0010
,
0100
0100
0200
0300
,
0020
0030
2000
3000
,
0100
0100
0200
0300
,
1000
0100
1000
0001
,
0010
0010
0020
0030
,
0002
0003
2000
3000
,
0100
1000
0010
0110
,
0110
0001
1000
0100
,
1000
1000
2000
3000
,
0001
0100
0020
0030
,
1000
0100
1000
1001
,
1001
0100
1000
0010
,
0100
0100
0020
0030
,
1000
0100
2000
3000
,
0001
0000
0000
0000
;

//---------------dance-single - Copied from----------------
#NOTES:
     dance-single:
     Copied from:
     Medium:
     6:
     0.505,0.475,0.633,0.147,0.000:
1001
1001
0002
0003
,
1000
0000
0100
0000
1000
0001
1000
0001
,
0010
0101
0002
0003
,
1000
0100
1000
0000
0020
0000
0030
0000
,
1010
1010
2000
3000
,
0001
0000
1000
0000
0100
0010
0001
0100
,
0010
1010
2000
3000
,
0001
0100
0010
1000
0100
0000
1000
0000
,
0101
1000
0101
1000
,
0010
1001
1001
0001
,
1100
0001
1100
0001
,
0100
0110
0110
0001
,
1001
0001
1001
1000
,
0100
1010
1010
0001
,
1100
0001
1100
0001
,
0010
0000
1001
0000
1001
0000
1000
0100
,
1000
0000
0001
0100
0001
0000
1000
0000
,
1000
0000
0101
0000
0101
0000
1000
0010
,
1000
0000
0001
0100
0001
0000
1000
0000
,
1000
0000
0110
0000
0110
0000
0001
0010
,
0001
0000
1000
0100
1000
0000
0001
0000
,
0001
1100
1100
0001
,
0100
0000
0010
0100
0000
0000
0001
0000
,
1000
0001
0001
0000
,
1001
1001
0010
0100
,
0001
1000
0010
1000
,
1001
0010
1001
0010
,
0100
1000
0010
0100
0001
0000
1000
0000
,
1001
0000
0000
1010
0000
0000
1001
0000
,
0000
0010
0100
0001
1000
0000
0010
0000
,
0011
0000
0000
1010
0000
0000
0011
0000
,
0000
1000
0100
1000
0010
0000
1000
0000
,
1010
1010
0001
0100
,
0010
1000
0100
1000
,
0110
0000
0001
0000
0110
0000
1000
0001
,
0000
1000
0100
1000
0010
0000
1000
0000
,
1010
0000
0000
1001
0000
0000
0011
0000
,
0000
1000
0100
1000
0010
0000
1000
0000
,
1001
0000
0000
1010
0000
0000
0011
0000
,
0000
0000
0000
0000
,
1001
1001
0002
0003
,
1000
0000
0100
0000
1000
0001
1000
0001
,
0010
0101
0002
0003
,
1000
0100
1000
0000
0020
0000
0030
0000
,
1010
1010
2000
3000
,
0001
0000
1000
0000
0100
0010
0001
0100
,
0010
1010
2000
3000
,
0001
0100
0010
1000
0100
0000
0000
0000
,
1000
0001
0010
0000
1000
0001
0010
0000
,
1000
0001
0010
0001
0010
0001
0010
0001
,
1000
1010
2000
3000
,
0001
0100
0010
0100
0001
0000
0000
0000
,
1000
0100
0010
0000
1000
0100
0010
0000
,
1000
0100
0010
0100
1000
0100
0010
0100
,
1000
1001
0002
0003
,
1000
0100
0010
0001
0200
0000
0300
0000
,
0010
0000
0000
0000
;
