#TITLE:LION EDDIE;
#SUBTITLE:;
#ARTIST:ME & MY;
#TITLETRANSLIT:;
#SUBTITLETRANSLIT:;
#ARTISTTRANSLIT:;
#CREDIT:;
#BANNER:LION EDDIE.png;
#BACKGROUND:LION EDDIE-bg.png;
#LYRICSPATH:;
#CDTITLE:Dancemania 2.png;
#MUSIC:LION EDDIE - ME & MY.mp3;
#OFFSET:-8.720;
#SAMPLESTART:31.482;
#SAMPLELENGTH:12.000;
#SELECTABLE:YES;
#BPMS:0.000=136.000;
#STOPS:;
#BGCHANGES:;

//---------------dance-single - ----------------
#NOTES:
     dance-single:
     :
     Hard:
     7:
     0.406,0.366,0.065,0.000,0.212: // measure 1
1001
0000
0001
0100
0010
0000
0010
0000
,  // measure 2
1000
0000
0001
0010
0100
0000
0100
0000
,  // measure 3
0010
0000
0001
1000
0100
0000
0100
0000
,  // measure 4
1001
0000
0010
0100
0001
0000
0001
0000
,  // measure 5
0010
0000
0000
0000
,  // measure 6
0001
1100
1010
0001
,  // measure 7
0100
0000
0010
1000
,  // measure 8
0100
1000
1010
1001
,  // measure 9
0100
0000
0001
0100
,  // measure 10
0010
1000
1000
1000
,  // measure 11
0001
0100
1000
0010
,  // measure 12
1000
0000
0000
0100
,  // measure 13
0010
0001
0000
0000
,  // measure 14
1000
0100
0010
0010
0001
0100
0010
0010
,  // measure 15
1000
0100
1000
0001
0010
0000
0010
0000
,  // measure 16
0001
0100
0010
0010
1000
0100
1000
1000
,  // measure 17
0001
0100
0010
1000
0100
0000
0100
0000
,  // measure 18
1000
0010
0100
0100
0001
0010
0001
0001
,  // measure 19
1000
0010
0100
0001
0010
0000
0010
0000
,  // measure 20
0001
0100
0010
0010
1000
0100
1000
1000
,  // measure 21
0100
1000
0001
0010
0100
0000
0100
0000
,  // measure 22
0010
0000
0000
0001
0000
0000
0100
0000
0000
0010
0000
0000
1000
0000
0100
0000
,  // measure 23
0010
0000
0000
0001
0000
0000
0100
0000
0000
0010
0000
0000
1000
0100
1000
0100
,  // measure 24
1000
0000
0000
0010
0000
0000
0100
0000
0000
0001
0000
0000
0010
0000
0001
0000
,  // measure 25
0100
0000
0000
0010
0000
0000
1000
0000
0000
0100
0000
0000
1000
0000
1000
0000
,  // measure 26
0001
0000
0000
0010
0000
0000
0001
0000
0000
0100
0000
0000
0010
0000
1000
0000
,  // measure 27
0100
0000
0000
1000
0000
0000
0010
0000
0000
0100
0000
0000
0001
0010
0001
0010
,  // measure 28
0001
0000
0000
0100
0000
0000
0010
0000
0000
1000
0000
0000
0100
0000
1000
0000
,  // measure 29
0001
0000
0000
0001
0000
0000
0001
0000
0000
0100
0000
0000
0010
0000
0000
0000
,  // measure 30
0010
1000
0100
1000
0010
1000
0100
0000
,  // measure 31
1000
0000
1000
0000
0001
0100
1000
0000
,  // measure 32
0100
0010
1000
0100
0010
0100
1000
0010
,  // measure 33
0100
0000
0100
0000
0001
0010
1000
0000
,  // measure 34
0010
0001
0100
0010
1000
0001
0010
0000
,  // measure 35
0001
0000
0001
0000
1000
0100
0001
0000
,  // measure 36
0100
1000
0010
0100
0001
0010
0001
0100
,  // measure 37
0010
0000
0010
0000
1000
0100
0001
0000
,  // measure 38
0100
0000
0000
1000
0000
0000
0010
0000
0000
0100
0000
0000
0010
0000
1000
0000
,  // measure 39
0100
0000
0000
1000
0000
0000
0001
0000
0100
0000
0000
0000
0001
0000
0000
0000
,  // measure 40
0010
0000
0000
0010
0001
0000
0000
0001
0100
0000
0000
0100
0010
0000
0000
0010
,  // measure 41
1000
0000
0000
0100
0000
0000
1000
0000
0000
0010
0000
0000
0100
0000
0100
0000
,  // measure 42
0001
0000
0000
1000
0000
0000
0100
0000
0000
0010
0000
0000
0001
0000
0100
0000
,  // measure 43
0010
0000
0000
1000
0000
0000
0100
0000
0000
1000
0000
0000
0010
0000
0100
0000
,  // measure 44
0001
0000
0000
0001
0010
0000
0000
0010
0001
0000
0000
0001
0100
0000
0000
0100
,  // measure 45
0010
0000
0000
1000
0000
0000
0100
0000
0000
1000
0000
0000
0001
0000
0010
0000
,  // measure 46
0100
0000
0000
0000
;

//---------------dance-single - ----------------
#NOTES:
     dance-single:
     :
     Easy:
     3:
     0.253,0.220,0.098,0.000,0.000:
1000
0000
0100
1000
,
0001
0000
0010
0001
,
0100
0000
0010
1000
,
0001
0000
0010
0001
,
0100
0000
0000
0000
,
0000
0001
0100
0000
,
0100
0010
1000
0100
,
1000
0001
0010
0000
,
0001
0100
0010
1000
,
0100
0000
1000
0000
,
1000
0001
0100
0010
,
1000
0100
0000
1000
,
0010
0000
0000
0000
,
1000
0001
0010
0100
,
0001
0000
1010
0001
,
0100
0010
1000
0100
,
1000
0000
0110
0001
,
1000
0100
1000
0010
,
0100
0000
0011
1000
,
0010
0100
0001
1000
,
0100
0000
1001
0100
,
0010
0010
0010
0010
,
1000
1000
1000
1000
,
0010
0010
0010
0010
,
0100
0100
0100
0100
,
0001
0001
1000
1000
,
0100
0100
1000
1000
,
0100
0100
1000
1000
,
0010
0000
0000
0000
,
1000
0001
0100
0010
,
1000
0000
0011
1000
,
0010
0100
0001
1000
,
0100
0000
1010
0001
,
1000
0100
0010
0001
,
0100
0000
1010
0100
,
0001
0010
0100
1000
,
0010
0000
0110
0001
,
1000
1000
1000
1000
,
0010
0010
0010
0010
,
0100
0001
0100
0001
,
1000
0010
0100
0001
,
1000
1000
1000
1000
,
0001
0001
0001
0001
,
0100
0010
1000
0010
,
1000
0010
0100
0001
,
1001
0000
0000
0000
;

//---------------dance-single - Copied from----------------
#NOTES:
     dance-single:
     Copied from:
     Medium:
     5:
     0.346,0.317,0.098,0.000,0.022:
1001
0000
0000
1000
0100
0000
1000
0000
,
0000
0000
0000
0001
0100
0000
0010
0000
,
1001
0000
0000
0100
0010
0000
1000
0000
,
1001
0000
0000
0001
0100
0000
0010
0000
,
1000
0000
0000
0000
,
1000
0100
1000
0000
0001
0000
0001
0000
,
1000
0100
1000
0000
0010
0000
0100
0000
,
0001
0000
1000
0000
0001
0100
0001
0000
,
1000
0000
1000
0000
0010
0000
0100
0001
,
0010
0100
0100
0100
,
1000
0010
1000
0000
0001
0100
0010
0000
,
1000
0000
0100
0000
0000
0000
1000
0100
,
0001
1000
0000
0000
,
1001
0000
0010
0100
0001
0000
0001
0100
,
0010
0010
1000
1000
,
0100
0010
0001
0000
1000
0000
0001
0100
,
0010
0000
0010
0000
1010
0001
0100
0000
,
0010
1000
0001
0000
0010
1000
0001
0000
,
0100
0000
0100
0000
0001
0010
0100
0000
,
1000
0000
1000
0000
0010
0100
0001
0000
,
1000
0000
0001
0000
1010
0001
0100
0000
,
0010
1000
0100
0001
,
0010
0000
1000
0000
0001
0000
1000
0010
,
1000
0100
0001
0010
,
1000
0000
0100
0000
1000
0000
0010
0100
,
0001
1000
0100
0010
,
0001
0000
1000
0000
0010
0000
0100
0001
,
1000
0000
0010
0000
0100
0000
0001
0010
,
1000
0100
1000
0010
,
0100
0001
0100
0000
0010
1000
0001
0000
,
0100
0100
0001
0001
,
1000
0100
1000
0000
0010
0100
0001
0000
,
1000
0000
1000
0000
0110
0001
0100
0000
,
0010
1000
0100
0000
0010
1000
0100
0000
,
0001
0010
1000
0100
,
1000
0010
1000
0000
0001
0100
0010
0000
,
1000
0000
1000
0000
0011
1000
0010
0000
,
0100
0001
0010
0001
,
1000
0000
0010
0000
0100
0001
1000
0000
,
0010
0000
0000
1000
0010
0000
0000
0000
0100
0000
0000
0001
0100
0000
0000
0000
,
0010
0000
1000
0000
0100
0000
1000
0010
,
1000
0000
0001
0000
0100
0000
0010
1000
,
0100
0000
0010
0000
0001
0000
0100
0010
,
1000
0000
0000
0001
0100
0000
0000
0000
0010
0000
0000
1000
0100
0000
0000
0000
,
1000
0000
0010
0000
0100
0000
0001
0100
,
1010
0000
0000
0000
;
