#TITLE:KI☆SE☆KI☆;
#SUBTITLE:;
#ARTIST:4 SKIPS vs. FLOORBREAKER;
#TITLETRANSLIT:KI SE KI;
#SUBTITLETRANSLIT:;
#ARTISTTRANSLIT:;
#CREDIT:;
#BANNER:KI SE KI.png;
#BACKGROUND:KI SE KI-bg.png;
#LYRICSPATH:;
#CDTITLE:HIME TRANCE.png;
#MUSIC:KI SE KI.mp3;
#OFFSET:-0.454;
#SAMPLESTART:20.274;
#SAMPLELENGTH:13.000;
#SELECTABLE:YES;
#BPMS:0.000=145.010,79.500=72.505,81.000=145.010;
#STOPS:79.500=2.276
;
#BGCHANGES:;

//---------------dance-single - ----------------
#NOTES:
     dance-single:
     :
     Hard:
     9:
     0.520,0.573,0.185,0.000,0.376:
0000
0000
0000
0000
,
0000
0000
0000
0000
,
0000
0000
0000
0000
,
0000
0000
0000
0000
,
1000
0000
1000
0000
0001
0010
0000
0010
,
0001
0000
0001
0100
0000
0100
0010
0000
,
1000
0000
1000
0000
0001
0010
0000
0010
,
0100
0000
1000
0000
0010
0100
0001
0000
,
1000
0000
1000
0000
0001
0010
0000
0010
,
0001
0000
1000
0010
0000
0010
1000
0000
,
0001
0010
0001
0000
0000
1000
0010
1000
,
0001
0010
0100
1000
0000
0000
0000
0000
,
0001
0001
1000
1000
0010
0100
0000
0100
,
0010
0010
0100
0100
0000
0001
1000
0001
,
0010
0010
0001
0001
0010
0001
0010
0000
,
0011
0000
1010
0000
0100
0001
1000
0000
,
0100
0100
1000
1000
0100
1000
0000
1000
,
0001
0001
0100
0100
0000
0001
0100
0001
,
0010
0100
1000
0000
0000
0100
0010
0001
,
1000
0010
0100
0001
0010
0100
1000
0001
,
0000
0000
0000
0000
1000
0010
0000
0010
1000
0000
0001
0010
0000
0010
0000
0010
,
0001
1000
0010
0000
0100
0000
0000
0010
,
0100
0000
0000
0000
0001
0010
0000
0010
0001
0000
1000
0100
0000
0100
0000
0100
,
1000
0010
0100
0000
0010
0000
0000
0100
,
0010
0000
0000
0000
0101
0000
0000
1100
0000
0000
0101
0000
1100
0000
0000
0000
,
0000
0000
0000
0000
1010
0000
0000
0011
0000
0000
1010
0000
0011
0000
0000
0000
,
0000
1100
0000
0101
,
0000
0011
0000
1010
,
0000
0000
1000
0001
1000
0001
1000
0001
,
1000
0000
0001
0000
0010
0100
0010
0100
0010
0100
0010
0100
0010
0100
0010
0100
,
0010
0100
0010
0100
0010
0000
0000
0000
0001
0000
0000
0000
0000
0000
0010
0000
,
0100
0000
0000
0000
1000
0100
0000
0100
1000
0000
0001
0010
0000
0001
0000
0010
,
0001
0000
1000
0000
0010
0100
0000
0100
0010
0000
1000
0001
0000
1000
0000
0001
,
1000
0000
0100
0000
0010
0001
0000
0001
0010
0000
0100
1000
0000
0100
0000
1000
,
0100
0000
1000
0000
0010
1000
0000
1000
0001
0000
0010
0001
0000
1000
0000
0001
,
0010
0000
0100
0000
1000
0010
0000
0010
1000
0000
0001
0100
0000
0001
0000
0100
,
0001
0000
0010
0000
0100
1000
0000
1000
0100
0000
1000
0001
0000
1000
0000
0001
,
1000
0000
0010
0000
0100
0001
0000
0001
1000
0000
1000
0100
0000
1000
0000
0010
,
0100
0000
0001
0000
0010
0001
0000
0010
0001
0000
0010
0001
0000
0010
0000
0001
,
0100
0010
1000
1000
0001
0001
0010
0100
,
0000
0100
0010
0001
1000
0010
0000
0100
,
0001
0100
0001
0001
1000
1000
0001
0010
,
0001
0000
1010
0000
1100
0000
0100
1000
,
0010
0000
1000
1000
0001
0001
1000
0010
,
0000
0010
1000
1000
0001
0001
0000
1000
,
0001
0100
0010
1000
0001
0000
0000
0010
,
0001
0000
0010
0000
0100
1000
0000
1000
0001
0000
0001
0100
0000
0001
0000
0100
,
0001
0010
0100
0000
0000
0000
0000
0000
;

//---------------dance-single - ----------------
#NOTES:
     dance-single:
     :
     Medium:
     6:
     0.398,0.432,0.578,0.012,0.000:
0000
0000
0000
0000
,
0000
0000
0000
0000
,
0000
0000
0000
0000
,
0000
0000
0000
0000
,
1000
0000
0001
0000
0010
0100
1000
0000
,
0001
0001
1000
0001
0000
1000
0001
1000
,
0001
0000
1000
0000
0010
0100
0010
0000
,
1010
1010
0101
1010
,
0001
0000
1000
0000
0100
0010
0001
0000
,
1000
1000
0001
1000
0000
0001
1000
0001
,
1000
0000
0010
0000
0000
1000
0010
1000
,
0001
0100
0001
1000
0000
0000
0000
0000
,
0011
0000
0100
0000
1000
0001
0100
0000
,
1010
0000
0001
0100
0000
0100
0001
0000
,
1001
0000
0100
0000
0010
0001
0100
0000
,
0012
1000
0010
1003
,
1010
0000
0100
0000
0001
1000
0100
0000
,
0110
0000
0001
1000
0000
1000
0001
0000
,
0011
1100
0000
0010
,
1001
0000
0100
0000
0010
1000
0001
0100
,
0000
0000
1001
0000
0100
0000
0001
0010
,
0001
0010
0001
0000
1000
0000
0000
0000
,
1001
0000
1001
0000
0010
0000
0100
0001
,
0100
0001
0100
0000
0001
0000
0000
0000
,
0101
1001
0100
1001
,
0000
1001
0010
1001
,
0000
1100
0000
0101
,
0000
1010
0000
0011
,
0000
1001
0110
1001
,
0110
1001
0110
1001
,
0110
0001
0010
0000
,
0001
0000
1000
0000
1000
0000
0001
0010
,
0001
0000
0010
0000
0010
0000
0100
1000
,
0100
1000
0100
0000
0100
0000
0010
0001
,
0010
0000
0001
0000
0001
0000
0100
0010
,
0100
0010
0100
0000
1001
0000
0100
0000
,
1001
0001
0110
1000
,
0110
0001
1100
1000
,
0101
0001
0010
0100
,
0000
0000
1001
0000
0100
0000
0010
0001
,
0010
1001
0100
0000
,
0010
0000
1001
0000
0100
0000
0010
0001
,
0010
0000
1001
0000
0100
0000
0010
1000
,
0001
0000
0011
0000
0100
0000
1000
0001
,
1000
0000
1001
0000
0100
0010
0100
0000
,
0010
0101
0010
0000
,
1100
0101
1100
0101
;

//---------------dance-single - ----------------
#NOTES:
     dance-single:
     :
     Easy:
     3:
     0.228,0.243,0.046,0.000,0.000:
0000
0000
0000
0000
,
0000
0000
0000
0000
,
0000
0000
0000
0000
,
0000
0000
0000
0000
,
1000
1000
1000
0000
,
0001
0000
0010
0000
,
0100
0100
0100
0000
,
1000
0010
0100
0001
,
1000
1000
1000
0000
,
0001
0000
0010
0000
,
0100
0000
0000
0000
,
1000
0010
0100
0001
,
1000
1000
0001
0001
,
1000
0001
1000
0000
,
0010
0010
0100
0100
,
0010
0100
0010
0000
,
0001
0001
0010
0000
,
0100
0100
1000
0000
,
0010
1000
0000
0001
,
0100
0001
1000
0010
,
0000
1000
1000
0001
,
0001
1000
0000
0000
,
0000
0010
0010
0100
,
0100
0010
0000
0000
,
1000
0001
0010
0100
,
0000
0001
0010
0100
,
0000
0001
0000
0010
,
0000
0100
0000
1000
,
0000
0001
0010
0100
,
1000
0001
0010
0100
,
1000
0001
0100
0000
,
0101
1000
1000
0001
,
0001
1000
0010
0100
,
0100
0001
0001
0010
,
0010
0001
1000
0100
,
1000
0010
0010
1000
,
1000
0100
1000
0100
,
0100
0010
0010
0001
,
0001
1000
1000
1000
,
1000
0001
1000
0001
,
0000
0100
0000
0100
,
0000
0010
1000
0010
,
0000
0101
0101
0101
,
0000
1000
0000
1000
,
0000
0001
0010
0001
,
0000
1000
0000
0000
,
1000
0001
0010
0100
;

//---------------dance-single - ----------------
#NOTES:
     dance-single:
     :
     Beginner:
     1:
     0.125,0.216,0.092,0.000,0.000: // measure 1
0000
0000
0000
0000
,  // measure 2
0000
0000
0000
0000
,  // measure 3
0000
0000
0000
0000
,  // measure 4
0000
0000
0000
0000
,  // measure 5
1000
0000
1000
0000
,  // measure 6
0001
0000
0000
0000
,  // measure 7
0010
0000
0010
0000
,  // measure 8
0100
0000
0000
0000
,  // measure 9
1000
0000
1000
0000
,  // measure 10
0001
0000
0000
0000
,  // measure 11
0100
0000
0000
0000
,  // measure 12
0010
0010
0010
0000
,  // measure 13
1000
0000
0000
0000
,  // measure 14
0001
0000
0000
0000
,  // measure 15
0010
0000
0000
0000
,  // measure 16
0001
0001
0001
0000
,  // measure 17
1000
0000
0000
0000
,  // measure 18
0010
0000
0000
0000
,  // measure 19
1000
0000
0000
0000
,  // measure 20
0001
0000
0001
0001
,  // measure 21
0000
1001
0000
0000
,  // measure 22
0000
0100
0000
0100
,  // measure 23
0000
1001
0000
0000
,  // measure 24
0000
0010
0000
0010
,  // measure 25
0000
1001
0000
0000
,  // measure 26
0000
1001
0000
0000
,  // measure 27
0000
1001
0000
1001
,  // measure 28
0000
1001
0000
1001
,  // measure 29
0000
0001
0001
0001
,  // measure 30
0000
0001
0001
0001
,  // measure 31
0000
1000
0000
0000
,  // measure 32
0000
0010
0000
0000
,  // measure 33
0000
0100
0000
0000
,  // measure 34
0000
0001
0000
0000
,  // measure 35
0000
1000
0000
0000
,  // measure 36
0000
0010
0000
0000
,  // measure 37
0000
1000
0000
0000
,  // measure 38
0000
0100
0000
0100
,  // measure 39
0000
0010
0000
0000
,  // measure 40
0000
0001
0001
0001
,  // measure 41
0000
1000
0000
0000
,  // measure 42
0000
0010
0000
0010
,  // measure 43
0000
0100
0000
0000
,  // measure 44
0000
1000
1000
1000
,  // measure 45
0000
0001
0000
0000
,  // measure 46
0000
0010
0000
0000
,  // measure 47
0000
0100
0100
0100
;
