#TITLE:イマ コノ トキ ダケ;
#SUBTITLE:;
#ARTIST:尼崎まゆみ;
#TITLETRANSLIT:Ima kono toki dake;
#SUBTITLETRANSLIT:;
#ARTISTTRANSLIT:Amasaki Mayumi;
#CREDIT:;
#BANNER:Ima kono toki dake.png;
#BACKGROUND:Ima kono toki dake-bg.png;
#LYRICSPATH:;
#CDTITLE:Hime Trance Speed.png;
#MUSIC:Ima kono toki dake.mp3;
#OFFSET:-0.808;
#SAMPLESTART:62.080;
#SAMPLELENGTH:11.980;
#SELECTABLE:YES;
#BPMS:0.000=160.000;
#STOPS:94.750=0.375
;
#BGCHANGES:0.750=1.avi=1.000=1=0=1,
63.250=2.avi=1.000=1=0=1,
263.000=3.avi=1.000=1=0=1,
99999=-nosongbg-=1.000=0=0=0 // don't automatically add -songbackground-
;

//---------------dance-single - ----------------
#NOTES:
     dance-single:
     :
     Easy:
     4:
     0.245,0.323,0.265,0.179,0.004:
0000
0000
0000
0000
,
0000
0000
0000
0000
,
0000
0000
0000
0000
,
0000
0000
0000
0000
,
0110
0000
0000
0000
,
0020
0000
0000
0030
,
0200
0000
0000
0300
,
1001
0000
0000
0000
,
0110
0000
0000
0000
,
0000
0000
0000
0000
,
0010
0000
0000
0000
,
0000
0000
0000
0000
,
1001
0000
0000
0000
,
0000
0000
0000
0000
,
0001
0000
0000
0000
,
1100
0000
0011
0000
,
1000
0001
0010
0000
,
0010
0001
1000
0010
,
1000
0001
0010
0000
,
0100
0000
0100
0000
,
1000
0000
1000
0000
,
0001
0000
0001
0000
,
0100
0000
0100
0000
,
0010
0000
0000
0000
0000
0000
0000
0000
1000
0000
0000
1001
0000
0000
0000
0000
,
0100
0001
0100
0000
,
0001
1000
0100
1000
,
0001
0100
0000
0001
,
0000
0001
0000
0010
,
0000
0010
0000
1000
,
0000
1000
0000
0010
,
0000
0010
0000
0100
,
0000
1001
1001
0110
,
0001
0100
0000
0110
,
1000
0100
0000
0011
,
0001
1000
0010
0001
,
0010
0100
0000
1001
,
0100
0010
0000
1001
,
0100
0010
0000
1010
,
1000
0100
0001
0100
,
0010
0001
1000
0020
,
0000
0000
0030
2100
,
0100
3100
0000
0001
,
0010
0001
0000
0102
,
0100
0103
0000
0010
,
0100
1001
0000
0010
,
0001
0110
1001
0100
,
0100
0100
0000
0002
,
0003
2000
3000
0220
,
0330
0000
0000
0201
,
0001
0301
0000
1000
,
0100
1000
0000
2010
,
0010
3010
0000
0001
,
1000
0110
0000
0001
,
0100
0101
1100
0001
,
0001
0001
0000
2000
,
3000
0020
0030
2002
,
3003
0000
0000
0002
,
0003
0020
0030
2002
,
3003
0000
0000
1000
,
0100
0010
0000
0100
,
0000
0001
0000
1000
,
0001
0100
0000
0010
,
0000
1000
0000
0001
,
0100
1000
0000
0010
,
0000
0100
0000
0001
,
0010
0100
0000
1000
,
1001
0010
1100
0202
,
0000
0000
0000
0000
,
0000
0000
0000
0303
;

//---------------dance-single - ----------------
#NOTES:
     dance-single:
     :
     Hard:
     9:
     0.516,0.588,0.231,0.171,0.209: // measure 1
0000
0000
0000
0000
,  // measure 2
0000
0000
0000
0000
,  // measure 3
0000
0000
0000
0000
,  // measure 4
0000
0000
0000
0000
,  // measure 5
1001
0010
0001
1000
,  // measure 6
0001
0000
0100
0010
0000
0100
0010
0000
0000
0000
0000
0000
1000
0000
0001
0100
,  // measure 7
0000
0000
0000
0000
0001
0000
1000
0100
0000
0000
0000
0000
0010
0000
0100
0020
,  // measure 8
0000
0000
0000
0130
,  // measure 9
1001
0000
0001
0000
1000
0100
1000
0000
,  // measure 10
0010
0000
0010
0000
0001
1000
0001
0000
,  // measure 11
1000
0000
0010
0000
0100
0001
1000
0000
,  // measure 12
0001
0000
0010
0000
0001
1000
0100
0000
,  // measure 13
1001
0000
0000
0000
0010
0000
0000
0000
1000
0000
0000
0001
0000
0000
0100
0000
,  // measure 14
0110
0000
0000
0000
0001
0000
0000
0000
1000
0000
0000
0100
0000
0000
0010
0000
,  // measure 15
0011
0000
0000
0001
0000
0000
0100
0000
0001
0000
0000
1000
0000
0000
0100
0000
,  // measure 16
0010
0000
0000
0100
0000
0000
0010
0000
0001
0000
0000
1000
0000
0000
0010
0000
,  // measure 17
1000
0100
1000
0001
1000
0010
0100
0001
,  // measure 18
0010
0100
1000
0010
0100
0010
0100
0001
,  // measure 19
0010
0000
0001
0200
0000
0000
0300
0000
,  // measure 20
0110
0000
1010
0000
0100
1000
0010
0000
,  // measure 21
0100
0001
0010
0000
0001
0000
0001
0000
,  // measure 22
0200
0000
0010
0310
0000
1001
0000
0000
,  // measure 23
1100
0000
0001
0100
0001
0000
1000
0100
,  // measure 24
1000
0000
0000
0000
0110
0000
0000
0000
0001
1000
0000
0001
0000
0000
1000
0000
,  // measure 25
0100
1000
0010
0100
0001
0010
0001
1000
,  // measure 26
0001
0100
0010
1000
0100
0010
0001
0000
,  // measure 27
0100
0020
0000
0000
0030
0000
0011
0000
,  // measure 28
1001
0000
0100
0001
0010
0000
0100
1000
,  // measure 29
0010
1000
1000
0002
,  // measure 30
0010
0013
0000
1001
0000
0000
0011
0000
,  // measure 31
1000
0100
0010
0000
0001
0100
1000
0000
,  // measure 32
0100
0000
0010
0100
0010
0100
0110
0000
,  // measure 33
0101
0000
0010
0001
1000
0010
0001
0000
,  // measure 34
0110
0000
1000
0100
0010
0001
1000
0000
,  // measure 35
1010
0000
0000
0000
0001
0000
0000
0000
0101
0000
0000
0000
0010
0000
0000
0010
,  // measure 36
0000
0010
1000
0100
0001
0100
1000
0010
,  // measure 37
0100
0001
0010
0000
1001
0000
0100
1000
,  // measure 38
0001
0010
1000
0000
0110
0000
0010
0001
,  // measure 39
1000
0000
0010
0000
1000
0001
1000
0000
0010
0000
0100
0000
0001
1000
0001
0000
,  // measure 40
0100
0000
0010
0000
1000
0001
1000
0000
0010
0100
0010
0000
2002
0000
0000
0000
,  // measure 41
0000
0000
0000
0000
3003
0000
0010
0001
,  // measure 42
1000
0000
1000
0000
0001
0000
0010
0000
0000
0000
0100
0000
1000
0000
0001
0100
,  // measure 43
0000
0010
1000
0000
0000
0000
0000
0000
0110
0000
0000
0000
1000
0000
0100
0000
,  // measure 44
0010
0000
0010
0000
0100
0000
1000
0000
0000
0000
0010
0000
0100
0000
0001
1000
,  // measure 45
0000
0100
0010
0000
0000
0000
0000
0000
0011
0000
0000
0000
1000
0000
0001
0000
,  // measure 46
0100
0000
0100
0000
0001
0000
1000
0000
0000
0000
0100
0000
0010
0000
0001
1000
,  // measure 47
0000
0010
0100
0000
0000
0000
0000
0000
0001
0000
0100
0002
0000
0000
0000
0000
,  // measure 48
1003
0000
0100
2000
0000
0000
0000
0000
3001
0000
0100
0020
0000
0000
0000
0000
,  // measure 49
0000
0000
0000
0030
0000
0001
1000
0010
,  // measure 50
0010
0000
0100
0000
0001
0000
1000
0000
1000
0000
0001
0000
1000
0000
0010
0100
,  // measure 51
0000
0010
0100
0000
0000
0000
1000
0000
0001
0000
0000
0000
0100
0000
0010
0000
,  // measure 52
0010
0000
1000
0000
0100
0000
0010
0000
0010
0000
0001
0000
1000
0000
0001
1000
,  // measure 53
0000
0001
1000
0000
0000
0000
0100
0000
0010
0000
0000
0000
0001
0000
0100
0000
,  // measure 54
0100
0000
1000
0000
0100
0000
0010
0000
0010
0000
1000
0000
0100
0000
0010
0001
,  // measure 55
0000
0010
0001
0000
0000
0000
0000
0000
1000
0000
0010
0200
0000
0000
0000
0000
,  // measure 56
0301
0000
0010
0200
0000
0000
0000
0000
0310
0000
0001
1000
0100
0000
0000
0001
,  // measure 57
0000
0000
0100
0000
0000
0010
0000
0000
0001
0000
1000
0020
0000
0000
0000
0000
,  // measure 58
0130
0000
0001
0020
0000
0000
0000
0000
0130
0000
1000
0001
0100
0000
0000
1000
,  // measure 59
0000
0000
0100
0000
0000
0001
0000
0000
0100
0000
0010
0000
1000
0000
0000
0000
,  // measure 60
0100
0001
0010
0000
1000
0010
0100
0000
,  // measure 61
0010
0000
0001
0000
0100
0000
0000
0000
1010
0000
0000
0000
0101
0000
0000
0010
,  // measure 62
0000
0000
1000
0000
0001
0000
0000
0010
0000
0000
1000
0000
0010
0000
0000
0100
,  // measure 63
0000
0000
0001
0000
0000
0100
0000
0000
1000
0000
0010
0000
0100
0000
0001
0000
,  // measure 64
0010
0000
0100
0000
1000
0000
0010
0000
0100
0000
0001
0000
0010
0000
0001
1000
,  // measure 65
0000
0001
1000
0000
0000
0000
0000
0000
0200
0000
0010
0000
0310
0000
0000
0000
,  // measure 66
2000
0001
3001
0000
0020
0100
0130
0000
,  // measure 67
0002
1000
1003
0010
0100
0010
2002
0000
,  // measure 68
0000
0000
0000
0000
,  // measure 69
0000
0000
0000
3003
;

//---------------dance-double - ----------------
#NOTES:
     dance-double:
     :
     Hard:
     9:
     0.519,0.529,0.179,0.094,0.162:
00000000
00000000
00000000
00000000
,
00000000
00000000
00000000
00000000
,
00000000
00000000
00000000
00000000
,
00000000
00000000
00000000
00000000
00000000
00000000
00000000
00000000
00000000
00000000
00000000
00000000
00000000
00000000
10000000
01000000
,
10000000
00000000
00010000
00000000
01000000
00000000
00100000
00000000
10000000
00000000
01000000
00100000
00000000
00000000
00000000
00000000
,
00001000
00000000
00000000
00010000
00000000
00000000
00011000
00000000
00000000
00000000
00000000
00000000
00001000
00000000
00000000
00000010
,
00000000
00000000
00000000
00000000
00000001
00000000
00000000
00000100
00000000
00000000
00000000
00000000
00000101
00000000
00000000
00000000
,
00001100
00000000
00000000
00000001
00000000
00000000
00000010
00000000
00000000
00001000
00000000
00000000
00010000
00000000
00100000
00000000
,
10000000
00000000
00100000
00100000
,
01000000
00000000
00000000
00000000
00010000
00000000
00000000
10000000
,
00010000
00000000
00000000
00000000
,
10010000
00000000
01000000
00000000
01000000
00000000
00000000
00001000
,
00010000
00000000
00000000
00000000
,
00000110
00000000
00001000
00000000
00001000
00000000
00000000
00000100
,
00000010
00000000
00000000
00000001
00000000
00000000
00001000
00000000
00000010
00000000
00000000
00000100
00000000
00000000
00000001
00000000
,
00000010
00000000
00000000
00001000
00000000
00000000
00010000
00000000
00001000
00000000
00000000
00000100
00000000
00000000
00000010
00000000
,
00001000
00000100
00001000
00000000
00000001
00000100
00001000
00000000
,
00000100
00000010
00001000
00010000
01000000
00100000
10000000
00000000
,
00020000
00000000
00000000
00000000
01030000
00000000
01100000
00000000
00000000
00000000
00000000
00000000
10000000
00000000
00100000
01000000
,
00000000
00000000
00001000
00010000
00000000
00000000
00000010
00001000
00000010
00000000
00001000
00000000
00000010
00000000
00000100
00000000
,
00000001
00000000
00000000
00000000
00000000
00000010
00000001
00000020
,
00000000
00000030
00000100
00001000
00000000
00000020
00000000
00000000
,
00010030
00001000
00100000
00000000
00010000
10000000
01000000
00100000
,
00000000
00000000
00000000
00000000
00110000
00000000
00000000
00000000
10000000
01000000
00000000
00100000
00000000
00000000
00001000
00000000
,
00010000
00001000
00000010
00000001
00000000
00000100
00000001
00000100
,
00000000
00000010
00001000
00000100
00010000
00100000
20000000
00000000
,
30010000
00000000
01010000
00000000
00000000
00000000
00000000
00000000
00001000
00000000
00010000
00001000
00000000
00000000
00000010
00000001
,
00000000
00000000
00001000
00000001
00001000
00000000
00000010
00000000
00000100
00000000
00000001
00000000
00000010
00000000
00000000
00000000
,
00000000
00000000
00000000
00001000
00000100
00020000
00000000
00030000
,
00001000
00001000
00000000
02000000
00000000
00000000
03010000
00100000
,
01000000
00000000
10000000
01000000
00100000
00010000
01000000
00000000
,
00011000
00000000
00000010
00000001
00000100
00000001
00000010
00000000
,
00000011
00000000
00001000
00000010
00000001
00000010
00001000
00000000
,
00001100
00000000
00000010
00001000
00010000
01000000
00100000
00000000
,
00120000
01030000
21000000
30100000
,
01000000
00001000
00010000
00000100
00000010
00000001
00001000
00000010
,
00000100
00000010
00001000
00000000
00000101
00000000
00000010
00001000
,
00010000
00100000
10000000
00000000
01100000
00000000
00010000
00100000
,
10000000
00000000
00100000
00000000
00010000
00000000
01000000
00000000
00001000
00000000
00010000
00000000
00000100
00001000
00000100
00000000
,
00000010
00000000
00000001
00000000
00000100
00000010
00000100
00000000
00001000
00000000
00010000
00000000
00022000
00000000
00000000
00000000
,
00000000
00000000
00000000
00000000
00033000
00011000
00010000
00010000
,
00001000
00001000
01000000
00010000
00100000
01000000
10000000
01000000
,
00100000
01000000
00010000
00000000
00011000
00000000
00001000
00001000
,
00010000
00010000
00001000
00000100
00000010
00000100
00000001
00000100
,
00000010
00001000
00000100
00000000
00000011
00000000
00001000
00000100
,
00001000
00000010
00000100
00000001
00000010
00001000
00010000
00010000
,
00100000
00000000
00100000
00000000
01000000
00000000
00000000
00000000
00010000
00000000
00100000
00010000
00100000
00000000
01000000
00000000
,
10000000
00000000
00010000
10000000
00010000
00000000
00100000
00000000
00001000
00000000
00010000
00001000
00010000
00000000
00000000
00000100
,
00000000
00000000
00001000
00000000
00000000
00000100
00000000
00000000
00000001
00000000
00000100
00000000
00000010
00000000
00000010
00000000
,
00000001
00000001
00000100
00001000
00000100
00000010
00010000
00001000
,
00010000
01000000
00100000
00000000
01100000
00000000
01000000
01000000
,
10000000
10000000
00100000
01000000
00100000
00010000
00001000
00000100
,
00000010
00000100
00000001
00000000
00001100
00000000
00000010
00000001
,
00000100
00001000
00000100
00000010
00001000
00000100
00010000
00010000
,
00001000
00000000
00001000
00000000
01000000
00000000
00000000
00000000
00010000
00000000
00100000
00010000
00100000
00000000
00001000
00000000
,
00010000
00000000
00000100
00001000
00000100
00000000
00000010
00000000
00000001
00000000
00000100
00000010
00000100
00000000
00000000
00000001
,
00000000
00000000
00001000
00000000
00000000
00000100
00000000
00000000
00000010
00000000
00000100
00001000
00000100
00000000
00010000
00000000
,
00001000
00000000
00100000
00010000
00100000
00000000
01000000
00000000
10000000
00000000
00010000
10000000
00010000
00000000
00000000
01000000
,
00000000
00000000
00100000
00000000
00000000
10000000
00000000
00000000
00010000
00000000
01000000
00000000
00100000
00000000
10000000
00000000
,
01000000
00010000
01000000
10000000
01000000
00010000
01000000
00100000
,
00001000
00010000
00001000
00000100
00000001
00000000
00000100
00001000
,
00000100
00000001
00000100
00001000
00000100
00000001
00000100
00000010
,
00010000
00001000
00010000
01000000
10000000
00000000
00100000
01000000
,
00010000
00000000
00100000
00000000
01000000
00000000
10000000
00000000
00100000
00000000
01000000
00000000
00001000
00000000
00010000
00001000
,
00000000
00010000
00001000
00000000
00000000
00000000
00000000
00000000
00000100
00000000
00000001
00000000
00000100
00000000
00000000
00000000
,
00000001
00000100
00001000
00000000
00010000
00100000
00010000
00000000
,
00001000
00000010
00001000
00000000
00010000
00100000
20000000
00000000
,
00000000
00000000
00000000
00000000
,
00000000
00000000
00000000
30000000
;

//---------------dance-single - ----------------
#NOTES:
     dance-single:
     :
     Medium:
     7:
     0.431,0.439,0.316,0.273,0.090:
0000
0000
0000
0000
,
0000
0000
0000
0000
,
0000
0000
0000
0000
,
0000
0000
0000
0000
,
0011
0000
0100
1000
0010
0100
0001
0000
,
1000
0000
0000
0010
0000
0000
0110
0000
0000
0000
0000
0000
0001
0000
0000
0001
,
0000
0000
0000
0000
0100
0000
0000
0100
0000
0000
0000
0000
1000
0000
0000
2002
,
0000
0000
0000
3003
,
0010
0001
0100
0100
,
0010
0000
1000
0000
0100
0000
0010
0010
,
0002
0003
0110
0001
,
1000
0000
0100
0000
0010
0000
0100
0100
,
2000
3000
0101
0010
,
1000
0000
0100
0000
0001
0000
0010
0010
,
0100
0000
0000
0100
0000
0000
0100
0000
0010
0000
0000
0010
0000
0000
0010
0000
,
1000
0000
0000
1000
0000
0000
1000
0000
0001
0000
0000
0001
0000
0000
0001
0000
,
1000
0000
1010
0000
0001
1000
0001
0000
,
0100
0010
1000
0100
,
1000
0001
0000
2020
0000
3030
0000
0001
,
0000
0001
0000
1000
0100
0000
0010
0000
,
0202
0303
0001
1000
,
0001
0100
0010
0000
1000
0001
1000
0000
,
0001
0000
1000
0100
0000
0100
0000
0020
,
0000
0000
0030
0000
0000
0000
0000
0000
0001
0000
0000
1000
0000
0000
0000
0000
,
1100
0000
0010
0001
0010
0000
1000
0000
,
0001
0000
0200
0000
0310
0000
0010
1000
,
0100
2000
0000
3000
0000
0001
0000
0001
,
0000
1000
0100
0000
1000
0000
2020
0000
,
3030
0000
0001
0000
0100
0000
0010
1000
,
0100
0000
1000
0001
1000
0000
0001
0000
,
0100
0010
0000
1000
0000
1001
0000
0000
,
0000
0000
1000
0001
1000
0001
1000
0000
,
2100
0010
3010
0102
,
0010
0000
0013
0000
1000
0000
0010
1000
,
0010
1000
0001
0010
0001
0010
0100
0000
,
1100
0001
0101
1000
,
0012
1000
1003
0100
,
2010
0000
0001
0000
3001
0000
0100
0010
,
0100
0000
0001
1000
0001
0000
1000
0100
,
0010
0001
1000
0100
0010
0001
0200
0000
,
0000
0000
0300
0011
,
1001
0000
0100
0010
0100
0000
0002
0000
,
0100
1000
0103
1010
,
1001
0000
0100
0010
0100
0000
2000
0000
,
0100
0000
0001
0000
3100
0000
0010
0001
,
0100
0000
1001
0000
0101
0000
0010
1000
,
0020
0000
0000
0000
0130
0000
0000
0000
0001
0000
0000
0001
0000
0000
0000
0000
,
1000
0000
0000
1000
0000
0000
0000
0000
0010
0000
0000
2002
0000
0000
0000
0000
,
0000
0000
3003
1010
,
0101
0000
1000
0001
1000
0000
0012
0000
,
1000
0100
1003
0011
,
1100
0000
0001
1000
0001
0000
2100
0000
,
0001
0000
0100
0000
3001
0000
1000
0100
,
1000
0000
0011
0000
1010
0000
0001
1000
,
0002
0000
0000
0000
0103
0000
0000
0000
0001
0000
0000
0001
0000
0000
0000
0000
,
0100
0000
0000
0100
0000
0000
0000
0000
0020
0000
0000
0000
0031
0000
0000
0100
,
0000
0000
0010
0000
0000
1000
0000
0000
0001
0000
0000
0001
0000
0000
0000
0000
,
1000
0000
0000
1000
0000
0000
0000
0000
0200
0000
0000
0000
0310
0000
0000
1000
,
0000
0000
0001
0000
0000
0100
0000
0000
0010
0000
0000
0000
1000
0000
0100
0000
,
1000
0000
1000
0100
1000
0000
0001
0100
,
0001
0000
0001
0100
0001
0000
0200
0000
,
0310
0101
1100
0020
,
0130
0000
1100
0000
0101
0000
0010
0001
,
0010
0000
0000
0000
0100
0000
1000
0000
0100
0000
0000
0000
1000
0000
0000
0001
,
0000
0010
0000
0000
0100
1000
0000
0000
,
0100
0001
0000
0000
0100
1000
0000
0000
,
0001
1000
0001
0100
0010
0100
2002
0000
,
0000
0000
0000
0000
,
0000
0000
3003
0000
;

//---------------dance-single - ----------------
#NOTES:
     dance-single:
     :
     Beginner:
     1:
     0.160,0.257,0.162,0.000,0.000:
0000
0000
0000
0000
,
0000
0000
0000
0000
,
0000
0000
0000
0000
,
0000
0000
0000
0000
,
0010
0000
0000
0000
,
0100
0000
0000
0000
,
0010
0000
0000
0000
,
1001
0000
0000
0000
,
0010
0000
0000
0000
,
0000
0000
0000
0000
,
0010
0000
0000
0000
,
0000
0000
0000
0000
,
0010
0000
0000
0000
,
0000
0000
0000
0000
,
0010
0000
0000
0000
,
0001
0000
1000
0000
,
0010
0000
0010
0000
,
0001
0000
0001
0000
,
1000
0000
1000
0000
,
0000
0000
0000
0000
,
1000
0000
1000
0000
,
0001
0000
0001
0000
,
0100
0000
0100
0000
,
0010
0000
0010
0000
,
0000
0001
0000
0001
,
0000
1000
0000
1000
,
0000
0010
0000
0000
,
0000
0001
0000
0001
,
0000
0100
0000
0100
,
0000
0010
0000
0010
,
0000
1000
0000
1000
,
0000
0000
0000
0000
,
0001
0000
0000
0110
,
0110
0000
0000
1001
,
1001
0000
0000
0010
,
0010
0010
0000
0100
,
0000
0000
0000
1001
,
1001
0000
0000
0110
,
0110
0000
0001
0000
,
0001
0000
1000
1000
,
0000
0000
0000
0100
,
0100
0100
0000
0001
,
0000
0001
0000
0100
,
0100
0100
0000
1001
,
0000
1001
0000
0010
,
0010
0010
0000
0100
,
0100
0100
0000
0001
,
0000
1000
0000
0110
,
0000
0000
0000
0001
,
0001
0001
0000
1001
,
0000
1001
0000
0010
,
0010
0010
0000
0110
,
0000
0110
0000
0001
,
0001
0000
0000
1000
,
1000
1000
0000
0100
,
0000
0010
0000
1001
,
0000
0000
0000
0100
,
0000
0010
0000
1001
,
0000
0000
0000
1000
,
0000
1000
0000
0001
,
0000
0001
0000
0100
,
0000
0100
0000
0010
,
0000
0010
0000
0100
,
0000
0100
0000
0010
,
0000
0010
0000
0001
,
0000
0001
0000
1000
,
1000
1000
0000
1001
;

//---------------dance-double - ----------------
#NOTES:
     dance-double:
     :
     Medium:
     7:
     0.415,0.410,0.222,0.060,0.128:
00000000
00000000
00000000
00000000
,
00000000
00000000
00000000
00000000
,
00000000
00000000
00000000
00000000
,
00000000
00000000
00000000
00000000
,
00110000
00000000
00001000
00010000
00001000
00010000
00001000
00000000
,
00000100
00000000
00000000
00000001
00000000
00000000
00001001
00000000
00000000
00000000
00000000
00000000
00000001
00000000
00000010
00000000
,
00000001
00000000
00001000
00000100
00010000
00000000
00001000
01000000
,
00200000
00000000
00000000
00300000
,
10000000
00000000
00000000
00000000
10000000
00000000
00000000
00000000
00100000
00000000
00000000
01000000
00000000
00000000
00100000
00000000
,
00010000
00000000
00000000
00000000
00010000
00000000
00000000
00000000
00001000
00000000
00000000
00010000
00000000
00000000
00001000
00000000
,
00000010
00000000
00000000
00000000
00000010
00000000
00000000
00000000
00000001
00000000
00000000
00001000
00000000
00000000
00000100
00000000
,
00000010
00000000
00000000
00000000
00000010
00000000
00000000
00000000
00000001
00000000
00000000
00000100
00000000
00000000
00000010
00000000
,
00001000
00001000
00010000
00010000
,
00100000
00000000
00100000
00000000
01000000
00000000
01000000
01000000
,
00100000
00000000
00000000
10000000
00000000
00000000
01000000
00000000
00010000
00000000
00000000
01000000
00000000
00000000
00010000
00000000
,
00001000
00000000
00000000
00010000
00000000
00000000
00001000
00000000
00000100
00000000
00000000
00000001
00000000
00000000
00000100
00000000
,
00000001
00000000
00000001
00000000
00001000
00000100
00001000
00000010
,
00000100
00000000
00000101
00000000
,
00000010
00001000
00000010
00000000
00010000
00001000
00010000
00001000
,
00000000
01000000
00000000
00010000
00100000
01000000
10000000
00000000
,
11000000
00000000
10010000
00000000
00100000
00001000
00010000
00001000
,
01000000
00000000
00010000
10000000
00000000
01000000
00010000
00000000
,
00001000
00000000
00000100
00000001
00000000
00000100
00000000
00000010
,
00000000
00000000
00000000
00000000
00000000
00000000
00000000
00000000
00001001
00000000
00000000
00001001
00000000
00000000
00000010
00000000
,
00000100
00000010
00000100
00000000
00000000
00001000
00000001
00000000
,
00000001
00001000
00000000
00000000
00000010
00000100
00001000
00000000
,
00010000
01000000
00000000
10000000
00000000
01000000
00000000
00100000
,
00000000
00010000
10000000
01000000
00100000
00000000
00011000
00000000
,
00001010
00000000
00000100
00010000
00000100
00000000
00010000
00001000
,
00010000
00000000
01000000
10000000
00010000
01000000
00100000
00000000
,
10000000
00100000
00000000
01000000
00000000
01010000
00000000
00000000
,
00000000
00000000
00001000
00010000
00001000
00010000
00001000
00000000
,
00000010
00000000
00000001
00001000
00000001
00000000
00000110
00000000
,
00001000
00000000
00000100
00010000
00000100
00000000
00020000
00000000
,
00032000
00000000
00000000
00000000
00203000
00000000
00000000
00000000
00310000
00000000
00000000
00000000
10000000
00000000
00000000
10000000
,
00000000
10000000
00100000
00000000
01100000
00000000
10000000
01000000
,
10000000
00000000
00110000
00000000
01000000
00000000
00001000
00010000
,
00001000
00010000
00000110
00000001
,
00000010
00000000
00000100
00000000
00001000
00000000
00000001
00000100
,
00001000
00010000
01000000
10000000
00010000
01000000
00200000
00000000
,
00000000
00000000
00000000
00000000
00300000
00000000
01000000
00010000
,
01000000
00000000
00000000
00000000
00100000
00000000
10000000
00000000
00100000
00000000
00000000
00000000
10000000
00000000
00000000
00100000
,
00000000
01100000
00000000
00000000
10010000
00000000
00010000
00001000
,
00010000
00000000
00000000
00000000
00000100
00000000
00001000
00000000
00000100
00000000
00000000
00000000
00000010
00000000
00000000
00000001
,
00000000
00001001
00000000
00000000
00000011
00000000
00000100
00001000
,
00000100
00000000
00000000
00000000
00010000
00000000
00001000
00000000
00010000
00000000
00000000
00000000
00000010
00000000
00000000
00001000
,
00000000
00000000
00001100
00000000
00000000
00000000
00000000
00000000
00000001
00000000
00000000
00000001
00000000
00000000
00000000
00000000
,
00000100
00000000
00000000
00000100
00000000
00000000
00000000
00000000
00001000
00000000
00000000
00000000
00010000
00000000
00000000
00001000
,
00000000
00000000
00100000
00000000
00000000
00010000
00000000
00000000
01000000
00000000
00000000
00000000
00010000
00000000
00100000
00000000
,
00010000
00000000
00000000
00000000
10000000
00000000
00100000
00000000
10000000
00000000
00000000
00000000
00010000
00000000
00000000
01000000
,
00000000
01100000
00000000
00000000
10100000
00000000
00010000
00100000
,
00010000
00000000
00000000
00000000
10000000
00000000
01000000
00000000
10000000
00000000
00000000
00000000
01000000
00000000
00000000
00010000
,
00000000
00011000
00000000
00000000
00010010
00000000
00000100
00001000
,
00000100
00000000
00000000
00000000
00000010
00000000
00000001
00000000
00000010
00000000
00000000
00000000
00001000
00000000
00000000
00010000
,
00000000
00000000
00011000
00000000
00000000
00000000
00000000
00000000
00100000
00000000
00000000
00100000
00000000
00000000
00000000
00000000
,
10000000
00000000
00000000
10000000
00000000
00000000
00000000
00000000
01000000
00000000
00000000
00000000
00010000
00000000
00000000
00000100
,
00000000
00000000
00001000
00000000
00000000
00000010
00000000
00000000
00000100
00000000
00000000
00000100
00000000
00000000
00000000
00000000
,
00000001
00000000
00000000
00000001
00000000
00000000
00000000
00000000
00000010
00000000
00000000
00000000
00001000
00000000
00000000
00100000
,
00000000
00000000
00010000
00000000
00000000
01000000
00000000
00000000
00100000
00000000
00000000
00000000
10000000
00000000
00010000
00000000
,
10000000
00100000
00010000
00001000
,
00100000
00000000
00010000
00000000
01000000
00001000
01000000
00000000
,
00001000
00010000
00000100
00000010
,
00000001
00000100
00000010
00000000
00001000
00000100
00010000
00000000
,
00000100
00000000
00000000
00000000
00000010
00000000
00000000
00000000
00000001
00000000
00000000
00000000
00000100
00000000
00000000
00001000
,
00000000
00011000
00000000
00000000
00010000
00100000
00000000
00000000
,
00100000
10000000
00000000
00000000
10000000
01000000
00010000
00001000
,
00010000
00000000
00100000
10000000
00100000
00000000
20020000
00000000
,
00000000
00000000
00000000
00000000
,
00000000
00000000
30030000
00000000
;

//---------------dance-double - ----------------
#NOTES:
     dance-double:
     :
     Easy:
     4:
     0.242,0.293,0.188,0.162,0.004:
00000000
00000000
00000000
00000000
,
00000000
00000000
00000000
00000000
,
00000000
00000000
00000000
00000000
,
00000000
00000000
00000000
00000000
,
00100000
00010000
10000000
01000000
,
20020000
00000000
00000000
30030000
,
00100000
00000000
00001000
00000000
,
00000100
00000000
00000000
00000000
,
00000001
00000000
00000000
00000000
,
00001000
00000000
00000000
00000000
,
00000010
00000000
00000000
00000000
,
00010000
00000000
00000000
00000000
,
00001000
00000000
00000000
00000000
,
01000000
00000000
00000000
00000000
,
20000000
30000000
00200000
00300000
,
00020000
00030000
00002000
00003000
,
01000000
01000000
00100000
00000000
,
00010000
10000000
01000000
00010000
,
00001000
00000000
00001000
00000000
,
00000000
00000000
00000001
00000001
,
00001001
00000000
00000010
00000000
,
00000001
00000000
00000100
00000010
,
00001010
00000000
00001000
00010000
,
01000000
00000000
00000000
00000000
10000000
00000000
00000000
00000000
00010000
00000000
00000000
00010000
00000000
00000000
00000000
00000000
,
01000000
00000000
01000000
00010000
,
00100000
01000000
00000000
10010000
,
00000000
01010000
00000000
00000000
,
00000000
00001000
00001000
00001000
,
00000000
00101000
00000000
00010000
,
00100000
00010000
00001000
00000010
,
00000001
00000100
00000010
00001001
,
00000000
00000000
00000010
00000010
00000010
00000000
00000020
00000000
,
00000030
00000002
00000003
00000200
,
00000300
00002000
00003000
00010000
,
00001000
00010000
00000000
00101000
,
00000000
00010010
00000000
00010000
,
00100000
10000000
00000000
00010000
,
10000000
00010000
00000000
01000000
,
00000000
01000000
00000000
00100000
,
00010000
00001000
00000100
00000010
,
00000000
00000000
00000000
00000001
,
00000010
00000011
00000000
00000010
,
00000001
00001000
00000000
00000010
,
00010000
00011000
00000000
00010000
,
00100000
10000000
00000000
00010000
,
00100000
00110000
00000000
10000000
,
00100000
01000000
00100000
10010000
,
00000000
00100000
00000000
00022000
,
00033000
00000000
00000000
00000010
,
00001001
00000100
00000000
00000010
,
00000001
00000100
00000000
00010000
,
00010100
00000100
00000000
00010000
,
00001000
00010000
00000000
00010000
,
10100000
01000000
00000000
00010000
,
10000000
00010000
01000000
10010000
,
00000000
00001000
00000000
00022000
,
00033000
00000000
00000000
00001001
,
00000000
00000010
00000000
00022000
,
00033000
00000000
00000000
01000000
,
01000000
01000000
00000000
10000000
,
00100000
00010000
00001000
00010000
,
00000000
00000100
00000100
00000100
,
00000000
00000010
00000001
00000100
,
00001000
00010000
00000000
00022000
,
00000000
00033000
00100000
00000000
,
00100000
00000000
00100000
00000000
,
00100000
00010000
00001000
00000200
,
00000000
00000000
00000000
00000000
,
00000000
00000000
00000300
00000000
;
