#TITLE:印象派ルノアールのように;
#SUBTITLE:;
#ARTIST:エレジーズ;
#TITLETRANSLIT:INSHOUHA RENOIR NO YOU NI;
#SUBTITLETRANSLIT:;
#ARTISTTRANSLIT:ELEGIES;
#CREDIT:Di Gi Jared (sd.mistrust.com/mix);
#BANNER:INSHOUHA RENOIR NO YOU NI BN.png;
#BACKGROUND:INSHOUHA RENOIR NO YOU NI BG.png;
#LYRICSPATH:INSHOUHA RENOIR NO YOU NI.lrc;
#CDTITLE:cd.png;
#MUSIC:INSHOUHA RENOIR NO YOU NI.mp3;
#OFFSET:-7.349;
#SAMPLESTART:52.066;
#SAMPLELENGTH:12.000;
#SELECTABLE:YES;
#BPMS:0.000=132.000;
#STOPS:;
#BGCHANGES:;

//---------------dance-single - ----------------
#NOTES:
     dance-single:
     :
     Hard:
     7:
     0.437,0.425,0.271,0.068,0.213:
0001
0000
1000
0000
0100
0000
0010
0001
0000
0000
1000
0000
0000
0000
0000
0000
,
0000
0000
0001
0000
0010
0000
0100
1000
0000
0000
0001
0000
0000
0000
0000
0000
,
0000
0000
0010
0000
0001
0000
1000
0100
0000
0000
0010
0000
0000
0000
0001
0000
,
0100
0000
0010
0000
1000
0000
0010
0000
0100
0000
0000
0001
0000
0000
0000
0000
,
0000
0000
0001
0000
0100
0000
0010
1000
0000
0000
0001
0000
0000
0000
0000
0000
,
0000
0000
1000
0000
0010
0000
0100
0001
0000
0000
1000
0000
0000
0000
0000
0000
,
0000
0000
0100
0000
1000
0000
0001
0010
0000
0000
0100
0000
0000
0000
1000
0000
,
0010
0000
1000
0000
0001
0000
0100
0002
0000
0000
0000
0000
0003
0000
0000
0000
,
1000
0000
0000
0010
0000
0000
0100
0000
0000
0000
0001
0000
0001
0000
0000
0000
,
0100
0000
0000
0010
0000
0000
1000
0000
0000
0000
0100
0000
0100
0000
0000
0000
,
0010
0000
0000
0001
0000
0000
1000
0000
0000
0000
0010
0000
0010
0000
0000
0000
,
1100
0000
0000
0011
0000
0000
0101
0000
0000
0000
0000
0000
0000
0000
0000
0000
,
0010
0000
0000
1000
0000
0000
0001
0000
0000
0000
0100
0000
0100
0000
0000
0000
,
0001
0000
0000
0010
0000
0000
0100
0000
0000
0000
1000
0000
1000
0000
0000
0000
,
0001
0000
0000
1000
0000
0000
0001
0000
0000
0000
0010
0000
0010
0000
0000
0000
,
0101
0000
0000
1010
0000
0000
1100
0000
0000
0000
0000
0000
0000
0000
0000
0000
,
1000
0000
0000
0010
0000
0000
1000
0000
0000
0000
1000
0000
0100
0000
0010
0000
,
0001
0000
0000
0100
0000
0000
0001
0000
0000
0000
0001
0000
0100
0000
0010
0000
,
1000
0000
0000
0100
0000
0000
1000
0000
0000
0000
1000
0000
0100
0000
0010
0000
,
0001
0000
0000
0010
0000
0000
0001
0000
0000
0000
1000
0000
0100
0000
1000
0000
,
1100
0000
0001
0010
0011
0000
1000
0010
,
1010
0110
0101
0000
,
1001
0000
0010
1000
0001
0000
1010
0000
,
0101
0000
1000
0100
0110
0000
0010
0001
,
1001
0000
0000
0000
0000
2002
0000
3003
,
0100
0000
0000
0100
0000
0000
0010
0000
0001
0000
0010
0000
0001
0000
0010
0000
,
0100
0000
0000
0100
0000
0000
1000
0000
0010
0000
0100
0000
0001
0000
1000
0000
,
0100
0000
0000
0100
0000
0000
0010
0000
0001
0000
0100
0000
0001
0000
1000
0000
,
0101
0000
1001
0000
1100
0000
0000
0010
,
0001
0000
0100
0000
0010
0000
0000
2000
0000
0000
0000
0000
3000
0000
0100
0000
,
1000
0000
0010
0000
0100
0000
0000
0002
0000
0000
0000
0000
0003
0000
0001
0000
,
0010
0100
0100
0000
1000
0010
0100
0000
,
0011
1001
1100
1001
,
0010
0000
0000
0010
0000
0000
0001
0000
0100
0000
0001
0000
1000
0000
0100
0000
,
0010
0000
0000
0010
0000
0000
0001
0000
0100
0000
0010
0000
1000
0000
0001
0000
,
0100
0000
0000
0100
0000
0000
0001
0000
0010
0000
0100
0000
1000
0000
0010
0000
,
1010
0110
0101
0000
,
0001
0000
0000
0001
0000
0000
0010
0000
0100
0000
1000
0000
0010
0000
0100
0000
,
0001
0000
0000
0001
0000
0000
1000
0000
0100
0000
1000
0000
0010
0000
0100
0000
,
0001
0000
0000
0001
0000
0000
0010
0000
0001
0000
1000
0000
0100
0000
0000
0000
,
0010
0001
0100
0010
1000
0100
0010
0000
,
0000
0000
0001
0000
0000
0001
0000
0000
1000
0000
0000
0002
0000
0000
0000
0000
,
0003
0000
1000
0000
0000
1000
0000
0000
0001
1000
0001
0000
1001
0000
0000
0000
,
0001
0000
0100
0000
0001
0000
1000
0010
0000
0000
0100
0000
0000
0000
0000
0000
,
0000
0000
0001
0000
0010
0000
0100
1000
0000
0000
0001
0000
0000
0000
0000
0000
,
0000
0000
1000
0000
0010
0000
0100
0001
0000
0000
1000
0000
0000
0000
1000
0000
,
0010
0000
1000
0000
0100
0000
0010
0000
0001
0000
0000
0100
0000
0000
0000
0000
,
0000
0000
0010
0000
1000
0000
0001
0100
0000
0000
0010
0000
0000
0000
0000
0000
,
0000
0000
1000
0000
0100
0000
0010
0001
0000
0000
1000
0000
0000
0000
0000
0000
,
0000
0000
0001
0000
0100
0000
0010
1000
0000
0000
0001
0000
0000
0000
0010
0000
,
0001
0000
1000
0000
0010
0000
0100
0002
0000
0000
0000
0000
0003
0000
0000
0000
,
0000
0000
0100
0000
1000
0000
0010
0100
0000
0000
0001
0000
0000
0000
0000
0000
;

//---------------dance-single - ----------------
#NOTES:
     dance-single:
     :
     Medium:
     6:
     0.364,0.375,0.368,0.136,0.000:
0001
0100
0010
1000
,
1010
0100
0010
0001
,
0011
0100
0010
1000
,
0001
0001
0001
0000
0100
0100
0100
0000
,
0010
1000
0001
0100
,
0101
1000
0001
0010
,
0011
1000
0001
0100
,
0010
0010
0010
0000
1000
1000
1000
0000
,
0001
0010
0001
0100
,
0010
1000
0100
1000
,
0010
0100
0001
0010
,
2002
0000
0000
3003
0110
0000
0000
0000
,
1000
0010
1000
0100
,
0010
0001
0100
0001
,
0010
0100
1000
0010
,
0220
0000
0000
0330
1001
0000
0001
0000
,
0100
0000
0000
0010
1000
0010
1000
0010
,
2000
0000
3000
1000
,
0100
0000
0000
0010
0001
0010
0001
0010
,
0002
0000
0003
0000
,
1001
0000
0001
1000
0000
1001
0000
1000
,
0001
1000
0001
1000
0001
0000
0000
0000
,
1000
0000
0100
0010
0100
0000
0100
0010
,
0000
2002
0000
0000
0000
0000
0000
3003
,
0000
0000
0000
0000
0000
1001
0000
0000
,
0001
0100
0000
0001
0100
0000
1010
0000
,
1000
0010
0000
1000
0010
0000
0101
0000
,
0001
0100
0000
0001
0100
0000
0010
0000
,
1001
0110
1001
0000
,
0010
2000
3001
1001
,
1000
0020
0130
0110
,
1000
0001
1000
0010
,
1001
1001
0110
1001
,
0010
0001
0000
0010
0001
0000
1100
0000
,
0100
1000
0000
0100
1000
0000
0011
0000
,
0010
0001
0000
0010
0001
0000
1000
0000
,
0110
1001
0110
0000
,
1000
0010
0000
1000
0100
0000
1010
0000
,
0001
0100
0000
0001
0010
0000
0101
0000
,
1000
0010
0000
1000
0001
0000
0110
0000
,
2002
0000
0000
0000
0000
3003
0000
0000
,
0001
1000
0010
0100
,
0001
0010
0100
1001
,
0010
0001
1000
0100
,
1100
0001
1000
0010
,
1010
0001
1000
0100
,
1000
0010
0100
0000
0001
0010
0100
0000
,
1000
0010
0100
0001
,
0101
0010
0100
1000
,
1100
0010
0100
0001
,
0010
0001
0100
0000
0010
1000
0100
0000
,
0000
2002
0000
0000
0000
3003
0000
0000
;

//---------------dance-single - ----------------
#NOTES:
     dance-single:
     :
     Easy:
     3:
     0.245,0.247,0.174,0.000,0.000: // measure 1
1000
1000
1000
1000
,  // measure 2
0001
0001
0001
0001
,  // measure 3
0010
0010
0010
0010
,  // measure 4
0100
0100
0100
0100
,  // measure 5
1000
1000
1000
1000
,  // measure 6
0010
0010
0010
0010
,  // measure 7
0100
0100
0100
0100
,  // measure 8
0001
0001
0001
0001
,  // measure 9
1000
1000
1000
0001
,  // measure 10
0100
0100
0100
0010
,  // measure 11
1000
1000
1000
0001
,  // measure 12
0010
0100
0010
0000
,  // measure 13
0001
0001
0001
1000
,  // measure 14
0010
0010
0010
0100
,  // measure 15
0001
0001
0001
1000
,  // measure 16
0100
0010
0100
0000
,  // measure 17
1001
0000
1001
0000
,  // measure 18
0110
0000
0000
0000
,  // measure 19
0110
0000
1001
0000
,  // measure 20
0110
0000
0000
0000
,  // measure 21
1001
0000
0110
0000
,  // measure 22
1000
0001
1000
0000
,  // measure 23
0110
0000
0000
1001
,  // measure 24
0110
0000
1001
0000
,  // measure 25
0110
0000
0000
0000
,  // measure 26
0001
0000
0010
0001
,  // measure 27
1000
0000
0010
1000
,  // measure 28
0001
0000
0010
0001
,  // measure 29
1000
0100
0110
0000
,  // measure 30
1000
0001
1000
0010
,  // measure 31
0100
0010
0100
0001
,  // measure 32
1000
0001
0100
0010
,  // measure 33
1001
0000
1001
0000
,  // measure 34
0010
0000
0001
0100
,  // measure 35
0010
0000
1000
0100
,  // measure 36
0010
0000
0001
0100
,  // measure 37
0010
1000
1001
0000
,  // measure 38
0010
0000
0001
0100
,  // measure 39
1000
0000
1000
0100
,  // measure 40
0001
0000
0001
1000
,  // measure 41
0010
0000
0000
0000
,  // measure 42
0000
0000
0000
0000
,  // measure 43
0000
0000
0000
0000
,  // measure 44
0001
0001
0001
0001
,  // measure 45
0100
0100
0100
0100
,  // measure 46
0010
0010
0010
0010
,  // measure 47
1000
1000
1000
1000
,  // measure 48
0100
0100
0100
0100
,  // measure 49
0010
0010
0010
0010
,  // measure 50
0001
0001
0001
0001
,  // measure 51
1000
1000
1000
1000
,  // measure 52
1001
0000
0000
0000
;
