#TITLE:IKE IKE;
#SUBTITLE:;
#ARTIST:HINOIチーム;
#TITLETRANSLIT:IKE IKE;
#SUBTITLETRANSLIT:;
#ARTISTTRANSLIT:HINOI TEAM;
#CREDIT:Di Gi Jared (sd.mistrust.com/mix);
#BANNER:IKE IKE BN.png;
#BACKGROUND:IKE IKE BG.png;
#LYRICSPATH:IKE IKE.lrc;
#CDTITLE:cd.png;
#MUSIC:IKE IKE.mp3;
#OFFSET:-1.331;
#SAMPLESTART:40.297;
#SAMPLELENGTH:12.000;
#SELECTABLE:YES;
#BPMS:0.000=155.991;
#STOPS:;
#BGCHANGES:0.000=IKE IKE.avi=1.000=1=0=0
,204.000=IKE IKE BG.png=1.000=1=0=0
;

//---------------dance-single - ----------------
#NOTES:
     dance-single:
     :
     Hard:
     7:
     0.526,0.521,0.216,0.096,0.072:
0000
0000
0000
0000
,
0000
0000
0000
0000
,
0000
0000
0000
0000
,
0000
0000
0000
0000
,
0000
0000
0100
0000
1000
0000
0100
0000
1000
0000
0100
0000
1000
0000
0000
1000
,
0000
0000
0001
0000
0010
0000
0001
0000
0010
0000
0001
0000
0010
0000
0000
0010
,
0000
0000
0100
0000
1000
0000
0001
0000
0010
0000
0100
0000
1000
0000
0000
1000
,
0000
0000
0001
0000
0100
0000
0010
0000
1000
0000
0001
0000
0100
0000
0000
0100
,
0000
0001
0001
0000
0000
0000
1000
0100
,
0001
0000
0000
0001
0100
1000
0010
0100
,
0001
0010
0100
1000
0001
0000
0001
0100
,
1000
0000
0000
1000
0100
0001
0100
0010
,
1000
0100
0010
0000
0110
0000
1000
0100
,
0010
0001
1000
0010
0100
0001
1000
0010
,
0100
0001
1000
0100
0010
0001
0000
0000
,
0000
0000
0000
1000
0100
1100
0000
0010
,
0001
0011
0000
0000
0000
0000
0010
0001
,
0010
0100
1000
0010
0100
0001
1000
0100
,
1000
0000
0001
0000
1000
0010
1000
0010
,
0100
0001
0010
0100
1000
0001
0011
0000
,
0101
0000
1100
0000
1010
0000
0100
1000
,
0100
0010
0001
0100
0010
1000
0001
0010
,
0001
0000
0100
0000
0010
1001
0000
0010
,
1000
0010
0100
0001
0000
0110
0000
0100
,
1000
0100
0010
0001
0000
0000
0000
0000
,
0000
0000
0000
0010
1000
0001
0100
0001
,
0001
0100
0000
0010
0010
1000
0000
0100
,
0100
0010
0000
0001
0100
0010
1000
0100
,
0100
1000
0000
0001
0001
0010
0002
0000
,
2003
0000
3020
0000
0230
0000
0301
0100
,
0001
1000
0000
1000
0001
0100
0000
0010
,
1000
0100
0000
0010
0001
0100
0010
0000
,
1000
0000
0000
1010
,
0000
1001
0000
0010
0001
1000
0100
1000
,
0100
0100
0000
0010
0001
0001
0000
0100
,
0010
0010
0000
1000
0100
0010
0001
0100
,
0001
0001
0000
1000
0010
0010
0200
0000
,
0302
0000
2003
0000
3020
0000
1030
0001
,
0010
0001
0000
0010
0100
1000
0000
0010
,
0100
0001
0000
0010
0100
1000
0001
0100
,
0010
0000
0000
1001
,
0000
0101
0000
0000
0000
0000
0010
0100
,
0001
1000
0000
0000
0000
0010
0001
0010
,
0001
0000
0010
0000
0001
0000
0000
0001
0000
0000
1000
0000
0100
0000
1000
0000
,
0100
0000
1000
0000
0100
0000
0000
0100
0000
0000
0010
0000
0001
0000
1000
0000
,
0100
0000
0010
0000
0001
0000
0000
0001
0000
0000
1000
0000
0010
0000
0100
0000
,
0001
0000
1000
0000
0010
0000
0000
0010
0000
0000
0100
0000
0001
0000
0100
0000
,
0001
0000
0100
0000
0001
0000
0000
0001
0000
0000
1000
0000
0010
0000
1000
0000
,
0010
0000
1000
0000
0010
0000
0000
0010
0000
0000
0100
0000
0001
0000
1000
0000
,
0010
0000
0100
0000
0001
0000
0000
0001
0000
0000
1000
0000
0100
0000
0010
0000
,
0001
0000
1000
0000
0011
0000
0000
0011
0000
0000
1100
0000
1100
0000
0000
0000
,
1001
0000
0000
0000
;

//---------------dance-single - ----------------
#NOTES:
     dance-single:
     :
     Medium:
     5:
     0.393,0.460,0.685,0.024,0.000:
0000
0000
0000
0000
,
0000
0000
0000
0000
,
0000
0000
0000
0000
,
0000
0000
0000
0000
,
0000
1000
1000
0101
,
0000
0001
0001
1010
,
0000
1000
1000
1100
,
0000
0001
0001
0011
,
0000
1010
0000
2000
,
3100
0000
1000
0010
,
0100
0001
0010
0002
,
0013
0000
1000
0100
,
0011
0100
1100
1000
,
0100
0010
0001
1000
,
0100
0010
0001
1001
,
0000
0000
0000
1000
0100
1000
0000
0010
,
0001
0010
0000
0000
0000
0000
1000
0000
,
0100
1000
0010
1000
,
0100
0000
1000
0000
0010
0000
1000
0100
,
1000
0010
1000
1001
,
0110
1001
0110
0001
,
0100
0001
0010
0001
,
0100
0000
0001
0000
0010
0000
0001
0100
,
0001
0000
0001
0010
0001
0000
0100
0000
,
0001
1001
0000
0000
,
0000
0000
1001
0110
,
1000
1100
0001
0101
,
1000
1100
1001
0110
,
0001
0011
1000
1010
,
1001
0000
0011
0000
0110
0000
1000
0100
,
1000
0000
0001
0010
0001
0000
0001
0100
,
1000
0000
1000
0100
0001
0000
0011
0000
,
1100
0000
0000
1010
,
0000
0101
0000
0000
0110
0000
1001
0000
,
0100
0101
0010
1010
,
0100
0101
0110
1001
,
0010
1010
0100
0101
,
0110
0000
0101
0000
1001
0000
0001
0010
,
0001
0000
1000
0100
1000
0000
1000
0100
,
0001
0000
0001
0100
1000
0000
1100
0000
,
0011
0000
0000
0011
,
0000
1100
0000
0000
0000
0000
1001
0000
,
0000
0110
0000
0000
0000
0000
1000
0000
,
0100
1100
0000
0010
,
0001
0011
0000
1000
,
0010
1010
0000
0100
,
0001
0101
0000
1000
,
1000
0101
0000
0001
,
0001
1010
0000
1000
,
1000
1100
0000
0001
,
0001
0011
0000
1100
,
1001
0000
0000
0000
;

//---------------dance-single - ----------------
#NOTES:
     dance-single:
     :
     Easy:
     3:
     0.187,0.245,0.060,0.024,0.000:
0000
0000
0000
0000
,
0000
0000
0000
0000
,
0000
0000
0000
0000
,
0000
0000
0000
0000
,
0000
0001
0000
1000
,
0000
0001
0000
1000
,
0000
0001
0000
1000
,
0000
0001
0000
0010
,
0010
0100
0100
0000
,
1000
0000
0001
0000
,
1000
0000
0001
0000
,
0010
0000
0100
0000
,
0010
0000
0000
0001
,
0100
0001
0000
1000
,
0100
1000
0000
0000
,
0000
0000
1000
0001
,
0001
1000
0000
1000
,
0000
0010
0000
0100
,
0000
0001
0000
1000
,
0000
0001
0000
1000
,
0100
0010
0001
0000
,
1000
0000
0100
0000
,
0001
0000
0100
0000
,
1000
0000
0100
0000
,
0001
0000
0100
0000
,
0000
0000
0010
0010
,
1001
0000
0001
0000
,
0100
0000
0010
0010
,
1001
0000
1000
0000
,
0010
0000
0000
0001
,
0100
0001
0000
1000
,
0100
1000
0000
0001
,
0100
0001
0000
2000
,
0000
3000
0010
0010
,
1001
0000
1000
0000
,
0010
0000
0010
0010
,
1001
0000
0001
0000
,
0100
0000
0000
1000
,
0010
1000
0000
0001
,
0010
0001
0000
1000
,
0010
1000
0000
0002
,
0000
0003
0000
0000
,
0000
0000
0000
0000
,
0000
0100
0000
1000
,
0000
0100
0000
0001
,
0000
0100
0000
1000
,
0000
0100
0000
0001
,
0000
0100
0000
1000
,
0000
0100
0000
0001
,
0000
0100
0000
1000
,
0000
0010
0000
0000
,
1001
0000
0000
0000
;
