#TITLE:I'M A SLAVE 4 U;
#SUBTITLE:(Thunderpuss Radio Mix);
#ARTIST:Britney Spears;
#TITLETRANSLIT:;
#SUBTITLETRANSLIT:;
#ARTISTTRANSLIT:;
#CREDIT:;
#BANNER:I'm A Slave 4 U (Thunderpuss Radio Mix).png;
#BACKGROUND:I'm A Slave 4 U (Thunderpuss Radio Mix)-bg.png;
#LYRICSPATH:;
#CDTITLE:Overprotected.png;
#MUSIC:I'm A Slave 4 U (Thunderpuss Radio Mix).mp3;
#OFFSET:-0.868;
#SAMPLESTART:60.280;
#SAMPLELENGTH:12.000;
#SELECTABLE:YES;
#BPMS:0.000=128.014;
#STOPS:;
#BGCHANGES:;

//---------------dance-single - CHALLENGE----------------
#NOTES:
     dance-single:
     CHALLENGE:
     Challenge:
     9:
     0.501,0.789,0.154,0.029,0.404: // measure 1
0000
0000
0000
0000
,  // measure 2
0000
0000
0000
0000
,  // measure 3
0000
0000
0000
0000
,  // measure 4
0000
0000
0000
0000
,  // measure 5
1000
0000
0000
0100
0000
0000
0000
0000
1000
0000
0000
0001
0000
1000
0001
0000
,  // measure 6
0010
0000
0000
0100
0000
0000
0000
0000
1000
0000
0000
0001
0000
1000
0001
0000
,  // measure 7
0100
0000
0000
0010
0000
0000
0000
0000
1000
0000
0000
0001
0000
0100
0010
0000
,  // measure 8
1010
1100
0101
0011
,  // measure 9
1001
0000
0000
0000
,  // measure 10
1000
0100
0010
0001
1000
0100
0010
0001
,  // measure 11
1100
0000
0000
1000
0001
0000
0100
0000
0001
0000
0000
0100
0010
0000
1000
0000
,  // measure 12
0100
0000
0000
0001
0100
0000
0010
0000
0001
0000
1000
0000
0010
0000
0000
0000
,  // measure 13
0101
0000
0000
0010
1000
0000
0100
0000
0010
0000
0000
0001
0100
0000
0010
0000
,  // measure 14
1000
0000
0000
0100
0001
0000
0100
0000
1000
0000
0010
0000
0100
0000
0000
0000
,  // measure 15
0001
0000
0100
0000
0001
0000
0000
1000
0000
0100
0000
0010
0000
0000
0001
0000
,  // measure 16
1001
0000
0000
0000
1000
0001
0100
0000
,  // measure 17
0010
1000
0100
0100
0100
1000
0100
0000
,  // measure 18
0010
0001
0100
0100
0100
0001
0100
0000
,  // measure 19
0001
0000
1000
0100
1000
0000
0001
0000
0010
0001
0100
0000
0001
0000
1000
0000
,  // measure 20
0010
0000
1000
0001
1000
0000
0001
0000
0010
0100
1000
0000
0001
0000
0100
0000
,  // measure 21
0110
0000
0000
0010
1000
0000
0001
0000
0100
0000
0000
0010
1000
0000
0100
0000
,  // measure 22
0010
0000
0000
0100
1000
0000
0001
0000
0100
0000
1000
0000
0100
0000
0001
0000
,  // measure 23
0101
0000
0000
0010
1000
0000
0010
0000
0001
0000
0000
0100
1000
0000
0100
0000
,  // measure 24
0001
0000
0000
0010
0100
0000
1000
0000
0010
0000
0100
0000
0001
0000
1000
0000
,  // measure 25
1010
0000
0000
0100
0001
0000
1000
0000
0100
0000
0000
0010
0100
0000
1000
0000
,  // measure 26
0001
0000
0000
0100
0010
0000
0100
0000
0001
0000
1000
0000
0010
0000
0100
0000
,  // measure 27
1100
0000
0000
0001
1000
0000
0010
0000
0100
0000
0000
0001
0010
0000
0100
0000
,  // measure 28
1000
0000
0000
0100
0010
0000
0100
0000
0001
0000
0100
0000
1000
0000
1000
0000
,  // measure 29
0100
0100
0001
0001
0100
0100
1000
1000
,  // measure 30
0010
0010
0001
0001
0010
0010
1000
1000
,  // measure 31
0100
0010
0100
0010
0100
0010
0100
0010
0100
0010
0100
0010
0100
0010
0100
0010
,  // measure 32
0001
1000
0001
1000
0001
1000
0001
1000
0001
1000
0001
1000
0001
1000
0001
1000
,  // measure 33
0002
0000
2000
3003
,  // measure 34
0110
0000
0000
1000
0001
0000
0100
0000
0010
1000
0000
0010
1000
0000
0001
0000
,  // measure 35
0100
0000
0000
1000
0000
0000
0100
0000
0001
0000
0000
0100
0000
0000
0010
0000
,  // measure 36
1000
0000
0000
1000
0100
0000
0010
0000
0001
1000
0001
0000
0100
0000
0010
0000
,  // measure 37
1010
0000
0000
1000
0001
0000
0100
0000
0010
1000
0000
0010
1000
0000
0001
0000
,  // measure 38
0100
0000
0000
0010
0000
0000
1000
0000
0001
0000
0000
0100
0000
0000
0010
0000
,  // measure 39
1000
0000
0000
0001
0100
0000
0010
0000
1000
0001
1000
0000
0100
0000
0001
0000
,  // measure 40
0101
0000
0000
0100
0010
0000
0001
0000
1000
0010
0000
0010
0100
0000
0001
0000
,  // measure 41
1000
0000
0000
0100
0000
0000
0010
0000
0001
1000
0001
1000
0001
0000
0100
0000
,  // measure 42
0010
0000
0000
0010
1000
0000
0001
0000
0100
0010
0100
0000
0001
0000
0000
0000
,  // measure 43
1000
0000
0000
1000
0100
0000
0010
0000
0001
0000
0000
0001
0100
0000
0010
0000
,  // measure 44
1000
0000
0000
1000
0001
0000
0100
0000
0010
0000
0000
0010
1000
0000
0100
0000
,  // measure 45
0010
0000
0000
0010
0001
0000
0100
0000
0010
0000
0000
1000
0001
0000
0100
0000
,  // measure 46
0010
0000
0000
1000
0100
0000
1000
0000
0001
0000
0000
0100
0001
0000
0100
0000
,  // measure 47
0010
1000
0000
1000
0010
0000
0100
0000
0001
0010
0000
0010
0001
0000
0100
0000
,  // measure 48
1000
0100
0001
0010
1000
0010
0001
0100
,  // measure 49
0110
0000
0020
0000
,  // measure 50
0000
0000
0000
0030
;

//---------------dance-double - MANIAC----------------
#NOTES:
     dance-double:
     MANIAC:
     Hard:
     8:
     0.445,0.676,0.010,0.010,0.413:
00000000
00000000
00000000
00000000
,
00000000
00000000
00000000
00000000
,
00000000
00000000
00000000
00000000
,
00000000
00000000
00000000
00000000
,
00100000
00000000
00000000
01000000
00000000
00000000
00000000
00000000
10000000
00000000
00000000
01000000
00000000
00000000
00010000
00000000
,
00000010
00000000
00000000
00000100
00000000
00000000
00000000
00000000
00000001
00000000
00000000
00000100
00000000
00000000
00001000
00000000
,
00100000
00000000
00000000
01000000
00000000
00000000
00000000
00000000
10000000
00000000
00000000
00100000
00000000
00000000
00010000
00000000
,
00000010
00000000
00000000
00000100
00000000
00000000
00000000
00000000
00000001
00000000
00000000
00000010
00000000
00000000
00001000
00000000
,
00100000
00000000
00000000
01000000
00000000
00000000
00000000
10000000
00000000
00010000
00000000
01000000
00000000
00000000
00000000
00000000
,
00100000
10000000
01000000
00010000
00100000
10000000
01000000
00010000
,
00100000
00000000
00000000
10000000
00010000
00000000
00000000
00000000
10000000
00000000
00100000
00000000
01000000
00000000
00000000
00000000
,
00010000
00000000
00000000
10000000
00000000
00000000
01000000
00000000
00010000
00001000
00010000
00001000
00010000
00000000
00000100
00000000
,
00000010
00000000
00000000
00000001
00001000
00000000
00000000
00000000
00000010
00000000
00001000
00000000
00000100
00000000
00000000
00000000
,
00000001
00000000
00000000
00001000
00000000
00000000
00000100
00000000
00010000
00001000
00010000
00001000
00010000
00000000
00001000
00000000
,
00100000
00000000
00000000
00010000
01000000
00000000
00000000
00000000
00100000
00000000
10000000
00000000
01000000
00000000
00000000
00000000
,
10000000
00000000
00000000
01000000
00000000
00000000
00010000
00000000
00001000
00010000
00001000
00010000
00001000
00000000
00000100
00000000
,
00000000
00000000
00000010
00000000
00000010
00000000
00001000
00000000
00000100
00000000
00000100
00000000
00000000
00000000
00000001
00001000
,
00000000
00000000
00000010
00000000
00000010
00000000
00000001
00000000
00000100
00000000
00000100
00000000
00000000
00001000
00010000
00000000
,
00000000
00000000
00001000
00000000
00001000
00000000
00010000
00000000
00100000
00000000
00100000
00000000
00000000
10000000
00010000
00000000
,
00000000
00000000
10000000
00000000
10000000
00000000
01000000
00000000
00010000
00000000
00010000
00000000
00000000
00001000
00010000
00000000
,
00001000
00000000
00000000
00010000
00000100
00000000
00001000
00000000
00000010
00000000
00000100
00000000
00000001
00000000
00000000
00000000
,
00001000
00000000
00000000
00000001
00000100
00000000
00000001
00000000
00001000
00000001
00001000
00000001
00001000
00000000
00000000
00000000
,
00000010
00000000
00000000
00010000
00001000
00000000
00000000
00000000
00100000
00000000
00000000
00010000
01000000
00000000
00000000
00000000
,
00100000
00000000
00000000
10000000
00010000
00000000
00000000
00000000
10000000
00000000
01000000
00000000
00100000
00000000
00000000
00000000
,
00010000
00000000
00000000
00001000
00010000
00000000
00001000
00000000
01000000
00000000
00010000
00000000
10000000
00000000
00000000
00000000
,
01000000
00000000
00000000
00010000
00001000
00000000
00010000
00000000
00001000
00010000
00001000
00010000
00001000
00000000
00000000
00000000
,
00000100
00000000
00000000
00001000
00000001
00000000
00000000
00000000
00000100
00000000
00000000
00000001
00001000
00000000
00000000
00000000
,
00000001
00000000
00000000
00001000
00000010
00000000
00010000
00000000
00001000
00010000
00001000
00010000
00000100
00000000
00000100
00000000
,
00010000
00010000
01000000
01000000
00010000
00010000
00001000
00001000
,
00000010
00000010
00000001
00000001
00000010
00000010
00001000
00001000
,
00010000
00001000
00010000
00001000
00010000
00001000
00010000
00001000
00010000
00001000
00010000
00001000
00010000
00001000
00010000
00001000
,
00010000
00001000
00010000
00001000
00010000
00001000
00010000
00001000
00010000
00000000
00100000
00000000
00010000
00000000
00001000
00000000
,
00000100
00000000
00000000
00000001
00001000
00000000
00000000
00000000
00000100
00000000
00000010
00000000
00000001
00000000
00000000
00000000
,
00001000
00000000
00000000
00000010
00000000
00000000
00010000
00000000
00001000
00000000
00000000
00100000
00010000
00000000
00000000
00000000
,
10000000
00000000
00000000
00100000
01000000
00000000
00000000
00000000
00010000
00000000
10000000
00000000
01000000
00000000
00000000
00000000
,
00010000
00000000
00000000
00001000
00000000
00000000
00000100
00000000
00000010
00000000
00000000
00001000
00000001
00000000
00000000
00000000
,
00000010
00000000
00000000
00001000
00000000
00000000
00000100
00000000
00000020
00000000
00000000
00000000
00000030
00000000
00000000
00000000
,
00000001
00000000
00000000
00000100
00000001
00000000
00000000
00000000
00001000
00000000
00000100
00000000
00010000
00000000
00000000
00000000
,
00001000
00000000
00000000
00100000
00000000
00000000
00010000
00000000
01000000
00000000
00000000
00100000
00000000
00000000
10000000
00000000
,
01000000
00000000
00000000
00010000
00001000
00000000
00010000
00000000
00000100
00000000
00001000
00000000
00000010
00000000
00000000
00000000
,
00001000
00000000
00000000
00000010
00000000
00000000
00000100
00000000
00000001
00001000
00000001
00001000
00000001
00000000
00000000
00000000
,
00000100
00000000
00000000
00001000
00010000
00000000
00000000
00000000
00001000
00010000
00001000
00010000
00001000
00000000
00000000
00000000
,
01000000
00000000
00000000
00010000
00000000
00000000
10000000
00000000
01000000
00000000
00000000
00010000
00000000
00000000
00001000
00000000
,
00010000
00000000
00000000
00000100
00000000
00000000
00000010
00000000
00000100
00000000
00000000
00001000
00000000
00000000
00000001
00000000
,
00001000
00000000
00000000
00000100
00000000
00000000
00001000
00000000
00000010
00000100
00000010
00000100
00000010
00000000
00001000
00000000
,
00000100
00000000
00000000
00010000
00000000
00000000
00000100
00000000
00010000
00001000
00010000
00001000
00010000
00000000
00001000
00000000
,
00100000
00000000
00000000
00010000
00000000
00000000
01000000
00000000
00010000
10000000
00010000
10000000
00010000
00000000
10000000
00000000
,
01000000
00100000
00001000
00010000
00001000
00000100
00000010
00000100
,
00001001
00000000
00000100
00000000
;

//---------------dance-single - TRICK----------------
#NOTES:
     dance-single:
     TRICK:
     Medium:
     7:
     0.336,0.396,0.135,0.115,0.111:
0000
0000
0000
0000
,
0000
0000
0000
0000
,
0000
0000
0000
0000
,
0000
0000
0000
0000
,
1000
0000
0000
0001
0000
0000
1000
0000
0100
0000
0000
0000
0000
0000
0000
0000
,
0001
0000
0000
1000
0000
0000
0001
0000
0100
0000
0000
0000
0000
0000
0000
0000
,
0010
0000
0000
0100
0000
0000
0010
0000
1000
0000
0000
0000
0000
0000
0000
0000
,
0100
0000
0000
0010
0000
0000
0100
0000
0001
0000
0000
0000
0000
0000
0000
0000
,
1001
0000
0000
0000
0000
0000
0000
0010
0000
0010
0000
0010
0000
0000
0000
0000
,
0200
0000
0000
0300
,
1000
0100
1000
0000
0010
0100
0010
0000
,
0001
1000
0001
0000
1000
0010
0100
0000
,
0001
0010
0001
0000
0100
0010
0100
0000
,
1000
0001
1000
0000
0010
0100
0001
0000
,
1000
0100
1000
0000
0001
0100
0001
0000
,
0110
0000
0101
0000
,
0000
1000
0100
0000
0001
0100
0000
1001
,
0000
1000
0010
0000
0001
0010
0000
1001
,
0000
0001
0100
0000
1000
0100
0000
1001
,
0000
0001
0010
0000
1000
0010
0000
0100
,
0001
1000
0001
0000
0100
0010
0100
0000
,
0001
0100
0001
0000
1000
0100
0010
0000
,
1000
0100
1000
0000
0001
0010
0001
0000
,
1000
0001
1000
0000
0100
1000
0010
0000
,
1000
0001
1000
0000
0001
1000
0001
0000
,
1000
0010
1000
0000
0010
0100
0001
0000
,
1000
0100
1000
0000
0001
0100
0001
0000
,
0100
0010
0100
0000
0010
1000
0100
0010
,
0100
0010
0100
0010
0100
0010
0001
1000
,
0001
1000
0001
1000
0001
1000
0001
1000
,
0200
0320
0230
0320
,
0032
2003
3002
1003
,
0110
0000
0000
0100
0000
0000
1000
0000
0020
0000
0000
0000
0030
0000
0000
0000
,
1000
0000
0000
0100
0000
0000
0010
0000
0100
0000
0000
0000
0000
0000
0000
0000
,
0001
0000
0000
1000
0000
0000
0010
0000
0100
0000
0000
0000
0001
0000
0000
0000
,
1000
0000
0000
0010
0000
0000
0100
0000
0001
0000
0000
0000
0000
0000
0000
0000
,
0101
0000
0000
0001
0000
0000
1000
0000
0002
0000
0000
0000
0003
0000
0000
0000
,
0100
0000
0000
0010
0000
0000
1000
0000
0100
0000
0000
0000
0000
0000
0000
0000
,
0010
0000
0000
0001
0000
0000
0100
0000
0010
0000
0000
0000
1000
0000
0000
0000
,
0100
0000
0000
0001
0000
0000
0100
0000
0010
0000
0000
0000
0000
0000
0000
0000
,
1100
0000
0000
1000
0000
0000
0001
0000
0020
0000
0000
0000
0030
0000
0000
0000
,
0001
0000
0000
0100
0000
0000
1000
0000
0100
0000
0000
0000
0000
0000
0000
0000
,
0010
0000
0000
1000
0000
0000
0100
0000
0001
0000
0000
0000
0100
0000
0000
0000
,
1000
0000
0000
0001
0000
0000
0100
0000
0010
0000
0000
0000
0000
0000
0000
0000
,
1000
0000
0000
0100
0000
0000
0010
0000
0200
0000
0000
0000
0301
0000
0000
0000
,
0100
0000
0000
0010
0000
0000
1000
0000
0100
0000
0000
0000
0010
0000
0000
0000
,
0100
0000
0000
1000
0000
0000
0100
0000
1000
0000
0000
0001
0000
0000
0100
0000
,
0101
1100
0101
1100
,
1001
0000
0010
0000
;

//---------------dance-single - BASIC----------------
#NOTES:
     dance-single:
     BASIC:
     Easy:
     4:
     0.225,0.256,0.135,0.048,0.000:
0000
0000
0000
0000
,
0000
0000
0000
0000
,
0000
0000
0000
0000
,
0000
0000
0000
0000
,
0100
0000
0010
0000
,
0001
0000
0010
0000
,
1000
0000
0100
0000
,
0010
0000
0001
0000
,
0110
0000
0000
0000
,
0220
0000
0000
0330
,
0100
0100
1000
1000
,
0001
0001
0100
0000
,
1000
1000
0010
0010
,
0100
0100
1000
0001
,
0100
0100
0001
0001
,
2000
0000
3001
0000
,
0001
1001
1000
1001
,
0010
0100
1000
0001
,
0100
0110
0010
0110
,
0001
1000
0100
0010
,
0001
0001
0010
0010
,
0001
0001
0100
1000
,
0100
0100
0001
0001
,
0100
0100
0010
0000
,
0100
0100
0001
0001
,
0100
0100
1000
0001
,
0100
0100
0001
0001
,
0010
0010
0100
1000
,
1000
1000
1000
0001
,
0001
0001
0001
0001
,
0020
0000
0000
0000
,
0200
0000
0000
0330
,
1001
0010
1000
0000
,
0100
0010
0110
0000
,
0001
0100
1000
0001
,
0100
1000
0001
0000
,
0011
0001
0100
0000
,
0010
1000
1010
0000
,
1000
0010
0001
1000
,
0010
0001
1000
0000
,
1010
0100
0010
0000
,
0001
0010
0011
0000
,
1000
0100
0001
1000
,
0010
0001
1000
0000
,
0100
0010
1000
0001
,
0010
1000
0100
1000
,
0010
0100
0010
0001
,
1000
1100
0001
0100
,
1001
0000
0100
0000
;

//---------------dance-single - BEGINNER----------------
#NOTES:
     dance-single:
     BEGINNER:
     Beginner:
     1:
     0.137,0.210,0.038,0.000,0.000:
0000
0000
0000
0000
,
0000
0000
0000
0000
,
0000
0000
0000
0000
,
0000
0000
0000
0000
,
0100
0000
0010
0000
,
0001
0000
0010
0000
,
1000
0000
0100
0000
,
0010
0000
0001
0000
,
0100
0000
0000
0000
,
0100
0000
0000
0000
,
0100
0000
1000
0000
,
0001
0000
0100
0000
,
1000
0000
0010
0000
,
0100
0000
1000
0000
,
0100
0000
0001
0000
,
1000
0000
0001
0000
,
0001
0001
0000
0000
,
0010
0010
0000
0000
,
0100
0100
0000
0000
,
1000
1000
0000
0000
,
0001
0000
0010
0000
,
0001
0000
0100
0000
,
0100
0000
0001
0000
,
0100
0000
0010
0000
,
0100
0000
0001
0000
,
0100
0000
1000
0000
,
0100
0000
0001
0000
,
0010
0000
0000
0001
,
0001
0001
0001
0001
,
0001
0001
0001
0001
,
0001
0000
1000
0000
,
0001
0000
1000
0000
,
1001
0000
1000
0000
,
0100
0100
0100
0000
,
0001
0000
1000
0000
,
0001
0000
1000
0000
,
1001
0000
0100
0000
,
0010
0010
0010
0000
,
1000
0000
0001
0000
,
1000
0000
0001
0000
,
0110
0000
0010
0000
,
0001
0001
0001
0000
,
1000
0000
0001
0000
,
1000
0000
0001
0000
,
0100
0000
1000
0000
,
0010
0000
0100
0000
,
0010
0000
0010
0000
,
1000
1000
1000
0000
,
1001
0000
0100
0000
;

//---------------dance-double - BASIC----------------
#NOTES:
     dance-double:
     BASIC:
     Easy:
     4:
     0.199,0.233,0.058,0.010,0.000:
00000000
00000000
00000000
00000000
,
00000000
00000000
00000000
00000000
,
00000000
00000000
00000000
00000000
,
00000000
00000000
00000000
00000000
,
10000000
01000000
00100000
00000000
,
00010000
00100000
01000000
00000000
,
00010000
00001000
00000100
00000000
,
00000010
00001000
00000100
00000010
,
00000001
00000000
00000000
00000000
,
00000200
00000000
00000000
00000300
,
00000001
00001000
00000001
00000000
,
00000100
00000000
00001000
00000000
00000010
00000010
00000010
00000000
,
00001000
00000100
00010000
00000000
,
00001000
01000000
00100000
00000000
,
10000000
01000000
00100000
00000000
,
00010000
00000000
00100000
00000000
00010000
10000000
00010000
00000000
,
01000000
00000000
00010000
00000000
,
00001000
00000000
00010000
00000000
,
01000000
00000000
00010000
00000000
,
00001000
00000000
00000010
00000000
,
00000010
00000100
00000001
00000000
,
00001000
00000100
00001100
00000000
,
00010000
00001000
00100000
00000000
,
00010000
00000000
01000000
00000000
10000000
00010000
10000000
00000000
,
00100000
01000000
00010000
00000000
,
00100000
00001000
00011000
00000000
,
00001000
00000100
00000010
00000000
,
00001000
00000000
00000100
00000000
00001000
00000001
00001000
00000000
,
00001000
00001000
00001000
00001000
,
00001000
00001000
00001000
00001000
,
00000100
00010000
00001000
00100000
,
00010000
00010000
00010000
00010000
,
10010000
01000000
00100000
00000000
,
10000000
01000000
00010000
00000000
,
00010000
00001000
00000000
00000001
,
00000000
00000010
00000000
00000100
,
00001001
00000010
00000100
00000000
,
00001000
00010000
00100000
00000000
,
01000000
00010000
00000000
10000000
,
00000000
01000000
00000000
00010000
,
00011000
00001000
00000100
00000000
,
00001000
00000010
00000100
00000000
,
00000001
00000010
00000000
00001000
,
00000000
00010000
00000000
01000000
,
10000000
00010000
10000000
00000000
,
00100000
00010000
00100000
00000000
,
00001000
00010000
00001000
00000100
,
00000010
00001000
00000100
00000010
,
00000011
00000000
00000100
00000000
;

//---------------dance-double - TRICK----------------
#NOTES:
     dance-double:
     TRICK:
     Medium:
     6:
     0.324,0.419,0.125,0.115,0.043:
00000000
00000000
00000000
00000000
,
00000000
00000000
00000000
00000000
,
00000000
00000000
00000000
00000000
,
00000000
00000000
00000000
00000000
,
00100000
00000000
00000000
00100000
00000000
00000000
00000000
00000000
10000000
00000000
00000000
00000000
01000000
00000000
00000000
00000000
,
00010000
00000000
00000000
00001000
00000000
00000000
00000000
00000000
00000100
00000000
00000000
00000000
00001000
00000000
00000000
00000000
,
00010000
00000000
00000000
00000100
00000000
00000000
00000000
00000000
00001000
00000000
00000000
00000000
00000010
00000000
00000000
00000000
,
00000100
00000000
00000000
00000001
00000000
00000000
00000000
00000000
00001000
00000000
00000000
00000000
00000100
00000000
00000000
00000000
,
00000110
00000000
00000000
00000000
00000000
00000000
00000000
00000010
00000000
00000000
00000000
00000000
00000000
00000000
00000000
00000000
,
00000001
00000010
00000001
00000010
00000001
00000010
00000001
00000000
,
00000100
00001000
00010000
01000000
,
10000000
00100000
01000000
00010000
20000000
00000000
30000000
00000000
,
00100000
00000000
00010000
00000000
10000000
01000000
00100000
00000000
,
10000000
01000000
00010000
00001000
,
00000010
00000100
00000001
00001000
,
00000010
00001000
00000100
00000010
00000002
00000000
00000003
00000000
,
00000010
00001000
00000100
00000000
00000010
00000001
00000100
00000000
,
00001000
00010000
00001000
00000000
00010000
00001000
00010000
00000000
,
00100000
10000000
01000000
00000000
00100000
00010000
01000000
00000000
,
00001000
00010000
00001000
00000000
00010000
00001000
00010000
00000000
,
00000100
00000000
00000010
00000000
00001000
00000010
00000100
00000000
,
00000001
00001000
00000100
00010000
,
00001000
01000000
00010000
00100000
,
00010000
00100000
01000000
10000000
00020000
00000000
00030000
00000000
,
10000000
00000000
00100000
00000000
01000000
00100000
00010000
00000000
,
00100000
10000000
00010000
00100000
,
00001000
00010000
00000100
00000010
,
00000001
00000100
00000010
00001000
00000200
00000000
00001300
00000000
,
00001001
00000001
00000101
00000100
,
00001100
00001000
00011000
00010000
,
00110000
00100000
10000000
00100000
10000000
00100000
10000000
00100000
,
10000000
01000000
00010000
01000000
00010000
01000000
00010000
01000000
,
00010000
00011000
00000200
00000300
,
00000001
00000000
00000000
00001000
00000000
00000000
00000001
00000000
00000200
00000000
00000000
00000000
00000310
00000000
00000000
00000000
,
00001000
00000000
00000001
00000000
00000100
00001000
00010000
00000000
,
00001000
00000000
00100000
00000000
00010000
01000000
00100000
00000000
,
10000000
01010000
00200000
00300000
,
00010000
00000000
00000000
00001000
00000000
00000000
00000100
00000000
00002000
00000000
00000000
00000000
00013000
00000000
00000000
00000000
,
00100000
00000000
10000000
00010000
01000000
00000000
00001000
00000000
,
00010000
00000000
00000100
00000010
00000001
00000000
00001000
00000000
,
00000110
00000101
00000020
00000030
,
00001000
00000000
00000000
00000010
00000000
00000000
00000100
00000000
00000002
00000000
00000000
00000000
00001003
00000000
00000000
00000000
,
00000010
00000000
00000100
00001000
00010000
00000000
00001000
00000000
,
00100000
00000000
00010000
01000000
00100000
00000000
10000000
00000000
,
01010000
00110000
00002000
00003000
,
00010000
00000000
00000000
00000100
00000000
00000000
00001000
00000000
00000020
00000000
00000000
00000000
00000130
00000000
00000000
00000000
,
00000001
00000000
00000100
00001000
00010000
00000000
00100000
00000000
,
10000000
00010000
00100000
00000000
00001000
00000000
00000100
00000000
,
00001010
00000000
00010000
00000000
;

//---------------dance-single - MANIAC----------------
#NOTES:
     dance-single:
     MANIAC:
     Hard:
     8:
     0.395,0.502,0.154,0.048,0.274:
0000
0000
0000
0000
,
0000
0000
0000
0000
,
0000
0000
0000
0000
,
0000
0000
0000
0000
,
1000
0000
0000
0100
0000
0000
0000
0000
1000
0000
0000
0001
0000
0000
1000
0000
,
0010
0000
0000
0100
0000
0000
0000
0000
0001
0000
0000
1000
0000
0000
0001
0000
,
0100
0000
0000
0010
0000
0000
0000
0000
1000
0000
0000
0001
0000
0000
0010
0000
,
0200
1000
0001
0310
,
1001
0000
0000
0000
,
1000
0010
0100
0001
,
1100
0000
0000
0001
0000
0000
0100
0000
0001
0000
0000
0100
0000
0000
1000
0000
,
0100
0000
0000
1000
0000
0000
0100
0000
0001
0000
1000
0000
0010
0000
0000
0000
,
0101
0000
0000
0010
0000
0000
0100
0000
0010
0000
0000
0100
0000
0000
0001
0000
,
1000
0000
0000
0001
0000
0000
1000
0000
0100
0000
0010
0000
0001
0000
0000
0000
,
0010
0000
0100
0000
0010
0000
0000
0001
0000
0100
0000
0010
0000
0000
1000
0000
,
1001
0000
0000
0100
,
0010
1000
0100
0100
0100
1000
0100
0000
,
0010
0001
0100
0100
0100
0001
0100
0000
,
0001
1000
0001
0001
0001
0100
0001
0000
,
1000
0001
1000
1000
1000
0100
1000
0000
,
0110
0000
0000
1000
0000
0000
0001
0000
0100
0000
0000
0010
0000
0000
1000
0000
,
0100
0000
0000
0010
0000
0000
0001
0000
0100
0000
1000
0000
0100
0000
0000
0000
,
0101
0000
0000
0010
0000
0000
1000
0000
0001
0000
0000
0100
0000
0000
0010
0000
,
1000
0000
0000
0010
0000
0000
0001
0000
0010
0000
1000
0000
0010
0000
0000
0000
,
1010
0000
0000
0100
0000
0000
1000
0000
0001
0000
0000
0010
0000
0000
1000
0000
,
0001
0000
0000
0100
0000
0000
1000
0000
0001
0000
1000
0000
0010
0000
0000
0000
,
1100
0000
0000
0001
0000
0000
0010
0000
0100
0000
0000
1000
0000
0000
0001
0000
,
1000
0000
0000
0010
0000
0000
0001
0000
1000
0000
0100
0000
1000
0000
1000
0000
,
0100
0100
0010
0010
0001
0001
1000
1000
,
0010
0010
0100
0100
0001
0001
1000
1000
,
0001
0010
0100
1000
0001
0010
0100
1000
,
0001
1000
0001
1000
0001
1000
0001
1000
0001
0000
0100
0000
1000
0000
0100
0000
,
0002
0000
2000
3003
,
0110
0000
0000
1000
0000
0000
0100
0000
0010
0000
0000
0000
1001
0000
0000
0000
,
0100
0000
0000
1000
0000
0000
0100
0000
0001
0000
0000
0100
0000
0000
0010
0000
,
1000
0000
0000
0001
0000
0000
1000
0000
0002
0000
0000
0000
0103
0000
0000
0000
,
1001
0000
0000
0010
0000
0000
0100
0000
0010
0000
0000
0000
1010
0000
0000
0000
,
0100
0000
0000
0010
0000
0000
1000
0000
0001
0000
0000
0100
0000
0000
0010
0000
,
1000
0000
0000
0001
0000
0000
0010
0000
1000
0000
0010
0000
0001
0000
0000
0000
,
1010
0000
0000
0001
0000
0000
0010
0000
1000
0000
0000
0000
1001
0000
0000
0000
,
1000
0000
0000
0100
0000
0000
0000
0000
1000
0001
1000
0001
1000
0000
0000
0000
,
0001
0000
0000
0100
0000
0000
0000
0000
0001
1000
0001
1000
0001
0000
0000
0000
,
1000
0000
0000
1000
0000
0000
0010
0000
0001
0000
0000
0001
0000
0000
0010
0000
,
1000
0000
0000
1000
0000
0000
0100
0000
0010
0000
0000
0000
1001
0000
0000
0000
,
0010
0000
0000
0010
0001
0000
0000
0000
1000
0001
1000
0001
1000
0000
0000
0000
,
0010
0000
0000
0010
1000
0000
0000
0000
0001
1000
0001
1000
0001
0000
0000
0000
,
0010
0000
0000
1000
0000
0000
0100
0000
0001
0000
0000
0100
0000
0000
1000
0000
,
0010
0100
0001
0010
1000
0010
0001
0100
,
0110
0000
0020
0000
,
0000
0000
0000
0030
;

//---------------dance-double - CHALLENGE----------------
#NOTES:
     dance-double:
     CHALLENGE:
     Challenge:
     9:
     0.482,0.693,0.019,0.029,0.389:
00000000
00000000
00000000
00000000
,
00000000
00000000
00000000
00000000
,
00000000
00000000
00000000
00000000
,
00000000
00000000
00000000
00000000
,
00100000
00000000
00000000
01000000
00000000
00000000
01000000
00000000
10000000
00000000
00000000
01000000
00000000
10000000
00010000
00000000
,
00100000
00000000
00000000
00001000
00000000
00000000
00001000
00000000
00010000
00000000
00000000
00000100
00000000
00000100
00001000
00000000
,
00000010
00000000
00000000
00000100
00000000
00000000
00000100
00000000
00000001
00000000
00000000
00000100
00000000
00000001
00001000
00000000
,
00000010
00000000
00000000
00010000
00000000
00000000
00010000
00000000
00001000
00000000
00000000
01000000
00000000
01000000
00010000
00000000
,
00100000
00000000
00000000
01000000
00000000
00000000
00000000
10000000
00000000
00010000
00000000
01000000
00000000
00000000
00000000
00000000
,
10000000
01000000
00100000
00010000
00001000
00000100
00000010
00000001
,
00001000
00000000
00000000
00001000
00000001
00000000
00000100
00000000
00001000
00000000
00000000
00001000
00010000
00000000
00001000
00000000
,
00010000
00000000
00000000
00010000
01000000
00000000
10000000
00000000
00100000
00000000
01000000
00000000
00100000
00000000
10000000
00000000
,
01000000
00000000
00000000
01000000
00010000
00000000
00001000
00000000
00010000
00000000
00000000
00010000
00000100
00000000
00001000
00000000
,
00000001
00000000
00000000
00000001
00000100
00000000
00000010
00000000
00001000
00000000
00000100
00000000
00000010
00000000
00000100
00000000
,
00001000
00000000
00000000
00001000
00000001
00000000
00000100
00000000
00001000
00000000
00000000
00001000
00010000
00000000
00100000
00000000
,
20200000
00000000
00000000
30300000
,
00000000
10000000
10000000
00010000
10000000
01000000
00010000
00001000
,
00000100
00000001
00000001
00001000
00000001
00000001
00000100
00001000
,
00010000
01000000
01000000
10000000
00100000
00100000
00010000
00001000
,
00000100
00000000
00000010
00000000
00000010
00000000
00001000
00000000
00000100
00000000
00000100
00000000
00000000
00000001
00001000
00000000
,
00000100
00000000
00000000
00001000
00000100
00000000
00001000
00000000
00000010
00000000
00000100
00000000
00000001
00000000
00000000
00000000
,
00001000
00000000
00000000
00000001
00000100
00000000
00000001
00000000
00001000
00000001
00001000
00000001
00001000
00000000
00000000
00000000
,
00000010
00000000
00000000
00010000
00001000
00000000
00010000
00000000
00000100
00000000
00001000
00000000
01000000
00000000
00000000
00000000
,
00100000
00000000
00000000
00010000
10000000
00000000
01000000
00000000
10000000
00010000
10000000
00010000
10000000
00000000
00000000
00000000
,
00010000
00000000
00000000
01000000
00010000
00000000
10000000
00000000
01000000
00000000
00010000
00000000
00001000
00000000
00000000
00000000
,
00000100
00000000
00000000
00010000
00001000
00000000
00010000
00000000
00001000
00010000
00001000
00010000
00001000
00000000
00000000
00000000
,
00000100
00000000
00000000
00000001
00001000
00000000
00000010
00000000
00000001
00000000
00000010
00000000
00001000
00000000
00000000
00000000
,
00000001
00000000
00000000
00001000
00000010
00000000
00010000
00000000
00001000
00010000
00001000
00010000
00001000
00000000
00000100
00000000
,
00000010
00001000
00010000
01000000
00100000
00010000
00001000
00000010
,
00000100
00001000
00010000
01000000
00100000
00010000
00001000
00000010
,
00000100
00000010
00000100
00000010
00000100
00000010
00000100
00000010
00000100
00000010
00000100
00000010
00000100
00000010
00000100
00000010
,
00000100
00000010
00000100
00000010
00000100
00000010
00000100
00000010
00000100
00000000
00001000
00000000
00010000
00000000
00100000
00000000
,
10000000
00000000
00000000
00010000
01000000
00000000
10000000
00000000
00100000
00000000
01000000
00000000
00010000
00000000
00000000
00000000
,
00001000
00000000
00000000
00000010
00000000
00000000
00010000
00000000
00001000
00000000
00100000
00000000
00010000
00000000
00000000
00000000
,
10000000
00000000
00000000
00100000
01000000
00000000
00010000
00000000
00001000
00000000
00000010
00000000
00000100
00000000
00000000
00000000
,
00000001
00000000
00000000
00001000
00000000
00000000
00000100
00000000
00000010
00000000
00001000
00000000
00000001
00000000
00000000
00000000
,
00000100
00000000
00000000
00001000
00000010
00000000
00000100
00000000
00000001
00000000
00000100
00000000
00001000
00000000
00000000
00000000
,
00010000
00000000
00000000
00001000
00000000
00000000
00010000
00000000
00000010
00000000
00010000
00000000
00001000
00000000
00000000
00000000
,
00010000
00000000
00000000
00001000
00100000
00000000
00010000
00000000
01000000
00000000
00100000
00000000
10000000
00000000
00000000
00000000
,
01000000
00000000
00000000
00010000
00001000
00000000
00010000
00000000
00000100
00000000
00001000
00000000
00000010
00000000
00000000
00000000
,
00001000
00000000
00000000
00000010
00000000
00000000
00000100
00000000
00000001
00001000
00000001
00001000
00000001
00000000
00000100
00000000
,
00001000
00000000
00000000
00010000
00000000
00000000
01000000
00000000
10000000
00010000
10000000
00010000
10000000
00000000
00010000
00000000
,
01000000
00000000
00000000
10000000
00000000
00000000
01000000
00000000
00001000
00000000
00000000
00010000
00000000
00000000
00001000
00000000
,
00010000
00000000
00000000
00000100
00000000
00000000
00000001
00000000
00000100
00000000
00000000
00001000
00000000
00000000
00000001
00000000
,
00001000
00000000
00000000
00001000
00000100
00000000
00010000
00000000
00000010
00001000
00000010
00001000
00000010
00000000
00010000
00000000
,
00001000
00000000
00000000
00001000
00010000
00000000
00000010
00000000
00010000
00001000
00010000
00001000
00010000
00000000
01000000
00000000
,
00100000
00000000
00000000
00100000
00010000
00000000
01000000
00000000
00010000
10000000
00010000
10000000
00010000
00000000
10000000
00000000
,
01000000
00000000
00010000
00000000
00001000
00010000
00001000
00000000
00000100
00000000
00000001
00000000
00000010
00000000
00000100
00000000
,
00001001
00000000
00000200
00000000
,
00000000
00000000
00000000
00000300
;
