#TITLE:I don't love you;
#SUBTITLE:;
#ARTIST:MY CHEMICAL ROMANCE;
#TITLETRANSLIT:;
#SUBTITLETRANSLIT:;
#ARTISTTRANSLIT:;
#CREDIT:;
#BANNER:I don't love you-bn.png;
#BACKGROUND:I don't love you-bg.png;
#LYRICSPATH:;
#CDTITLE:THE BLACK PARADE.png;
#MUSIC:I Don't Love You.mp3;
#OFFSET:-0.040;
#SAMPLESTART:73.360;
#SAMPLELENGTH:14.840;
#SELECTABLE:YES;
#BPMS:0.000=85.020,140.000=84.000,141.000=83.720,142.000=82.240,142.500=79.000,143.000=75.020,143.500=72.320;
#STOPS:;
#BGCHANGES:;

//---------------dance-single - ----------------
#NOTES:
     dance-single:
     :
     Hard:
     5:
     0.265,0.308,0.149,0.149,0.000:
0000
0000
0000
0000
,
0000
0000
0000
0000
,
0010
0001
0010
0001
0010
0001
0010
0001
,
1000
0100
1000
0100
1000
0010
1000
0010
,
0100
0001
0100
0001
0100
0001
0100
0001
,
0010
0001
0010
0001
0010
0100
0010
0100
,
1000
0010
1000
0010
1000
0010
1000
0010
,
0100
0001
0100
0001
0010
0001
0010
0001
,
0100
0010
0100
0001
0100
0010
0100
0001
,
1000
0100
1000
0001
1000
0010
1000
0001
,
1000
0000
0000
0000
,
0101
0010
0001
0100
0000
0000
0000
0000
,
0010
1000
0100
0000
1100
0000
0000
0000
,
1001
0000
0001
0001
,
1000
0100
0000
0000
0001
0100
0000
0000
,
1000
0010
1000
0000
0100
0001
1000
0000
,
0001
0000
0000
0000
,
0001
0001
0001
1000
1000
0000
0110
0000
,
0002
0010
1000
0100
,
1003
0100
0100
0100
0010
0000
0001
0000
,
2010
0100
0010
0001
,
3100
0000
0000
0000
1000
0010
0100
0001
,
1000
0000
0000
0000
0001
1000
0110
0110
,
1001
0000
0000
0000
0011
0001
1000
2100
,
0100
0001
0010
3100
,
0010
0010
0001
0001
0100
0100
0100
0000
,
2001
0000
0010
0010
,
3002
0000
2003
3020
,
0032
0023
2030
3002
,
0203
0000
0000
0000
0300
0001
1000
0100
,
0010
0000
0000
0000
0000
0100
0010
0001
,
0100
0000
0000
0000
0010
1000
0001
0000
,
2020
3030
0022
0033
,
1010
1010
1000
0100
0100
0010
0010
0001
,
1000
0000
0010
0000
1010
0001
0100
0010
,
1000
0000
0011
0000
1000
0100
0010
0001
,
0200
0000
0000
0000
,
0300
0000
0000
0000
;

//---------------dance-single - ----------------
#NOTES:
     dance-single:
     :
     Medium:
     4:
     0.224,0.292,0.088,0.149,0.000:
0000
0000
0000
0000
,
0000
0000
0000
0000
,
1000
0100
1000
0100
1000
0100
1000
0000
,
0010
1000
0010
0000
0010
0100
0010
0000
,
0100
0001
0100
0001
0100
0001
0100
0000
,
0001
0010
0001
0000
0001
1000
0001
0000
,
1000
0010
1000
0010
1000
0010
1000
0000
,
0100
0001
0100
0000
0100
0010
0100
0000
,
0001
1000
0001
1000
0010
1000
0010
0000
,
1000
0001
1000
0001
0010
0001
0010
0000
,
0001
0000
0000
0000
,
0001
0000
1000
0000
,
0001
0010
0100
0000
,
0010
0001
0100
0000
,
0010
1000
0000
0000
1000
0000
0000
0000
,
1000
1000
0000
0000
0100
0100
0000
0000
,
0010
0000
0000
0000
,
0100
0100
0100
0000
1000
1000
0010
0010
,
0200
0302
0023
0230
,
1300
0100
0010
0001
,
0200
0302
0023
0230
,
1300
0000
1000
1000
,
0010
0000
0000
0000
0000
1000
1000
0010
,
1010
0000
0000
0000
0100
0001
0101
0000
,
2000
0001
0100
3001
,
2000
0010
0001
3100
,
0020
0000
0031
0001
,
0002
0000
2003
3010
,
0020
0100
0230
0001
,
0302
0000
0000
0000
0003
1000
0001
1000
,
0001
0000
0000
0000
0000
0001
0010
0001
,
0010
0000
0100
0000
1000
0010
0100
0000
,
1001
0000
0110
0000
,
1001
1001
1001
0000
0110
0110
0110
0010
,
0010
0000
1000
0000
0001
0100
0010
0000
,
1000
0000
0001
0000
1000
0100
0010
0100
,
2000
0000
0000
0000
,
3000
0000
0000
0000
;

//---------------dance-single - ----------------
#NOTES:
     dance-single:
     :
     Easy:
     2:
     0.120,0.146,0.026,0.070,0.000:
0000
0000
0000
0000
,
0000
0000
0000
0000
,
0100
0000
0100
0000
,
0010
0000
0010
0000
,
1000
0000
1000
0000
,
0010
0000
1000
0000
,
0100
0000
0100
0000
,
0010
0000
0010
0000
,
0001
0000
1000
0000
,
0010
0000
0100
0000
,
0002
0000
0000
0003
0000
0000
0000
0000
,
1000
1000
1000
0000
,
0010
0000
0001
0000
,
0100
0000
0001
0001
,
0010
0000
0100
0000
,
0001
0001
1000
1000
,
0100
0000
0000
0000
,
1000
0000
0010
0000
,
0100
0001
0001
1000
,
0100
0000
0000
0000
,
0010
0001
0001
1000
,
0100
0000
0001
1000
,
0010
0000
0000
1000
,
0010
0000
0010
0100
,
0100
0100
0100
0100
,
0100
0001
0001
0010
,
0002
0000
0000
0103
,
0020
0000
2030
0000
,
3200
0000
2300
0000
,
3020
0000
0030
0000
,
0100
0100
0000
0000
,
0001
0001
1000
0000
,
1001
0000
1001
0000
,
1001
0000
0001
1000
,
0100
0010
0010
0100
,
1000
0010
0010
1000
,
0002
0000
0000
0000
,
0003
0000
0000
0000
;

//---------------dance-single - ----------------
#NOTES:
     dance-single:
     :
     Beginner:
     1:
     0.079,0.110,0.044,0.000,0.000: // measure 1
0000
0000
0000
0000
,  // measure 2
0000
0000
0000
0000
,  // measure 3
0001
0000
0000
0000
,  // measure 4
0100
0000
0000
0000
,  // measure 5
0010
0000
0000
0000
,  // measure 6
1000
0000
1000
0000
,  // measure 7
0100
0000
0000
0000
,  // measure 8
0010
0000
0000
0000
,  // measure 9
0001
0000
0000
0000
,  // measure 10
1000
0000
0001
0000
,  // measure 11
1001
0000
0000
0000
,  // measure 12
0000
0000
0000
0000
,  // measure 13
0010
0000
0100
0000
,  // measure 14
0100
0000
0001
0001
,  // measure 15
0001
0000
1000
0000
,  // measure 16
1000
0000
0001
0000
,  // measure 17
1000
0000
0000
0000
,  // measure 18
0000
0100
0100
0100
,  // measure 19
0100
0000
1000
0000
,  // measure 20
0001
0000
1000
0000
,  // measure 21
0010
0000
0000
0000
,  // measure 22
0100
0000
0010
0000
,  // measure 23
0100
0000
0000
0000
,  // measure 24
0001
0000
0000
0000
,  // measure 25
1000
0000
1000
1000
,  // measure 26
1000
0000
0001
0000
,  // measure 27
0110
0000
0000
0000
,  // measure 28
0100
0000
1000
0000
,  // measure 29
0010
0000
0100
0000
,  // measure 30
0001
0000
0000
0010
,  // measure 31
0010
0000
0000
0100
,  // measure 32
0100
0000
1000
0000
,  // measure 33
1001
0000
0110
0000
,  // measure 34
1001
0000
0000
0000
,  // measure 35
0100
0000
0001
0001
,  // measure 36
0001
0000
1000
0000
,  // measure 37
0100
0000
0000
0000
;
