#TITLE:I WILL FLY;
#SUBTITLE:(Delaction Remix);
#ARTIST:CAT;
#TITLETRANSLIT:;
#SUBTITLETRANSLIT:;
#ARTISTTRANSLIT:;
#CREDIT:;
#BANNER:I WILL FLY (Delaction Remix).png;
#BACKGROUND:I WILL FLY (Delaction Remix)-bg.png;
#LYRICSPATH:;
#CDTITLE:;
#MUSIC:I WILL FLY (Delaction Remix) - CAT.mp3;
#OFFSET:-10.080;
#SAMPLESTART:56.162;
#SAMPLELENGTH:12.000;
#SELECTABLE:YES;
#BPMS:0.000=144.000;
#STOPS:;
#BGCHANGES:;

//---------------dance-single - ----------------
#NOTES:
     dance-single:
     :
     Hard:
     7:
     0.451,0.414,0.133,0.000,0.149: // measure 1
1000
0000
0000
0001
0000
0000
0010
0000
0001
0000
0000
0000
0100
0000
0000
0000
,  // measure 2
0001
0000
0000
0100
0000
0000
0010
0000
1000
0000
0000
0100
0000
0000
1000
0000
,  // measure 3
0001
0010
0100
1000
0010
0100
0001
0010
,  // measure 4
0001
0100
0000
0010
0000
1000
0100
0000
0010
0000
0000
0000
0100
0000
1000
0000
,  // measure 5
0001
0000
0000
0010
0000
0000
0001
0000
1000
0000
0000
0000
0100
0000
0000
0000
,  // measure 6
0010
0000
0000
0001
0000
0000
0100
0000
0001
0000
0000
0000
0010
0000
0100
0000
,  // measure 7
1000
0000
0000
0010
0000
0000
1000
0000
0100
0000
0000
1000
0000
0000
0001
0000
,  // measure 8
0010
0000
0000
0001
0000
0000
1000
0000
0100
0000
0000
0000
0010
0000
0001
0000
,  // measure 9
0100
0000
0000
0010
0000
0000
1000
0000
0100
0000
0000
0000
0010
0000
0000
0000
,  // measure 10
0100
0000
0000
1000
0000
0000
0001
0000
0010
0000
0000
0000
0001
0000
0100
0000
,  // measure 11
0010
0000
1001
0000
0010
0000
1000
0100
,  // measure 12
0010
0001
0000
0100
0000
0010
1000
0000
0100
0000
0000
0000
1001
0000
0000
0000
,  // measure 13
0001
0100
0010
0000
0010
1000
0100
0000
,  // measure 14
1100
1001
0101
0010
,  // measure 15
1000
0100
0010
0000
0010
0001
0100
0000
,  // measure 16
0010
0100
0001
0000
0101
0000
1000
0100
,  // measure 17
1000
0000
0010
0100
0001
0000
0010
0000
,  // measure 18
0001
0100
0010
1000
0100
0000
0010
0001
,  // measure 19
1000
0100
0010
0001
0100
0010
1000
0100
,  // measure 20
0010
0001
0100
0010
1000
0100
0100
0000
,  // measure 21
1001
0000
0001
0100
0010
0000
0010
0000
,  // measure 22
1000
0100
0010
0001
0100
0000
0010
0000
,  // measure 23
1000
0000
1000
0000
0100
0001
0100
1000
,  // measure 24
0010
0100
0001
0000
0101
0000
1000
0100
,  // measure 25
0010
0000
0010
0001
0100
0000
0010
0000
,  // measure 26
1000
0100
0010
0100
1000
0000
0001
0000
,  // measure 27
1000
0100
0001
0100
1000
0010
0100
0001
,  // measure 28
0100
0010
1000
0001
0010
0001
0100
0010
,  // measure 29
1000
0000
0100
0000
0000
1000
0000
0000
0001
0000
0000
0000
0010
0000
0001
0000
,  // measure 30
0100
0000
0010
0000
1000
0000
0100
0000
1000
0001
1000
0000
0100
0000
1000
0000
,  // measure 31
0001
0000
0010
0000
0000
0001
0000
0000
0100
0000
0000
0000
0010
0000
1000
0000
,  // measure 32
0100
0010
0100
0000
1000
0000
0001
0000
0010
0100
0010
0000
0001
0000
1000
0000
,  // measure 33
0100
0000
1000
0000
0000
0010
0000
0000
0100
0000
0000
0000
0001
0000
0010
0000
,  // measure 34
0100
0000
0010
0000
0001
0000
0100
0000
0010
1000
0010
0000
0100
0000
0001
0000
,  // measure 35
0010
0000
0001
0000
1000
0000
0010
0100
,  // measure 36
0001
0000
0000
0000
,  // measure 37
1001
0000
0010
0100
0001
0000
0010
0001
,  // measure 38
1000
0000
0100
0000
0010
0000
0001
0000
0100
0000
0000
0010
0000
0000
1000
0000
,  // measure 39
0100
0000
1000
0010
1000
0000
0001
0000
,  // measure 40
0100
0000
0001
0000
0100
0000
0010
0000
1000
0000
0000
0100
0000
0000
1000
0000
,  // measure 41
0010
0000
0010
1000
0100
0000
0010
0001
,  // measure 42
1000
0100
0010
0100
1000
0000
0001
0100
,  // measure 43
0010
0000
1001
0000
0100
0000
0010
1000
,  // measure 44
0000
0000
0001
0000
0000
0100
0000
0000
0001
0000
0000
0101
0000
0000
1001
0000
,  // measure 45
0010
0000
0000
0000
;

//---------------dance-single - ----------------
#NOTES:
     dance-single:
     :
     Easy:
     3:
     0.291,0.274,0.133,0.188,0.000:
1000
0100
2000
3000
,
0001
0010
0001
0001
,
1000
0100
1000
0001
,
1001
0010
0200
0300
,
0001
1000
0200
0300
,
1000
0001
0010
0010
,
0001
0001
1000
1000
,
0100
1000
0020
0030
,
1000
0100
2000
3000
,
0001
0010
0001
0100
,
0010
1000
0100
1000
,
1001
0010
0200
0300
,
0002
1003
2000
3100
,
1000
1000
1000
0000
,
0100
0010
0100
1000
,
0001
0010
0001
0001
,
2000
3000
0002
0003
,
1000
0100
1000
0000
,
0100
0010
0001
0100
,
0010
1000
0100
1000
,
0002
1003
2000
3100
,
1000
1000
1000
0000
,
0001
0010
0001
0100
,
0010
1000
1001
0010
,
0200
0300
0002
0003
,
0010
0001
1000
0100
,
1000
1000
0010
0100
,
0002
0000
0000
0003
,
1001
0010
0100
0001
,
1000
1000
0100
1000
,
1001
0010
0100
0001
,
0010
0010
0001
1000
,
1001
0010
0100
0001
,
1000
1000
0100
1000
,
0010
0100
0001
0010
,
0002
0000
0000
0003
,
1001
0010
1001
0010
,
1000
1000
1000
0000
,
0110
0010
0110
1000
,
0010
0010
0010
0000
,
1001
1000
1001
0010
,
0100
0100
0100
0001
,
0010
0001
1000
0100
,
1000
0000
0001
1000
,
0200
0000
0000
0000
,
0300
0000
0000
0000
;

//---------------dance-single - STANDARD----------------
#NOTES:
     dance-single:
     STANDARD:
     Medium:
     6:
     0.381,0.414,0.255,0.011,0.011:
1000
0000
0001
0100
0010
0000
1000
0000
,
0100
0000
1000
0000
0001
0100
0001
0000
,
1000
0010
1000
0100
1000
0010
1000
0001
,
1000
1000
0001
0000
1001
0000
0000
0000
,
0010
0000
0100
0001
0100
0000
0010
0000
,
1000
0000
0100
0000
1000
0001
1000
0000
,
0001
0010
0001
0000
1000
0100
1000
0000
,
0010
0000
0100
0001
0100
0000
1000
0100
,
1000
0001
1000
0100
,
1000
0000
0010
0000
0100
0001
0100
0000
,
0010
1000
1001
0010
,
0100
0100
0001
1000
0010
0000
0000
0000
,
1000
0100
1100
0001
,
1000
1000
0001
0010
,
0011
0001
0011
1000
,
0100
1000
1001
0010
,
0100
0001
0011
1000
,
0001
1000
0010
1000
,
0001
0100
0001
0100
0001
0100
0001
0100
,
0001
1000
0001
1000
0001
1000
0001
0000
,
0010
0001
1001
0010
,
1000
0100
1100
0010
,
0101
0010
0101
1000
,
0010
1000
1001
0010
,
0100
0100
0010
0001
,
0010
0001
1001
0010
,
0100
0010
0100
0010
0100
0010
0100
0010
,
0100
0001
0100
0001
0100
0001
1000
0000
,
1001
0010
0100
0001
,
1000
0100
1000
0000
0001
0100
0001
0000
,
1001
0010
0100
0001
,
1000
0100
1000
0000
0100
0010
0100
0000
,
1001
0100
1000
0001
,
1000
0100
1000
0000
0001
0100
0001
1000
,
0010
0000
1000
0000
0100
0000
1000
0001
,
0020
0000
0000
0030
,
1001
0100
1001
0010
,
0100
0000
0100
0000
0010
0100
0010
0000
,
1010
1000
1010
0001
,
0010
0000
0010
0000
0001
1000
0001
0000
,
0110
0010
0110
1000
,
0100
1000
0100
1000
0100
0000
1000
0000
,
1001
0000
0010
0000
0100
0000
0001
0010
,
0001
0000
1000
0000
0000
0100
0000
0000
1000
0000
0000
0001
0000
0000
1000
0000
,
0010
0000
0000
0000
;
