#TITLE:I CAN FEEL IT;
#SUBTITLE:(Y&CO. RMX);
#ARTIST:JENNIFER LUCAS;
#TITLETRANSLIT:;
#SUBTITLETRANSLIT:;
#ARTISTTRANSLIT:;
#CREDIT:;
#BANNER:I CAN FEEL IT (Y&Co. RMX).png;
#BACKGROUND:I CAN FEEL IT (Y&Co. RMX)-bg.png;
#LYRICSPATH:;
#CDTITLE:VIP MEGA EURO STAR BEST.png;
#MUSIC:I CAN FEEL IT (Y&Co. RMX).mp3;
#OFFSET:-0.057;
#SAMPLESTART:28.400;
#SAMPLELENGTH:12.000;
#SELECTABLE:YES;
#BPMS:0.000=150.000;
#STOPS:;
#BGCHANGES:;

//---------------dance-single - ----------------
#NOTES:
     dance-single:
     :
     Hard:
     8:
     0.537,0.549,0.167,0.079,0.133:
0000
0000
0000
0000
,
0000
0000
0000
0000
,
0000
0000
0000
0000
,
0000
0000
0000
0000
,
0000
0000
0000
0000
,
1000
0000
0000
0001
0000
0000
0100
0000
0010
0000
1000
0000
0010
0000
1000
0000
,
0001
0000
0000
0010
0000
0000
0001
0000
0100
0000
0010
0000
0100
0000
0010
0000
,
1000
0000
0000
0001
0000
0000
0010
0000
0100
0000
1000
0000
0100
0000
1000
0000
,
0001
0000
0000
0010
0000
0000
0100
0000
1000
0000
0010
0000
1000
0000
0010
0000
,
0100
0000
0000
0001
0000
0000
0010
0000
0001
0000
0100
0000
1000
0000
0100
0000
,
0001
0000
0000
0010
0000
0000
0001
0000
0100
0000
0000
0000
1001
0000
0000
0000
,
0010
0000
0000
1000
0000
0000
0010
0000
0100
0000
0001
0000
0010
0000
0001
0000
,
0100
0000
0000
0010
0000
0000
1000
0000
0001
0000
0010
0000
0100
0000
1000
0000
,
0001
0000
0000
0010
0000
0000
0001
0000
1000
0000
0100
0000
1000
0000
0100
0000
,
0010
0000
0000
0001
0000
0000
0010
0000
0001
0000
0100
0000
0010
0000
1000
0000
,
0001
0000
0000
0010
0000
0000
0001
0000
1000
0000
0001
0000
1000
0000
0001
0000
,
0100
0000
0000
0010
0000
0000
0100
0000
0001
0000
1000
0000
0001
0000
1000
0000
,
0010
0000
0000
0000
0010
0010
0010
0000
,
2001
0000
3100
0000
0010
1000
0001
0000
,
2001
0000
3100
0000
0010
1000
0001
0000
,
0010
0100
0010
0100
1000
0100
0010
0000
,
0001
0100
0001
0100
0010
1000
0010
0000
,
2001
0000
3010
0000
0100
1000
0001
0000
,
1002
0000
0013
0000
0100
0001
1000
0000
,
0001
0010
0100
0000
1000
0100
0010
0000
,
0001
0100
1000
0100
0001
1000
0100
0000
,
1001
0000
0000
0000
,
1000
0100
0001
0100
1000
0100
0001
0000
,
0100
1000
0010
0100
0001
0010
0100
0000
,
0001
0100
1000
0100
0001
0100
1000
0000
,
0010
0100
0001
0010
0100
1000
0010
0000
,
0100
0001
0010
0000
0100
1000
0010
0000
,
0100
0001
1000
0010
0100
0001
1000
0000
,
0011
0100
1000
0000
0011
0100
1000
0000
,
0001
1000
0001
1000
,
0001
0100
1000
0100
0001
0100
1000
0000
,
0100
0001
0010
0100
1000
0010
0100
0000
,
1000
0100
0001
0100
1000
0100
0001
0000
,
0010
0001
1000
0100
0010
0001
1000
0000
,
0010
0001
0100
0000
0010
1000
0100
0000
,
1000
0010
0100
0001
0010
0100
1000
0000
,
0001
0010
0100
1000
0100
0010
0001
0000
,
1000
0010
0100
1000
0100
0001
0010
0000
,
1001
0000
0000
0000
,
1002
0000
0013
0000
0100
0001
1000
0000
,
1002
0000
0013
0000
0100
0001
1000
0000
,
0100
0010
0100
0010
0001
0010
0100
0000
,
1000
0010
1000
0010
0100
0001
0100
0000
,
1002
0000
0103
0000
0010
0001
1000
0000
,
2001
0000
3100
0000
0010
1000
0001
0000
,
1000
0100
0010
0000
0001
0010
0100
0000
,
1000
0010
0001
0010
1000
0001
0010
0000
,
1001
0010
0100
1001
,
0010
0000
0000
1000
0000
0000
0010
0000
0100
0000
0001
0000
0100
0000
0001
0000
,
0010
0000
0000
0001
0000
0000
0010
0000
0100
0000
0000
0000
1001
0000
0000
0000
,
1000
0000
0000
0010
0000
0000
0100
0000
0001
0000
0010
0000
0001
0000
0010
0000
,
0100
0000
0000
1000
0000
0000
0010
0000
0100
0000
0001
0000
1000
0000
0010
0000
,
0100
0000
0000
0001
0000
0010
0001
0000
1000
0000
0100
0000
1000
0000
0100
0000
,
0010
0000
0000
0001
0000
0010
0001
0000
1000
0010
1000
0000
0001
0000
0100
0000
,
0010
0000
0000
1000
0000
0001
0100
0000
0010
0000
1000
0000
0001
0000
0100
0000
,
0001
0000
0000
0010
0000
0001
0010
0000
0100
1000
0000
0100
0010
0000
0100
0000
,
0010
0001
1000
0010
,
0101
0000
0000
0000
;

//---------------dance-single - ----------------
#NOTES:
     dance-single:
     :
     Medium:
     6:
     0.394,0.458,0.167,0.079,0.000:
0000
0000
0000
0000
,
0000
0000
0000
0000
,
0000
0000
0000
0000
,
0000
0000
0000
0000
,
0000
0000
0000
0000
,
1000
0000
0100
0000
0010
0001
0010
0000
,
0001
0100
0001
1001
,
1000
0000
0100
0000
0010
0100
0010
0000
,
0001
1000
0001
1000
,
0001
0000
0100
0000
0010
0100
0010
0000
,
1000
0100
0010
1001
,
0001
0000
0100
0000
0001
0100
0001
0000
,
1000
0000
0010
0000
0010
0100
0010
0100
,
0010
0001
1000
0001
,
1000
0001
0100
1001
,
1000
0000
0100
0000
0010
0001
0010
0000
,
0100
0000
1000
0000
0010
0100
0010
0100
,
0010
0000
0000
0000
,
0200
0000
0000
1300
0000
0000
0001
0100
,
0002
0000
0000
0013
0000
0000
0001
0000
,
1000
0000
0100
0000
0010
0000
0001
1000
,
0000
0001
0000
0100
0000
0000
0001
0000
,
2000
0000
0000
3100
0000
0000
0010
0001
,
0200
0000
0000
0310
0000
0000
1000
0000
,
0100
0000
0010
0001
0000
1000
0000
0001
,
0000
0100
0000
0010
0000
1000
0000
0001
,
1000
0000
0000
0000
,
1000
0000
0100
0000
1000
0100
1000
0000
,
0001
0010
0001
0010
0001
0010
0001
0000
,
0100
0000
0010
0000
1000
0001
1000
0000
,
0001
0010
0100
1000
0100
0010
0001
0000
,
0100
0001
1000
0001
,
0110
0001
0010
0100
,
1000
0000
0010
0000
0100
0001
0100
0000
,
0001
1000
0001
1000
0001
1000
0001
0000
,
1100
0000
0010
0000
0001
0100
0001
0000
,
1000
0000
0001
0000
0010
0001
0010
0000
,
1001
0000
0010
0000
0100
0001
0100
0000
,
0010
1000
0010
0000
0100
0001
0100
0000
,
0001
0010
0001
0010
,
1001
0100
0010
0001
,
1001
0010
1001
0100
,
1001
0100
1001
1100
,
0001
0000
0000
0000
0000
0000
0010
1000
,
0200
0000
0000
0310
0000
0000
0001
0100
,
0020
0000
0000
1030
0000
0000
0100
0000
,
1000
0000
0100
0000
0010
0000
0001
0100
,
0000
0001
0000
1000
0000
0001
0000
1000
,
0200
0000
0000
0310
0000
0000
0001
0100
,
0020
0000
0000
1030
0000
0000
0001
0000
,
1000
0000
0100
0000
0010
0000
0001
1000
,
0000
0001
0000
0010
0000
0001
0000
1000
,
0001
0000
0000
1001
,
0001
0000
0010
0000
0100
1000
0100
0000
,
1000
0010
1000
1001
,
0001
0000
0010
0000
0100
0010
0100
0000
,
1000
0001
1000
0001
,
1000
0100
0010
0100
1000
0100
0010
0000
,
0001
0100
0010
0100
0001
0000
1001
0000
,
0001
0010
0100
0010
0001
0010
0100
0000
,
1000
0100
0001
0100
1000
0100
0001
0000
,
1001
0000
0000
0000
,
0110
0000
0000
0000
;

//---------------dance-single - ----------------
#NOTES:
     dance-single:
     :
     Easy:
     4:
     0.318,0.366,0.266,0.010,0.000: // measure 1
0000
0000
0000
0000
,  // measure 2
0000
0000
0000
0000
,  // measure 3
0000
0000
0000
0000
,  // measure 4
0000
0000
0000
0000
,  // measure 5
0000
0000
0000
0000
,  // measure 6
1000
0100
1000
0100
,  // measure 7
0010
0001
0010
0001
,  // measure 8
0100
0010
0100
0010
,  // measure 9
1000
0001
1000
0001
,  // measure 10
1000
0100
0010
0001
,  // measure 11
0100
0010
1000
0001
,  // measure 12
0100
0001
0010
0100
,  // measure 13
0010
0001
0100
0010
,  // measure 14
1000
0001
0100
0010
,  // measure 15
0100
0001
0010
0100
,  // measure 16
1000
0001
0100
1000
,  // measure 17
0010
0001
0100
0010
,  // measure 18
1001
0000
0000
0000
,  // measure 19
0110
0000
1000
0100
,  // measure 20
1001
0000
0010
0100
,  // measure 21
1001
0000
0110
0000
,  // measure 22
1001
0110
1001
0000
,  // measure 23
0001
0000
1001
0001
,  // measure 24
0110
0000
0010
0001
,  // measure 25
1001
0000
0010
1000
,  // measure 26
1001
0110
1001
0100
,  // measure 27
0010
0000
0000
0000
,  // measure 28
1000
0100
0010
0001
,  // measure 29
0100
0010
1000
0001
,  // measure 30
1000
0100
0010
0001
,  // measure 31
1000
0010
0100
0001
,  // measure 32
1000
0100
0010
0100
,  // measure 33
1000
0100
0010
0100
,  // measure 34
1000
0100
1000
0100
,  // measure 35
0010
0010
0010
0010
,  // measure 36
0001
0100
0010
0100
,  // measure 37
0001
0100
0010
0100
,  // measure 38
0001
1000
0100
1000
,  // measure 39
0001
0010
0001
1000
,  // measure 40
0010
0100
0010
0100
,  // measure 41
0001
1000
0001
1000
,  // measure 42
0100
1000
0100
0010
,  // measure 43
0010
0010
0010
0010
,  // measure 44
0010
0000
0000
0000
,  // measure 45
0110
0000
0001
0010
,  // measure 46
1001
0000
0100
0010
,  // measure 47
1001
0000
0110
0000
,  // measure 48
1001
0110
1001
0000
,  // measure 49
1000
0000
0110
0001
,  // measure 50
1001
0000
0100
1000
,  // measure 51
0110
0000
0100
0001
,  // measure 52
1001
0010
0100
0010
,  // measure 53
1001
0000
0000
0000
,  // measure 54
0010
1000
0010
1000
,  // measure 55
0001
0100
0001
0100
,  // measure 56
1000
0001
1000
0001
,  // measure 57
0010
0100
0010
0100
,  // measure 58
0010
1000
0001
0100
,  // measure 59
1000
0001
0010
0100
,  // measure 60
1000
0100
0001
1000
,  // measure 61
0001
0100
1000
0001
,  // measure 62
0020
0000
0000
0030
,  // measure 63
1001
0000
0000
0000
;

//---------------dance-couple - ----------------
#NOTES:
     dance-couple:
     :
     Hard:
     9:
     0.942,1.000,1.000,0.039,0.202:
00000000
00000000
00000000
00000000
,
00000000
00000000
00000000
00000000
,
00000000
00000000
00000000
00000000
,
00000000
00000000
00000000
00000000
,
00000000
00000000
00000000
00000000
,
00100010
00000000
00000000
00100010
00000000
00000000
01001000
00000000
00010100
00000000
01001000
00000000
00010100
00000000
01001000
00000000
,
00100010
00000000
00000000
00100010
00000000
00000000
10000001
00000000
01000100
00000000
10000001
00000000
01000100
00000000
10000001
00000000
,
00011000
00000000
00000000
00011000
00000000
00000000
01000010
00000000
00100100
00000000
01000010
00000000
00100100
00000000
01000010
00000000
,
00011000
00000000
00000000
00011000
00000000
00000000
10000001
00000000
00100010
01000100
00000000
01000100
00100010
00000000
10000001
00000000
,
00011000
00000000
00000000
10000001
00000000
00000000
00011000
00000000
01000010
00000000
00100100
00000000
01000010
00000000
00100100
00000000
,
10000001
00000000
00000000
00011000
00000000
00000000
10000001
00000000
01000010
00000000
00100100
00000000
01000010
00000000
00100100
00000000
,
00011000
00000000
00000000
10000001
00000000
00000000
00011000
00000000
00100100
00000000
01000010
00000000
00100100
00000000
01000010
00000000
,
10000001
00000000
00000000
00011000
00000000
00000000
10000001
00000000
00100010
01000100
00000000
01000100
00100010
00000000
10000001
00000000
,
00011000
00000000
00000000
00011000
00000000
00000000
00011000
00000000
10000001
00000000
01000100
00000000
10000001
00000000
01000100
00000000
,
10000001
00000000
00000000
10000001
00000000
00000000
10000001
00000000
00011000
00000000
00000000
00000000
10011001
00000000
00000000
00000000
,
00100010
00000000
00000000
00100010
00000000
00000000
00100010
00000000
01000100
00000000
00011000
00000000
01000100
00000000
00011000
00000000
,
00100010
00000000
00000000
00100010
00000000
00000000
00100010
00000000
00011000
00100010
00011000
00000000
00100010
00000000
00011000
00000000
,
00200020
00000000
00000000
00300030
,
10000000
01000000
00100000
00000000
00001000
00000100
00000010
00000000
,
00010000
01000000
00100000
00000000
00000001
00000100
00000010
00000000
,
00010001
01000100
00100010
10001000
01000100
00100010
00010001
00000000
,
10000001
01000100
00011000
01000100
10000001
00011000
01000100
00000000
,
00100000
10000000
01000000
00000000
00000010
00001000
00000100
00000000
,
00100000
00010000
01000000
00000000
00000010
00000001
00000100
00000000
,
00100010
00000000
01000100
00000000
10001000
00000000
01000100
00000000
00100010
00000000
00010001
00000000
01000100
00000000
00000000
01000100
,
10000010
00010100
10000010
00010100
10000010
00010100
01001000
00000000
,
10011001
00000000
00000000
00000000
,
10000000
01000000
00100000
00010000
00001000
00000100
00000010
00000001
,
10000000
00100000
01000000
00010000
00001000
00000010
00000100
00000001
,
10001000
00100010
01000100
00010001
,
10001000
01000100
00100010
00000000
00010001
01000100
00100010
00000000
,
10000001
00100010
10000001
01000100
10000001
00100010
10000001
00000000
,
00010000
00100000
00010000
00000000
00000001
00000100
00000001
00000000
,
10000010
01000000
00010010
01000000
10000010
00010000
01000010
00000000
,
10010010
00000000
00100100
00000000
10010010
00000000
01000100
00100000
00000010
01000000
00100100
00000000
10010010
00000000
00000000
00000000
,
10001000
00000100
01000000
00001000
00100100
00000000
00010010
00000000
01000001
00000000
00100100
00000000
10000010
00000000
00011000
01000000
,
00010001
00000000
00100010
00000000
01000100
00000000
10001000
01000000
00000010
10000000
01000100
00000000
00100001
00000000
00000000
00001000
,
10000100
00000000
00011000
00000100
10000000
00000010
00010001
00000000
01000100
00000000
00100100
00000000
10000100
00000000
00000000
00000000
,
00011000
01000010
00100100
10000001
00011000
01000100
10000001
00000000
,
10011000
00000100
01000010
00000001
10011000
00000100
00101000
00000000
,
10000001
01000100
00010010
00001000
01000001
10000100
00010010
00000000
,
00010010
01000000
00100100
00000000
10000010
01000000
00100100
00000000
,
01000001
00000100
01000010
00000000
01001000
00000100
01000010
00000000
,
10011001
00000000
00000000
00000000
,
00000001
00000010
00000100
00000000
00010000
00100000
01000000
00000000
,
00001000
00000010
00000100
00000000
10000000
00100000
01000000
00000000
,
10001000
00100010
01000100
00010001
00100010
01000100
10001000
00000000
,
10000001
00100010
00011000
00100010
10000001
00011000
00100010
00000000
,
00000100
00000001
00000010
00000000
01000000
00010000
00100000
00000000
,
00000100
00001000
00000010
00000000
01000000
10000000
00100000
00000000
,
00100010
00000000
01000100
00000000
10001000
00000000
01000100
00000000
00100010
00000000
10000001
00000000
01000100
00000000
00000000
01000100
,
10000010
00010100
10000010
00010100
10000010
00010100
01000001
00000000
,
10011001
00000000
00000000
00000000
,
01000100
00000000
00000000
01000100
00000000
00000000
00010010
00000000
00101000
00000000
00010010
00000000
00101000
00000000
00010010
00000000
,
01000100
00000000
00000000
01000100
00000000
00000000
10000001
00000000
00100010
00000000
10000001
00000000
00100010
00000000
10000001
00000000
,
00011000
00000000
00000000
00011000
00000000
00000000
01000010
00000000
00100100
00000000
01000010
00000000
00100100
00000000
01000010
00000000
,
00011000
00000000
00000000
00011000
00000000
00000000
10000001
00000000
01000100
00100010
00000000
00100010
01000100
00000000
10000001
00000000
,
00011000
00000000
00000000
10000001
00000000
00000000
00011000
00000000
01000010
00000000
00100100
00000000
01000010
00000000
00100100
00000000
,
10000001
00000000
00000000
00011000
00000000
00000000
10000001
00000000
01000010
00000000
00100100
00000000
01000010
00000000
00100100
00000000
,
00011000
00000000
00000000
10000001
00000000
00000000
00011000
00000000
00100100
00000000
01000010
00000000
00100100
00000000
01000010
00000000
,
10000001
00000000
00000000
00011000
00000000
00000000
10000001
00000000
01000100
00100010
00000000
00100010
01000100
00000000
10000001
00000000
,
00022000
00000000
00000000
00033000
,
01100110
00000000
00000000
00000000
;
