#TITLE:I BET YOU LOOK GOOD ON THE DANCEFLOOR;
#SUBTITLE:;
#ARTIST:BELLE LAWRENCE;
#TITLETRANSLIT:;
#SUBTITLETRANSLIT:;
#ARTISTTRANSLIT:;
#CREDIT:;
#BANNER:I BET YOU LOOK GOOD ON THE DANCEFLOOR.png;
#BACKGROUND:I BET YOU LOOK GOOD ON THE DANCEFLOOR-bg.png;
#LYRICSPATH:;
#CDTITLE:CD.png;
#MUSIC:I BET YOU LOOK GOOD ON THE DANCEFLOOR.mp3;
#OFFSET:-0.028;
#SAMPLESTART:44.782;
#SAMPLELENGTH:13.000;
#SELECTABLE:YES;
#DISPLAYBPM:134.000;
#BPMS:0.000=134.000;
#STOPS:;
#BGCHANGES:;

//---------------dance-single - ----------------
#NOTES:
     dance-single:
     :
     Hard:
     8:
     0.407,0.449,0.097,0.000,0.313:
0000
0000
0000
0000
,
0000
0000
0000
0000
,
0000
0000
0000
0000
,
0000
0000
0000
0000
,
0000
0000
0000
0000
,
1000
0100
1000
0000
0001
0100
0001
0000
,
1000
0010
1000
0000
0001
0000
0000
0000
,
1000
0001
0100
0000
0001
1000
0100
0000
,
1000
0001
0010
0000
0001
0000
0000
0000
,
0001
1000
0100
1000
,
0001
0100
0001
1000
,
0001
0000
0000
0010
0000
0000
0100
0000
1000
0000
0000
0000
0010
0000
0100
0000
,
0000
0001
1000
0001
,
1000
0010
1000
0001
,
0010
0001
0010
0001
,
0001
0000
0010
0100
1000
0000
0010
0100
,
0000
0000
0001
0010
0100
0000
0010
0100
,
1000
0000
0001
0000
1000
0000
0010
0100
,
0001
0000
1000
0100
1000
0000
0001
0100
,
0001
0000
1000
0000
0001
0000
0010
0100
,
1000
0000
0000
0010
0100
0000
0100
0000
,
0101
1100
0101
1100
,
0010
0000
0010
1000
,
0100
0000
0010
0100
0010
0000
0001
0000
,
0110
0000
1010
0011
1010
0000
1001
0000
,
1000
0000
0000
1000
0000
0000
1000
0000
0100
0000
0000
0100
0000
0000
0100
0000
,
0001
0000
0000
0001
0000
0000
0001
0000
0100
0000
0000
0100
0000
0000
0100
0000
,
0010
0000
0000
0010
0000
0000
0010
0000
0001
0000
0000
0001
0000
0000
0001
0000
,
0100
0000
0000
0100
0000
0000
0100
0000
1000
0000
0000
1000
0000
0000
1000
0000
,
0100
0000
0000
0100
0000
0000
0100
0000
0010
0000
0000
0010
0000
0000
0010
0000
,
1000
0000
0000
1000
0000
0000
1000
0000
0100
0000
0000
0100
0000
0000
0100
0000
,
0001
0000
0000
0001
0000
0000
0001
0000
0100
0000
0000
0100
0000
0000
0100
0000
,
1000
0000
0000
1000
0000
0000
1000
0000
0010
0000
0000
0010
0000
0000
0010
0000
,
0100
0000
0000
0001
0000
0000
0100
0000
0010
0000
0000
1000
0000
0000
0100
0000
,
0001
0000
0000
0100
0000
0000
1000
0000
0010
0000
0000
0001
0000
0000
0010
0000
,
1000
0000
0000
0001
0000
0000
0010
0000
1000
0000
0000
0010
0000
0000
0001
0000
,
0100
0000
0000
1000
0000
0000
0100
0000
0001
0000
0000
0010
0000
0000
0100
0000
,
1000
0000
0000
0010
0000
0000
1000
0000
0100
0000
0000
1000
0000
0000
0001
0000
,
0100
0000
0000
1000
0000
0000
0100
0000
0001
0000
0000
0010
0000
0000
1000
0000
,
0010
0000
0000
0100
0000
0000
1000
0000
0001
0000
0000
0100
0000
0000
1000
0000
,
0100
0000
0000
0001
0000
0000
1000
0000
0100
0000
0000
0001
0000
0000
0100
0000
,
1000
0001
0000
1000
0000
0001
1000
0000
0010
0000
0010
0000
0010
0000
0000
0000
,
0100
0010
0000
0100
0000
0010
0100
0000
0010
0000
0010
0000
0010
0000
0000
0000
,
1000
0100
0000
1000
0000
0100
1000
0000
0001
0000
0001
0000
0001
0000
0000
0000
,
0001
0010
0000
0001
0000
0010
0001
0000
1000
0000
1000
0000
1000
0000
0000
0000
,
0010
1000
0000
0010
0000
1000
0010
0000
0100
0000
0001
0000
0100
0000
0000
0000
,
0001
1000
0000
0001
0000
1000
0001
0000
0010
0000
0100
0000
0010
0000
0000
0000
,
0001
0100
0000
0001
0000
0100
0001
0000
1000
0000
0100
0000
1000
0000
0000
0000
,
0010
0100
0000
0010
0000
0100
0010
0000
1000
0000
1000
0000
1000
0000
0001
1000
;

//---------------dance-solo - ----------------
#NOTES:
     dance-solo:
     :
     Hard:
     1:
     0.000,0.000,0.000,0.000,0.000:
000000
000000
000000
000000
;

//---------------dance-single - ----------------
#NOTES:
     dance-single:
     :
     Medium:
     7:
     0.333,0.369,0.054,0.043,0.000:
0000
0000
0000
0000
,
0000
0000
0000
0000
,
0000
0000
0000
0000
,
0000
0000
0000
0000
,
0000
0000
0000
0000
,
1000
0000
0010
0000
0100
0001
0100
0000
,
0001
1000
0100
0100
,
1000
0000
0010
0000
0100
0001
0100
0000
,
0010
0010
1000
0000
,
0001
0010
0001
1000
,
0100
1000
0010
0100
,
0001
0010
0001
0010
0100
1000
0100
1000
,
0001
0000
0010
0000
,
0100
1000
0010
1000
,
0001
0100
0001
0010
,
0100
1000
0100
1000
0001
0010
0001
0010
,
0100
0000
1000
0010
1000
0000
0010
1000
,
0010
0000
0100
0000
0001
0000
0010
0001
,
0010
0000
0001
0100
0001
0000
1000
0100
,
1000
0000
0010
0000
0100
0000
0001
0010
,
0001
0000
1000
1000
,
0010
0100
0010
0000
1000
0000
0001
0010
,
0001
0000
1000
0100
,
1000
0000
0010
0100
0010
0000
1000
0000
,
0001
0000
1000
0001
1000
0000
1001
0000
,
0000
0000
0000
0001
0010
0000
0001
0000
,
0010
0000
0100
0000
1000
0001
0000
1000
,
0001
0000
0000
0100
0000
0010
1000
0000
,
0001
0000
0010
0001
0010
0001
0010
0001
,
0000
0100
0000
0010
0000
1000
0100
0000
,
1000
0000
0010
0100
0010
0100
0000
0010
,
0200
0000
0302
0000
,
2003
0000
3200
0000
,
0300
0010
0001
0000
0010
0000
0001
0000
,
0010
0000
0100
0000
1000
0001
0000
1000
,
0001
0000
0000
0100
0000
0000
0000
0000
,
0010
1000
0010
1000
0010
0000
1000
0000
,
0100
0000
0010
0001
0010
0001
0000
0010
,
0001
0000
0100
0000
0010
0000
1000
0001
,
0000
0000
0000
0000
0000
0000
0000
1000
,
0010
1010
0011
0101
,
1001
0000
0100
0000
0010
0010
0010
0000
,
1000
0000
0100
0000
1000
0001
1000
0001
,
0100
0000
0100
0000
0010
0010
0010
0000
,
1000
0000
0100
0000
0010
0010
0010
0000
,
0001
0100
0001
0000
1000
1000
1000
0000
,
0100
0000
0100
0000
0010
0001
0010
0001
,
0010
0000
0001
0000
1000
1000
1000
0000
,
0010
1000
0010
1000
0001
0001
0001
0001
;

//---------------dance-single - ----------------
#NOTES:
     dance-single:
     :
     Easy:
     5:
     0.257,0.316,0.000,0.000,0.000:
0000
0000
0000
0000
,
0000
0000
0000
0000
,
0000
0000
0000
0000
,
0000
0000
0000
0000
,
0000
0000
0000
0000
,
1000
1000
0001
0001
,
0100
0000
0100
0000
0010
0010
0010
0000
,
1000
1000
0001
0001
,
1000
0000
1000
0000
0100
0100
0100
0000
,
0000
1000
0100
1000
,
0001
0001
0001
1000
,
0010
1000
0001
0100
,
0010
0000
0000
0000
,
0010
1000
0010
0100
,
0001
0010
0100
1000
,
0001
0001
0001
1000
,
0001
0000
1000
1000
1000
0000
0001
0001
,
0001
0000
0100
0000
0010
0000
0100
0100
,
0100
0000
0001
0001
0001
0000
1000
1000
,
1000
0000
0001
0000
0010
0000
0100
0100
,
0100
0000
1000
0010
,
0100
0001
0100
0010
,
1000
0000
0001
0010
,
0001
0010
0100
1000
,
0010
0000
0010
0010
0010
0000
0010
0000
,
0000
0000
1000
0100
,
1000
0001
0100
0010
,
1000
0000
0001
0000
,
1000
0100
1000
0001
,
0010
0000
0100
0000
,
1000
0010
1000
0001
,
0100
0000
0010
0000
,
1000
0000
0001
0000
,
0000
0010
0001
0010
,
0001
0010
0100
0100
,
1000
0000
0001
0000
,
1000
1000
0010
0010
,
0100
0001
0100
0010
,
1000
0000
0001
0000
,
0010
0001
0010
0001
,
0100
0100
0100
0100
,
0010
0000
0000
0000
1000
1000
1000
0000
,
0001
0000
0010
0010
,
0100
0000
0000
0000
1000
1000
1000
0000
,
0001
0000
0100
0100
,
0010
0010
0010
0000
1000
0000
1000
0000
,
0001
0000
0001
0000
0010
0010
0010
0000
,
0010
0010
0010
0000
0001
0000
0001
0000
,
1000
0000
1000
0000
0010
0010
0010
0010
;

//---------------dance-single - ----------------
#NOTES:
     dance-single:
     :
     Beginner:
     1:
     0.131,0.158,0.032,0.000,0.000: // measure 1
0000
0000
0000
0000
,  // measure 2
0000
0000
0000
0000
,  // measure 3
0000
0000
0000
0000
,  // measure 4
0000
0000
0000
0000
,  // measure 5
0000
0000
0000
0000
,  // measure 6
1000
0000
0001
0000
,  // measure 7
0010
0000
0010
0000
,  // measure 8
0100
0000
1000
0000
,  // measure 9
0001
0000
0001
0000
,  // measure 10
1000
0000
1000
0000
,  // measure 11
0001
0000
0010
0000
,  // measure 12
1001
0000
0100
0000
,  // measure 13
0010
0000
0000
0000
,  // measure 14
1000
0000
0001
0000
,  // measure 15
1000
0000
1000
0000
,  // measure 16
0001
0000
0001
0000
,  // measure 17
1000
0000
0000
0000
,  // measure 18
0001
0000
0001
0001
,  // measure 19
0001
0000
0000
0000
,  // measure 20
1000
0000
1000
1000
,  // measure 21
1000
0000
0000
0000
,  // measure 22
0001
0000
0001
0000
,  // measure 23
1000
0000
0000
0000
,  // measure 24
0001
0000
0010
0000
,  // measure 25
0100
0100
0100
0100
,  // measure 26
0100
0000
0000
0000
,  // measure 27
1000
0000
1000
0000
,  // measure 28
0001
0000
0000
0000
,  // measure 29
0100
0000
0100
0000
,  // measure 30
0100
0000
0000
0000
,  // measure 31
0010
0000
0100
0000
,  // measure 32
1001
0000
0000
0000
,  // measure 33
0000
0000
0000
0000
,  // measure 34
0001
0000
0010
0000
,  // measure 35
0100
0000
0100
0000
,  // measure 36
1000
0000
0001
0000
,  // measure 37
0010
0000
0010
0000
,  // measure 38
0100
0000
1000
0000
,  // measure 39
0010
0000
0100
0000
,  // measure 40
1001
0000
0000
0000
,  // measure 41
1000
0000
1000
0000
,  // measure 42
0001
0000
0001
0000
,  // measure 43
0010
0000
0010
0000
,  // measure 44
0100
0000
0100
0000
,  // measure 45
1000
0000
0010
0000
,  // measure 46
0100
0000
1000
0000
,  // measure 47
0010
0000
0010
0010
,  // measure 48
0010
0000
1000
0000
,  // measure 49
0100
0000
0100
0100
;
