#TITLE:I ALWAYS GET WHAT I WANT;
#SUBTITLE:;
#ARTIST:AVRIL LAVIGNE;
#TITLETRANSLIT:;
#SUBTITLETRANSLIT:;
#ARTISTTRANSLIT:;
#CREDIT:;
#BANNER:I ALWAYS GET WHAT I WANT.png;
#BACKGROUND:I ALWAYS GET WHAT I WANT-bg.png;
#LYRICSPATH:;
#CDTITLE:Under My Skin.png;
#MUSIC:I ALWAYS GET WHAT I WANT.ogg;
#OFFSET:0.000;
#SAMPLESTART:51.778;
#SAMPLELENGTH:11.220;
#SELECTABLE:YES;
#BPMS:0.000=181.500;
#STOPS:;
#BGCHANGES:;

//---------------dance-single - ----------------
#NOTES:
     dance-single:
     :
     Hard:
     8:
     0.533,0.598,0.818,0.025,0.000:
0000
0000
0000
0000
,
0000
0000
0000
0000
,
0000
0000
0000
0000
,
0000
0000
0000
0000
,
0000
0000
0000
0000
,
0000
0000
0000
0000
,
0000
0000
0000
0000
,
0000
0000
0000
0000
,
1000
0010
0001
0010
1000
0000
1010
0000
,
0011
1010
0011
1010
,
0001
0100
1000
0100
0001
0000
0101
0000
,
1100
0101
1100
0101
,
0010
0001
0100
0010
1000
0001
0010
0000
,
0100
1000
0010
0100
0001
1000
0100
0000
,
1001
0000
0000
0000
,
0000
0000
0000
0000
,
1010
0000
0000
0000
,
0000
0000
0001
0100
0001
0100
0001
0000
,
1100
0000
0011
0000
0001
0100
0001
0000
,
0110
0000
1001
0000
0010
1000
0001
0000
,
1100
0000
0101
0000
1000
0001
1000
0000
,
1010
0000
0011
0000
1000
0100
1000
0000
,
1100
0000
0101
0000
0010
1000
0010
0000
,
0101
0000
1010
0000
0100
1000
0001
0000
,
1001
0000
0110
0000
0100
0001
0100
0000
,
1100
0000
0011
0000
0001
1000
0001
1000
,
0001
0010
0001
0000
1000
0100
1000
0000
,
0001
0100
0001
0000
1000
0010
1000
0000
,
0001
1000
0100
0000
0010
0001
1000
0000
,
0100
0010
0001
0000
1000
0010
0100
0000
,
0001
1000
0100
0000
0010
0001
1000
0000
,
0011
1100
0011
1100
,
1000
0010
0100
0000
0001
0100
0010
0000
,
1010
0101
1010
0101
,
1000
0001
0010
0000
0001
1000
0100
0000
,
1001
0110
1001
0110
,
1001
0000
0000
0000
,
0000
0000
0000
0000
,
0011
0000
0000
0000
,
0000
0000
0100
0010
0100
0010
0100
0000
,
1010
0000
1010
0000
1000
0010
0001
0000
,
0110
0000
0110
0000
0100
0001
0010
0000
,
1100
0000
1100
0000
1000
0100
0001
0000
,
0110
0000
0110
0000
0100
1000
0010
0000
,
0101
0000
0101
0000
0001
0100
1000
0000
,
0110
0000
0110
0000
0010
1000
0100
0000
,
0011
0000
0011
0000
0001
0010
1000
0000
,
0110
0000
0110
0000
0010
0001
1000
0000
,
0010
0001
0100
0010
1000
0001
0100
0000
,
0010
1000
0001
0000
0010
0100
0000
0100
,
0010
0001
1000
0100
0010
0001
1000
0000
,
0001
1000
0010
0000
0100
0010
0000
0010
,
0100
0001
1000
0010
0100
0001
1000
0000
,
0100
0010
0001
0000
0100
0010
1000
0000
,
1010
0000
0000
0011
0000
0000
1100
0000
,
0000
1001
0000
0000
0010
1000
0001
0000
,
0101
0000
0000
0011
0000
0000
0110
0000
,
0000
2002
0000
0000
0000
0000
0000
0000
,
0000
0000
0000
0000
,
0000
0000
0000
0000
,
0000
0003
3000
0000
0000
0000
0000
0000
;

//---------------dance-single - ----------------
#NOTES:
     dance-single:
     :
     Medium:
     6:
     0.377,0.484,0.124,0.074,0.000: // measure 1
0000
0000
0000
0000
,  // measure 2
0000
0000
0000
0000
,  // measure 3
0000
0000
0000
0000
,  // measure 4
0000
0000
0000
0000
,  // measure 5
0000
0000
0000
0000
,  // measure 6
0000
0000
0000
0000
,  // measure 7
0000
0000
0000
0000
,  // measure 8
0000
0000
0000
0000
,  // measure 9
1000
0010
1000
0010
1000
0000
0001
0100
,  // measure 10
0000
0001
0000
0100
0000
0001
0000
0000
,  // measure 11
0010
0100
0010
0100
0000
0010
0100
1000
,  // measure 12
0000
0100
0000
0000
0010
0100
1000
0000
,  // measure 13
0001
0100
0001
0100
0001
0000
0100
0010
,  // measure 14
0000
1000
0000
0001
0000
0000
0100
0000
,  // measure 15
0001
0000
0000
0000
,  // measure 16
0000
0000
0000
0000
,  // measure 17
1000
0000
0000
0000
,  // measure 18
0000
0010
0010
0010
,  // measure 19
1000
0000
1000
0000
0100
1000
0100
0000
,  // measure 20
0010
0000
0010
0000
0001
0010
0001
0000
,  // measure 21
0100
0000
0100
0000
0010
0100
0010
0000
,  // measure 22
1000
0000
1000
0000
0001
1000
0001
0000
,  // measure 23
0010
0000
0010
0000
0100
1000
0010
0000
,  // measure 24
0100
0000
0100
0000
0001
0010
0100
0000
,  // measure 25
1000
0000
1000
0000
0010
0100
0001
0000
,  // measure 26
0010
0100
0010
0100
0010
0100
0010
0000
,  // measure 27
0100
0100
1000
1000
,  // measure 28
0010
0010
0100
0100
,  // measure 29
0001
0002
0013
0020
,  // measure 30
0130
0200
1300
2000
,  // measure 31
3010
0100
0001
0100
,  // measure 32
0001
0000
0010
0000
0001
0010
0001
0000
,  // measure 33
1000
0100
1000
0010
,  // measure 34
1000
0000
0100
0000
1000
0010
1000
0000
,  // measure 35
0001
0000
0100
0000
0010
0100
0010
0000
,  // measure 36
1000
0001
1001
0000
,  // measure 37
1100
0000
0000
0000
,  // measure 38
0000
0000
0000
0000
,  // measure 39
1100
0000
0000
0000
,  // measure 40
0000
1000
1000
1000
,  // measure 41
0010
0000
0010
0000
0100
0010
0100
0000
,  // measure 42
0001
0000
0001
0000
0010
0100
0010
0000
,  // measure 43
1000
0000
1000
0000
0001
0100
0001
0000
,  // measure 44
0010
0000
0010
0000
0100
1000
0100
0000
,  // measure 45
1000
0000
1000
0000
0010
0100
0010
0000
,  // measure 46
0100
0000
0100
0000
0001
0010
0001
0000
,  // measure 47
0100
0000
0100
0000
0010
0100
0010
0000
,  // measure 48
1000
0000
1000
0000
0100
0010
0100
0000
,  // measure 49
1000
1010
0001
0101
,  // measure 50
0010
0000
0100
1000
0000
1100
0000
0101
,  // measure 51
0000
1000
0010
0100
,  // measure 52
0001
1000
0000
0000
0000
1100
0000
1100
,  // measure 53
0000
0001
0010
0001
,  // measure 54
0100
0010
1000
0000
0000
1100
0000
0100
,  // measure 55
1000
0000
0000
0010
0000
0000
0100
0000
,  // measure 56
0000
0002
0000
0000
0000
0000
0000
0003
,  // measure 57
1000
0000
0000
0100
0000
0000
0010
0000
,  // measure 58
0000
0002
0000
0000
0000
0000
0000
0000
,  // measure 59
0000
0000
0000
0000
,  // measure 60
0000
0000
0000
0000
,  // measure 61
0003
0000
0000
0000
;

//---------------dance-single - ----------------
#NOTES:
     dance-single:
     :
     Easy:
     5:
     0.290,0.372,0.025,0.012,0.000:
0000
0000
0000
0000
,
0000
0000
0000
0000
,
0000
0000
0000
0000
,
0000
0000
0000
0000
,
0000
0000
0000
0000
,
0000
0000
0000
0000
,
0000
0000
0000
0000
,
0000
0000
0000
0000
,
1000
0100
1000
0100
,
0010
0001
0010
0001
,
0100
0010
0100
0010
,
1000
0001
1000
0001
,
0010
0100
0010
0100
,
1000
0100
1000
0010
,
1001
0000
0000
0000
,
0000
0000
0000
0000
,
1000
0000
0000
0000
,
1000
1000
1000
1000
,
0100
0100
0010
0010
,
0001
0001
0100
0100
,
0010
0010
1000
1000
,
0001
0001
0100
0100
,
0010
0010
1000
1000
,
0100
0100
0010
0010
,
0001
0001
1000
1000
,
0100
0100
0010
0010
,
0001
0100
0010
0000
,
1000
0100
0010
0000
,
0001
1000
0100
0000
,
0010
0001
1000
0000
,
1000
0010
1000
0010
,
0100
0001
0100
0001
,
0010
0100
0010
0100
,
1000
0100
1000
0100
,
1000
0010
1000
0010
,
1000
0001
1000
0000
,
1001
0000
0000
0000
,
0000
0000
0000
0000
,
0001
0000
0000
0000
,
0000
1000
1000
1000
,
0010
0100
0010
0010
,
0100
0001
0010
0010
,
0001
1000
0100
0100
,
1000
0010
1000
1000
,
0001
0100
0001
0001
,
0010
0100
1000
1000
,
0010
0100
0001
0001
,
1000
0010
0100
0100
,
0001
0010
0001
0000
,
1000
0000
0010
0000
0000
1000
0000
1000
,
0000
0001
0100
0000
,
0001
0000
0010
0000
0000
0001
0000
0001
,
0000
1000
0010
0000
,
0100
0000
0001
0000
0000
1000
0000
1000
,
0100
0000
0000
1000
0000
0000
0010
0000
,
0000
0100
0000
0000
0000
0000
0000
0000
,
0001
0000
0000
0010
0000
0000
0001
0000
,
0000
2000
0000
0000
0000
0000
0000
0000
,
0000
0000
0000
0000
,
0000
0000
0000
0000
,
3000
0000
0000
0000
;
