#TITLE:HIHO;
#SUBTITLE:;
#ARTIST:CAPTAIN JACK;
#TITLETRANSLIT:;
#SUBTITLETRANSLIT:;
#ARTISTTRANSLIT:;
#CREDIT:;
#BANNER:hiho.png;
#BACKGROUND:hiho-bg.png;
#LYRICSPATH:;
#CDTITLE:cd.png;
#MUSIC:hiho.mp3;
#OFFSET:-6.161;
#SAMPLESTART:14.060;
#SAMPLELENGTH:12.000;
#SELECTABLE:YES;
#BPMS:0.000=146.000;
#STOPS:;
#BGCHANGES:;

//---------------dance-single - Basic----------------
#NOTES:
     dance-single:
     Basic:
     Easy:
     3:
     0.233,0.354,0.189,0.000,0.000:
0000
0000
0000
0000
,
0000
0000
0000
0000
,
0000
0000
0000
0000
,
0000
0000
0000
0000
,
0000
0000
0000
0000
,
1001
0000
1001
0000
,
0001
0001
0001
0000
,
1000
0001
0100
0010
,
1000
0000
0001
1000
,
1001
0000
1001
0000
,
0100
0100
0100
0000
,
1000
0001
0100
0010
,
1000
0000
0001
1000
,
0001
0000
0001
0000
,
1000
0000
1000
0000
,
0010
0000
0010
0000
,
0100
0000
0100
0000
,
0001
1000
0001
0000
,
0100
0010
0100
0000
,
0010
1000
0100
1000
,
0010
0000
1000
0000
,
0001
0100
0001
0000
,
1000
0010
1000
0000
,
0001
0100
0010
0100
,
0001
0000
1000
0000
,
0010
1000
0010
0000
,
0100
0001
0100
0000
,
0100
0001
0010
0001
,
0100
0000
0010
0000
,
1000
0010
1000
0000
,
0001
0100
0001
0000
,
1000
1000
0001
0001
,
0100
0000
0010
0000
,
0010
0100
0100
1001
,
0000
0010
0010
1001
,
0000
0010
0100
0010
,
1001
1001
1001
1001
,
1001
0000
1001
0000
,
1000
0100
1000
0000
,
0010
1000
0001
0100
,
1001
0000
0001
1000
,
1001
0000
1001
0000
,
0001
0100
0001
0000
,
1000
0001
0100
0010
,
1001
0000
0001
1000
,
0100
0000
1000
0000
,
0001
0001
0001
0000
,
1000
0100
0010
0001
,
1000
0000
0001
0000
,
1001
0000
0000
0000
;

//---------------dance-single - Trick----------------
#NOTES:
     dance-single:
     Trick:
     Medium:
     5:
     0.370,0.381,0.434,0.000,0.000:
0000
0000
0000
0000
,
0001
0000
1000
0000
,
0010
0100
0001
0000
,
1000
1000
0010
0010
,
0100
0000
0001
0000
,
1001
0010
1001
0100
,
0010
1000
0001
0000
1001
0000
0000
0000
,
1000
0010
1000
0001
0100
0001
0100
0000
,
0101
0000
0100
0001
,
0011
1000
0011
0100
,
0001
1000
0010
0000
0110
0000
0000
0000
,
0100
0001
0100
0010
1000
0010
1000
0000
,
1010
0000
1000
1000
,
0010
0100
0010
0000
,
1000
0100
1000
0000
,
0001
0010
0001
0000
,
0100
0010
0100
0000
,
0010
0000
1000
0001
0100
0000
0001
0000
,
1000
1000
1001
0000
,
0010
0000
0001
0010
0001
0000
0101
0000
,
0100
0000
0010
1000
0010
0000
1000
0000
,
1010
0000
0001
0100
0010
0000
1000
0000
,
0001
0001
1001
0000
,
0001
0000
0100
0001
0100
0000
0011
0000
,
0001
0000
1000
0010
1000
0000
1100
0000
,
0100
0000
0010
1000
0001
0000
0100
0000
,
0010
0010
0110
0000
,
0010
0000
0001
0010
0001
0000
0011
0000
,
0010
0000
0100
1000
0100
0000
1000
0000
,
1001
0000
0100
0010
1000
0000
0010
0000
,
0100
0100
0110
0000
,
0000
1100
1000
0101
,
0001
0000
0010
0000
1000
0000
0001
0100
,
0010
1100
1000
0101
,
0000
0011
0001
1100
,
0000
0010
0010
0100
,
0100
1001
0110
1001
,
1100
0010
1100
0001
,
0100
0010
1000
0000
1001
0000
0000
0000
,
1000
0100
1000
0001
0010
0001
0010
0000
,
1100
0000
0100
0001
,
0110
1000
0110
0001
,
1000
0001
0010
0000
1001
0000
0000
0000
,
1000
0001
1000
0010
0100
0010
0100
0000
,
0110
0000
1000
1000
,
0010
0000
0010
0000
,
1100
0100
1000
0000
,
0001
0010
0001
1000
0100
1000
0001
0000
,
1001
0000
0110
0000
,
1001
0000
0000
0000
;

//---------------dance-single - Maniac----------------
#NOTES:
     dance-single:
     Maniac:
     Hard:
     7:
     0.476,0.463,0.178,0.033,0.178:
0000
0000
0000
0000
,
0010
0000
1000
0000
,
0001
0010
0001
0000
,
1000
0100
0010
0001
,
1000
0000
0000
0000
0010
0000
0000
0000
0100
0000
0000
0000
1010
0000
0000
1000
,
0010
0000
0000
0010
0100
0000
0000
0100
0001
0000
0000
0001
1000
0000
0000
0000
,
0001
0000
0000
0100
0010
0000
1000
0000
0010
0000
0000
0000
1000
0000
0000
0000
,
0001
1000
0100
1000
0001
0100
0001
1000
,
0010
0000
0000
0000
1001
0000
0000
0001
0010
0000
0000
0010
0001
0000
0000
0001
,
1000
0000
0000
1000
0100
0000
0000
0100
1000
0000
0000
1000
0001
0000
0000
0000
,
0010
0000
0000
1000
0001
0000
0100
0000
0001
0000
0000
0000
1001
0000
0000
0000
,
0010
0100
0001
0100
0010
1000
0010
0100
,
0001
0000
0000
1000
0001
0000
0000
0001
0100
0000
0000
0100
0001
0000
0000
0001
,
0200
0001
0010
1300
,
0020
1000
0100
0031
,
1000
0100
0001
0000
0001
0100
1000
0000
,
1000
0100
0001
0100
2000
0000
0000
0000
,
3001
0000
0010
0001
1000
0000
1000
0000
,
0010
0000
0010
1000
0001
0000
0001
0000
,
0100
0000
0100
0010
1000
0001
1000
0000
,
0001
0010
0100
1000
0010
0000
0110
0000
,
0001
0000
0100
0010
1000
0000
1000
0000
,
0100
0000
0100
1000
0001
0000
0001
0000
,
0010
0000
0010
0001
0100
0001
0010
0000
,
0100
1000
0001
0010
0100
0000
1001
0000
,
0100
1000
1010
0010
,
0100
0010
1000
0100
1000
0000
0001
1000
,
0100
0010
0001
1000
,
0001
1000
0010
1000
0100
0000
1000
0010
,
0100
0010
1010
0001
,
1000
0100
0010
0100
1000
0000
0001
1000
,
0100
0011
1000
1100
,
1000
0100
0010
0001
,
0001
0010
0100
1000
0010
0000
1001
0000
,
1000
0100
0010
0001
0100
0000
1001
0000
,
0010
0100
0010
1000
0001
1000
0010
0000
,
0101
0000
0000
0000
0011
0000
0000
0000
1100
0000
0000
0000
0101
0000
0000
0001
,
0100
0000
0000
0100
0010
0000
0000
0010
1000
0000
0000
1000
0001
0000
0000
0000
,
1000
0000
0000
0001
0100
0000
0010
0000
0100
0000
0000
0000
0001
0000
0000
0000
,
1000
0001
0010
0001
1000
0010
1000
0001
,
0100
0000
0000
0000
1001
0000
0000
1000
0100
0000
0000
0100
1000
0000
0000
1000
,
0001
0000
0000
0001
0010
0000
0000
0010
0001
0000
0000
0001
1000
0000
0000
0000
,
0100
0000
0000
0001
1000
0000
0010
0000
1000
0000
0000
0000
0001
0000
0000
0000
,
1000
0010
1000
0001
0100
0010
1000
0001
,
1000
0000
0000
0001
1000
0000
0000
1000
0010
0000
0000
0010
1000
0000
0000
1000
,
0001
0000
0001
0100
0100
0000
0010
0000
,
0100
0000
0010
1000
1000
0000
0001
0000
,
1000
0100
1000
0100
0010
0001
0010
0001
,
1000
0000
1000
0001
0100
0000
0100
0001
,
1000
0000
0000
0000;
