#TITLE:HERE;
#SUBTITLE:(IN YOUR ARMS) (TOMMIE SUNSHINE MIX 'B');
#ARTIST:hellogoodbye;
#TITLETRANSLIT:;
#SUBTITLETRANSLIT:;
#ARTISTTRANSLIT:;
#CREDIT:;
#BANNER:HERE (IN YOUR ARMS) (TOMMIE SUNSHINE MIX 'B').png;
#BACKGROUND:HERE (IN YOUR ARMS) (TOMMIE SUNSHINE MIX 'B')-bg.png;
#LYRICSPATH:;
#CDTITLE:cd.png;
#MUSIC:HERE (IN YOUR ARMS) (TOMMIE SUNSHINE MIX 'B').mp3;
#OFFSET:-3.896;
#SAMPLESTART:38.088;
#SAMPLELENGTH:12.000;
#SELECTABLE:YES;
#BPMS:0.000=126.022;
#STOPS:;
#BGCHANGES:;

//---------------dance-single - Beginner----------------
#NOTES:
     dance-single:
     Beginner:
     Beginner:
     1:
     0.147,0.190,0.193,0.000,0.000:
0001
0000
0000
0000
,
0001
0000
0000
0000
,
1001
0000
0000
0000
,
1001
0000
0000
0000
,
0110
0000
0000
0000
,
0110
0000
0000
0000
,
1000
0000
0000
0000
,
1000
0000
0000
0000
,
0001
0000
0000
0000
,
0001
0000
1001
0000
,
1001
0000
0000
0000
,
0001
0000
0000
0000
,
1000
0000
0000
0000
,
0010
0000
0000
0000
,
0100
0000
0000
0000
,
1000
0000
0000
0000
,
0001
0000
0000
0000
,
1001
0000
0000
0000
,
0010
0010
0010
0000
,
0100
0000
0100
0000
,
1000
1000
1000
0000
,
0001
0000
0001
0000
,
0001
0001
0001
0000
,
1000
0000
1000
0000
,
0100
0100
0100
0000
,
0010
0000
0010
0000
,
1001
0000
0000
0000
,
1000
0000
0001
0001
,
1001
0000
0000
0000
,
1000
0000
0010
0010
,
0110
0000
0000
0000
,
1000
0000
0001
0001
,
1001
0000
0000
0000
,
1000
0000
0100
0100
,
0110
0000
0001
0000
,
1000
0000
0001
0000
,
1000
0000
0001
0000
,
1001
0000
1001
0000
,
0001
0001
0001
0000
,
1000
1000
1000
0000
,
1001
0000
0001
0000
,
1001
0000
1000
0000
,
0110
0000
0000
0000
;

//---------------dance-single - Basic----------------
#NOTES:
     dance-single:
     Basic:
     Easy:
     2:
     0.199,0.238,0.283,0.000,0.000:
0001
0001
1001
0000
,
1000
1000
1001
0000
,
0110
0000
0000
0001
,
0001
0000
0000
1000
,
1000
0000
0000
0100
,
0100
0000
0000
0010
,
0010
0000
0000
0001
,
0001
0000
0000
1000
,
1000
0000
0000
0000
,
1001
0000
0010
0010
,
0110
0000
0000
1000
,
1000
0000
0000
0001
,
0001
0000
0000
0010
,
0010
0000
0000
0100
,
0100
0000
0000
1000
,
1000
0000
0000
0001
,
0001
0000
0000
0000
,
0110
0000
1001
1001
,
0001
0000
1000
0000
,
0001
1000
0001
0000
,
0010
0000
0100
0000
,
0010
0100
0010
0000
,
1000
0000
0001
0000
,
1001
1001
1001
0000
,
0010
0000
0100
0000
,
0010
0100
0110
0000
,
1001
0000
0001
0000
,
1001
1001
1000
0000
,
1001
0000
0001
0000
,
1001
1001
0001
0000
,
0010
0000
0100
0000
,
0100
0010
1000
0000
,
1000
0000
0010
0000
,
0100
0001
0010
0000
,
0001
0000
1000
0000
,
1001
0000
1000
0000
,
0110
0000
0001
0000
,
0110
0000
1000
0000
,
0110
0000
0001
0000
,
0110
0000
1000
1000
,
0001
0000
1001
0000
,
0001
1000
0001
0010
,
0110
0000
0000
0000
;

//---------------dance-single - Trick----------------
#NOTES:
     dance-single:
     Trick:
     Medium:
     4:
     0.335,0.333,0.079,0.000,0.000:
0001
0000
1000
0100
0000
1000
0100
0000
,
0001
0000
0100
0001
0000
0100
0001
0000
,
1001
0000
0100
1000
0100
0000
0001
0000
,
1000
0000
0001
0010
0001
0000
0100
0000
,
0001
0000
1000
0100
1000
0000
0001
0000
,
0010
0000
0001
0100
0001
0000
1000
0000
,
0001
0000
0010
0100
1000
0000
0010
0000
,
0100
0000
0100
0010
1000
0000
0100
0000
,
0010
0000
0100
0010
0001
0000
0100
0000
,
1001
0000
0001
1000
0001
0000
1000
0000
,
1001
0000
0001
1000
0000
1000
0001
0000
,
0100
0000
0001
0100
0000
0100
0001
0000
,
0001
0000
0010
0001
0000
0001
0010
0000
,
0100
0000
1000
0100
0000
0100
1000
0000
,
1001
0000
0100
0001
0000
0001
0100
0000
,
1001
0000
0100
1000
0000
1000
0100
0000
,
1001
0000
0100
0010
0000
0010
0100
0000
,
1001
0000
0000
0000
0001
0001
0001
0000
,
1000
0100
0010
0100
,
1000
0000
0001
0000
0100
0001
0100
0000
,
0001
0100
0010
1000
,
0100
0000
0010
0000
0100
1000
0100
0000
,
1000
0100
0010
0001
,
0100
0000
0010
0000
1000
0010
1000
0000
,
0010
0100
0001
0010
,
0100
0000
1000
0000
0001
1000
0001
1000
,
0001
0100
0001
0010
,
0001
0000
0100
0000
0010
0100
0010
0000
,
1000
0100
1000
0100
,
0010
0000
0001
0000
0100
0001
0100
0000
,
0001
0100
0001
0010
,
0100
0000
1000
0000
1000
0100
1000
0000
,
0100
1000
0010
0100
,
0010
1000
0010
0001
,
0010
1000
0100
0010
,
0100
1000
0001
0100
,
0001
0100
0001
0000
0100
0001
0100
0000
,
0001
0010
0001
0000
0001
0010
0001
0000
,
0010
0001
0100
0010
,
1000
0100
0010
0100
,
1000
0001
0100
0010
,
1000
0000
0100
0000
1000
0001
1000
0001
,
1000
0000
0000
0000
;

//---------------dance-single - Maniac----------------
#NOTES:
     dance-single:
     Maniac:
     Hard:
     7:
     0.502,0.429,0.249,0.272,0.108:
0001
0000
1000
0001
0000
0001
1000
0100
,
0010
0000
0100
0010
0000
0100
0010
0100
,
1000
0000
0000
0000
0001
0000
1000
0000
0000
0000
0100
0000
0000
1000
0000
0000
,
0001
0000
0000
0000
0100
0000
0001
0000
0000
0000
0100
0000
0000
0001
0000
0000
,
0010
0000
0000
0000
0100
0000
1000
0000
0000
0000
0001
0000
0000
0100
0000
0000
,
0010
0000
0000
0000
1000
0000
0100
0000
0000
0000
0010
0000
0000
0100
0000
0000
,
1000
0000
0000
0000
0001
0000
0100
0000
0000
0000
0010
0000
0000
1000
0000
0000
,
0100
0000
0000
0000
0010
0000
0001
0000
0000
0000
0100
0000
0000
0001
0000
0000
,
1000
0000
0000
0000
0100
0000
0010
0000
0000
0000
0100
0000
0000
1000
0000
0000
,
0001
0000
0000
0000
0100
0000
0001
0000
0000
0000
1000
0000
0000
0100
0000
0000
,
1000
0000
0100
0000
1000
0000
0001
0000
1000
0000
0000
0000
0100
0001
0000
0000
,
0001
0000
0100
0000
0001
0000
0010
0000
0001
0000
0000
0000
0001
0010
0000
0000
,
0001
0000
0100
0000
0010
0000
1000
0000
0100
0000
0000
0000
1000
0100
0000
0000
,
1000
0000
0010
0000
0100
0000
0010
0000
1000
0000
0000
0000
1000
0100
0000
0000
,
1000
0000
0001
0000
0010
0000
0001
0000
0100
0000
0001
0000
1000
0001
0000
0000
,
0100
0000
0001
0000
0010
0000
0100
0000
1000
0000
0010
0000
0100
0010
0000
0000
,
0100
0000
0010
0000
1000
0000
0100
0000
0010
0000
0001
0000
0010
0001
0000
0000
,
0010
0001
0010
0000
0001
1000
0100
0000
,
1000
0200
0000
1000
2300
0000
0001
3002
,
0000
0010
0013
0000
0011
0011
0011
0000
,
0001
0020
0000
0001
0032
0000
0100
0203
,
0000
0010
0310
0000
1010
1010
1010
0000
,
1000
0002
0000
1000
2003
0000
0100
3200
,
0000
0010
0310
0000
0110
0110
0110
0000
,
0010
0020
0000
0100
0230
0000
1000
2300
,
0000
0000
3001
0000
0000
0000
1001
0000
0100
0000
1000
0100
0000
1000
0100
0000
,
1000
0200
0000
1000
2300
0000
0001
3002
,
0000
0010
0013
0000
0011
0011
0011
0000
,
0001
0020
0000
0001
0032
0000
0100
0203
,
0000
0010
0310
0000
1010
1010
1010
0000
,
1000
0002
0000
1000
2003
0000
0100
3200
,
0000
0010
0310
0000
0110
0110
0110
0000
,
0010
0020
0000
0100
0230
0000
1000
2300
,
0000
0000
3001
0000
0000
0000
1001
0000
0100
0000
1000
0100
0000
1000
0100
0000
,
1000
0001
0010
0100
1000
0001
0100
0001
,
0010
0001
0100
0010
1000
0100
0010
0100
,
1000
0001
0100
0010
1000
0100
0010
0001
,
0100
0001
0010
0001
0100
0001
1001
0000
,
1000
0100
0010
0100
1000
0010
0100
0010
,
0001
0010
0100
0010
1000
0100
0010
0001
,
0100
0001
1000
0100
0010
0100
1000
0000
,
0001
1000
0100
0000
0010
0100
1000
0001
,
1001
0000
0000
0000
;
