#TITLE:HELENA;
#SUBTITLE:;
#ARTIST:MY CHEMICAL ROMANCE;
#TITLETRANSLIT:;
#SUBTITLETRANSLIT:;
#ARTISTTRANSLIT:;
#CREDIT:;
#BANNER:HELENA.png;
#BACKGROUND:HELENA-bg.png;
#LYRICSPATH:;
#CDTITLE:THREE CHEERS FOR SWEET REVENGE.png;
#MUSIC:HELENA.mp3;
#OFFSET:-0.483;
#SAMPLESTART:15.126;
#SAMPLELENGTH:19.000;
#SELECTABLE:YES;
#LASTBEAT:291.500;
#BPMS:0.000=125.877,32.000=251.754,160.000=62.938,180.000=125.877,244.000=62.938;
#STOPS:;
#BGCHANGES:0.000=Helena.avi=1.000=1=0=0
,296.000=HELENA-bg.png=1.000=1=0=1
;

//---------------dance-single - ----------------
#NOTES:
     dance-single:
     :
     Hard:
     9:
     0.377,0.450,0.258,0.050,0.068:
0000
0000
0000
0000
,
0000
0000
0000
0000
,
0000
0000
0000
0000
,
0000
0000
0000
0000
,
0000
0000
0000
0000
,
0000
0000
0000
0000
,
0100
1001
0000
0000
0000
0000
0000
0000
,
0100
0000
1001
0000
0000
0000
0000
0000
0000
0000
0000
0000
0010
0001
0010
0001
,
1000
0010
1000
0010
,
0100
0000
0001
0000
0010
0001
0010
0000
,
0001
0010
0001
0010
,
0100
1001
1001
1001
,
0102
0010
1000
0103
,
2010
0100
0001
3010
,
0001
0000
0000
0010
0000
0000
0100
0000
,
1000
0000
0001
0010
0001
0100
0001
0010
,
0001
0100
0001
0100
,
0001
0000
1000
0000
0100
1000
0100
0000
,
0010
0001
0010
0001
,
1000
0110
0110
0110
,
0110
0001
1000
0001
,
0110
1000
0001
1000
,
0101
0010
1000
0010
,
0100
0000
0001
0010
0001
1000
0001
0010
,
0001
1000
0010
1000
,
1100
0010
0001
0010
,
0012
0100
1000
0100
,
0013
0011
0011
0011
,
1001
0010
0100
0010
,
0101
1000
0010
1000
,
0012
0100
1000
0100
,
0013
0000
1000
0100
1000
0010
1000
0100
,
1000
0001
0100
0001
,
1010
0001
0100
0001
,
2001
0100
0010
0100
,
3001
1001
1001
1001
,
1100
0001
0010
0001
,
0101
1000
0010
1000
,
0001
1100
1000
0101
,
0001
0010
0001
1000
0100
1000
0001
0010
,
0001
0000
0000
0000
1000
0000
0000
0000
0010
0000
0000
0000
0010
0010
0010
0000
,
0100
0000
0001
0000
1000
0000
0010
0010
,
0010
0000
1000
0100
0000
0001
0010
0100
,
1000
0000
0001
0010
0000
1000
0100
0010
,
0002
0000
0000
0000
0000
0000
0000
0003
,
1000
0010
1000
0010
1000
0000
0000
0000
0000
0000
0000
0000
0000
0000
0000
0000
,
0001
0010
0001
0010
0001
0000
0000
0000
0000
0000
0000
0000
0000
0000
0000
0000
,
1000
0001
1000
0001
1000
0000
0000
0000
0000
0000
0000
0000
0000
0000
0000
0000
,
0001
0100
0001
0100
0001
0000
0000
0000
0000
0000
0000
0000
0010
0000
0010
0000
,
0001
1000
0100
0000
0001
1000
0100
0100
,
0010
0001
0100
0000
0010
0001
0100
0100
,
0010
1000
0001
0000
0010
1000
0001
0001
,
0010
0000
0000
0000
0010
0000
0000
0000
0001
0010
0001
0000
1000
0010
1000
0000
,
0001
0000
0100
0000
0010
0000
0000
0000
0001
0000
0100
0000
0010
0100
0000
0000
,
0001
0000
0010
0000
0100
0000
0000
0000
0001
0000
0010
0000
0100
0010
0000
0000
,
0100
0000
1000
0000
0010
0000
0000
0000
0100
0000
1000
0000
0010
0100
0000
0000
,
0001
0000
0000
0000
0001
0000
0000
0000
1000
0001
1000
0000
1000
0100
1000
0000
,
0001
0010
0100
0000
0001
0010
1001
1001
,
0001
0100
0010
0000
0001
0100
1001
1001
,
0110
0000
0101
0000
,
0100
0001
0100
0001
1000
0010
0100
0001
,
1000
0000
0000
0000
0001
0000
0000
0000
0010
0000
0000
0000
0010
0010
0010
0000
,
0100
0000
1000
0000
0001
0000
1000
1000
,
1000
0000
0001
0100
0000
1000
0010
0100
,
0001
0000
1000
0100
0000
0001
0010
0100
,
1000
0000
0001
0001
0100
0000
0001
0001
,
1000
0000
0100
0100
1000
0000
0001
0001
,
0100
0000
0001
0010
0000
1000
0100
0010
,
0001
0000
1000
0010
0000
0001
0100
0010
,
2000
0000
0000
0000
0000
0000
0000
3000
;

//---------------dance-single - ----------------
#NOTES:
     dance-single:
     :
     Challenge:
     10:
     0.504,0.802,0.136,0.064,0.455:
0000
0000
0000
0000
,
0000
0000
0000
0000
,
0000
0000
0000
0000
,
0000
0000
0000
0000
,
0000
0000
0000
0000
,
0000
0000
0000
0000
,
0000
0011
0000
0000
0000
0000
0000
0000
,
0000
0000
0001
0000
0000
0000
0000
0000
0000
0000
0000
0000
1000
0100
1000
0100
,
0001
0000
0100
0000
1000
0100
1000
0000
,
0100
0000
0010
0000
0100
1000
0100
0000
,
0010
0010
0100
0100
,
0000
0010
0010
0010
,
0001
0000
1010
0000
0001
0100
0001
0000
,
1000
0000
0100
0000
0100
1000
0100
0000
,
1000
0000
0000
0010
0000
0000
0001
0000
,
0100
0000
0010
1000
0001
0100
0010
1000
,
0002
1003
0100
0010
,
0002
1003
0100
1010
,
1200
0310
0001
1000
,
0100
0011
1001
0101
,
1000
0000
0010
0000
1000
0010
0100
0000
,
0010
0000
0100
0000
0010
0100
0001
0000
,
0100
0000
0010
0000
0100
0001
1000
0000
,
0000
0000
0100
0001
0010
0001
0100
0001
,
0010
0100
1000
0100
,
1000
0010
0100
0010
,
1000
0001
0100
0001
,
0010
0001
0100
0011
,
1000
0001
0100
0010
,
0100
0001
0100
0010
,
1000
0100
0010
0001
,
0100
0000
1000
0010
1000
0010
1000
0010
,
1000
0001
0010
0001
,
0001
1000
0010
1000
,
1000
0001
0100
0001
,
0001
1000
0100
1000
,
0200
0001
0001
1300
,
0020
0001
0001
1030
,
0101
1100
0101
1100
,
0001
0010
0100
0010
0100
1000
0010
0100
,
0001
0000
0000
0000
0010
0000
0000
0000
1000
0000
0000
0000
0001
0100
0101
0000
,
0010
0000
0000
0000
1000
0000
0000
0000
1000
0000
0001
0000
0010
0001
0010
0000
,
0001
0000
0000
0000
1000
0001
1000
0000
0100
0010
0100
1000
0001
0010
0001
0000
,
0001
0100
0001
0100
0100
0001
0100
0010
0010
1000
0010
1000
1000
0001
1000
0000
,
2002
0000
0000
0000
,
3003
0000
0000
0000
,
0100
0010
0001
0010
0100
0000
0000
0000
0000
0000
0000
0000
0000
0000
0000
0000
,
1000
0101
0000
0000
,
0001
0100
0010
0100
0001
0000
0100
0010
1000
0010
1000
0010
0100
0000
0100
0000
,
0001
0010
0001
0010
0001
0000
0010
0001
1000
0001
1000
0001
0010
0000
0001
0000
,
1000
0010
1000
0010
1000
0000
0010
1000
0001
1000
0001
1000
0010
0000
1000
0000
,
0001
0100
0001
0100
0001
0000
0100
0001
1000
0001
1000
0001
0100
0000
0001
0000
,
1000
0100
1000
0100
1000
0000
0001
0100
0001
1000
0010
1000
0001
1000
0010
1000
,
0100
1000
0100
1000
0100
0000
0010
0100
0010
0100
0010
0100
0010
0001
0000
0000
,
0100
0010
0100
0010
1000
0000
0010
0100
0010
0100
0010
0100
0010
1000
0000
0000
,
0100
0010
0001
0100
0010
0000
0100
0001
0010
0100
0010
0100
0010
0001
0000
0000
,
0100
0010
1000
0100
0010
0000
0100
1000
0010
0100
0010
0100
0001
0100
0001
0100
,
0001
0010
1000
0010
0001
0000
0000
0000
1000
0100
0001
0100
1000
0000
0001
0000
,
1000
0010
0001
0010
1000
0000
0000
0000
0001
0100
1000
0100
0001
0000
1000
0000
,
0010
0100
0001
0000
0100
0010
1000
0000
,
0100
1000
0100
0010
0001
1000
0001
0010
0001
1000
0001
1000
0001
0100
0010
1000
,
0100
0000
0000
0000
1000
0000
0000
0000
0010
0000
0000
0000
0001
1100
1001
0000
,
1000
0000
0000
0000
0100
0000
0100
0000
0010
0000
0010
0000
0001
0100
0010
1000
,
0100
0000
0000
0000
1000
0010
1000
0000
1000
0100
1000
0100
0010
0001
0010
0000
,
0001
0100
0001
0100
0010
1000
0010
0100
0010
1000
0010
1000
0100
0001
0100
0000
,
0010
0001
0001
1000
0001
0100
0001
1000
0010
1000
1000
0001
1000
0100
1000
0010
,
0001
0100
0001
0100
0010
1000
1000
0001
1000
0100
1000
0100
0010
0001
0100
0000
,
1000
0010
1000
0010
0100
0001
0100
0000
0001
0010
0001
0010
0100
1000
0100
0000
,
0001
0010
0001
0010
0010
0001
0010
0100
0100
1000
0100
1000
0010
1000
1001
0000
,
0220
0000
0000
0000
,
0330
0000
0000
0000
;

//---------------dance-single - ----------------
#NOTES:
     dance-single:
     :
     Medium:
     7:
     0.330,0.375,0.279,0.050,0.011:
0000
0000
0000
0000
,
0000
0000
0000
0000
,
0000
0000
0000
0000
,
0000
0000
0000
0000
,
0000
0000
0000
0000
,
0000
0000
0000
0000
,
0000
1001
0000
0000
0000
0000
0000
0000
,
0000
1001
0000
0000
0000
0000
0010
0001
,
1001
0010
1000
0010
,
1000
0010
1000
0001
,
0001
0010
0001
0010
,
0001
1100
1100
1100
,
0002
0010
1003
0100
,
0002
0010
1003
0100
,
1000
0000
0000
0010
0000
0000
0001
0000
,
0100
0000
0010
0100
0010
0100
0010
0000
,
1000
0100
1000
0100
,
1000
0100
1000
0010
,
0010
0100
0010
0100
,
0010
1010
1010
1010
,
0001
0100
0001
0100
,
0010
1000
0010
1000
,
0001
0010
0001
0010
,
0100
1100
1100
1100
,
0011
1000
0100
0000
,
0011
1000
0100
0000
,
1010
0001
0100
0001
,
1000
1100
1100
1100
,
1001
0100
0010
0000
,
1001
0100
0010
0000
,
0110
0001
1000
0001
,
0100
0101
0101
0101
,
1010
0001
0100
0000
,
1010
0001
0100
0000
,
0101
1000
0010
1000
,
0001
0101
0101
0101
,
2010
0000
3100
0000
,
2010
0000
3100
0000
,
0011
0010
0001
0010
,
0100
1000
0100
1000
0100
1000
0100
1000
,
0100
0000
1000
0000
0001
0000
0100
0100
,
0010
0000
1000
0000
0100
0000
1000
1000
,
0001
0000
0001
1000
0001
1000
0010
0100
,
0001
0000
1000
0001
1000
0001
0010
0100
,
2000
0000
0000
0000
0000
0000
0000
3000
,
0001
0100
0001
0000
0000
0000
0000
0000
,
1000
0100
1000
0000
0000
0000
0000
0000
,
0010
0100
0010
0000
0000
0000
0000
0000
,
1000
0010
1000
0000
0000
0000
0001
0001
,
1000
0000
0100
0000
1000
0000
0001
0001
,
0100
0000
0001
0000
1000
0000
0010
0010
,
0100
0000
0001
0000
0010
0000
0001
0001
,
1000
0000
1000
0000
0001
0001
1000
1000
,
0001
0000
0001
0000
0100
0000
0000
0000
0001
0000
0000
0000
1000
0001
0000
0000
,
1000
0000
1000
0000
0100
0000
0000
0000
1000
0000
0000
0000
0001
0100
0000
0000
,
0001
0000
0001
0000
1000
0000
0000
0000
0001
0000
0000
0000
0010
0100
0000
0000
,
1000
0000
1000
0000
0001
0010
0001
0010
,
0001
0000
1001
0000
0100
0000
1001
1001
,
0100
0000
1001
0000
0100
0000
1001
1001
,
0100
0000
1000
0000
,
0001
0010
0001
0010
0100
1000
0100
0010
,
0001
1000
0010
0200
,
0301
0000
0010
0000
0001
0000
1000
1000
,
0001
0000
1000
0001
0000
0001
0010
0100
,
1000
0000
1000
0001
0000
0001
0010
0100
,
1000
0000
0001
0001
1000
0000
0010
0000
,
0100
0000
0001
0001
0010
0000
0100
0000
,
1000
0000
0001
0100
0010
1000
0010
0100
,
0001
0000
1000
0010
0100
0001
0100
0010
,
2000
0000
0000
0000
0000
0000
0000
3000
;

//---------------dance-single - ----------------
#NOTES:
     dance-single:
     :
     Beginner:
     2:
     0.107,0.150,0.029,0.072,0.000:
0000
0000
0000
0000
,
0000
0000
0000
0000
,
0000
0000
0000
0000
,
0000
0000
0000
0000
,
0000
0000
0000
0000
,
0000
0000
0000
0000
,
1000
0000
0000
0000
,
1000
0000
0000
0001
,
0001
0000
0000
0000
,
0001
0000
0000
0000
,
1000
0000
0000
0000
,
0000
0000
0010
0000
,
0010
0000
0000
0000
,
0100
0000
0000
0000
,
0001
0000
0001
0000
,
0001
0000
0000
0000
,
1000
0000
0000
0000
,
0100
0000
0000
0000
,
0010
0000
0000
0000
,
0001
0000
0000
0000
,
2000
0000
3000
0000
,
0002
0000
0003
0000
,
2002
0000
3003
0000
,
0000
0000
1000
0000
,
1000
0000
0000
0000
,
1001
0000
0000
0000
,
0100
0000
0000
0000
,
0000
0000
0010
0000
,
0010
0000
0000
0000
,
1001
0000
0000
0000
,
0100
0000
0000
0000
,
0000
0000
1000
0000
,
1000
0000
0000
0000
,
0110
0000
0000
0000
,
0001
0000
0000
0000
,
0000
0000
0010
0000
,
0001
0000
0000
0000
,
0010
0000
0000
0000
,
0200
0000
0300
0000
,
0000
0000
1000
0000
,
1000
0000
0010
0000
,
0100
0000
0001
0001
,
0001
0000
0010
0000
,
0100
0000
1000
0000
,
0002
0000
0003
0000
,
1000
0000
0000
0000
,
1000
0000
0000
0000
,
1000
0000
0000
0000
,
1000
0000
0000
1000
,
1000
0000
0001
0000
,
1000
0000
0001
0000
,
1000
0000
0001
0000
,
0010
0000
0010
0010
,
0010
0000
0100
0000
,
0010
0000
0100
0000
,
1000
0000
0001
0000
,
1000
0000
0001
0000
,
0100
0000
0010
0000
,
1000
0000
0001
0000
,
1000
0000
0001
0000
,
0010
0010
0010
0010
,
0010
0000
0000
0000
,
0100
0000
1000
1000
,
2000
0000
3000
0000
,
0002
0000
0003
0000
,
1000
0000
0010
0010
,
0010
0000
0100
0000
,
0002
0000
0003
0000
,
2000
0000
0000
0000
,
0000
0000
0000
3000
;

//---------------dance-single - ----------------
#NOTES:
     dance-single:
     :
     Easy:
     5:
     0.249,0.300,0.143,0.272,0.000:
0000
0000
0000
0000
,
0000
0000
0000
0000
,
0000
0000
0000
0000
,
0000
0000
0000
0000
,
0000
0000
0000
0000
,
0000
0000
0000
0000
,
0000
0011
0000
0000
0000
0000
0000
0000
,
0000
0011
0000
0000
0000
0000
0002
0000
,
1003
0100
1000
0100
,
1000
0100
1000
0001
,
0001
0100
0001
0100
,
0001
0100
0100
0100
,
0110
0000
0000
0000
,
0101
0000
0000
0000
,
0010
0000
0000
0001
0000
0000
0100
0000
,
0010
0000
1000
0010
,
0100
0001
0100
0001
,
0100
0001
0100
0010
,
0010
1000
0010
1000
,
0010
1000
1000
1000
,
0100
1000
0100
1000
,
0001
0010
0001
0010
,
0200
0000
0000
0000
,
0300
0100
0100
0100
,
2002
0000
0000
3003
,
2002
0000
0000
3003
,
2002
0000
0000
3003
,
0000
0010
0010
0010
,
0220
0000
0000
0330
,
0220
0000
0000
0330
,
0220
0000
0000
0330
,
0000
1000
1000
1000
,
2200
0000
0000
3300
,
0022
0000
0000
0033
,
2200
0000
0000
3300
,
0000
0001
0001
0001
,
0101
0000
0000
0000
,
1100
0000
0000
0000
,
1000
0000
0010
0000
,
1000
1000
1000
1000
,
1000
0100
1000
0001
,
0100
0001
0100
0010
,
2000
0001
0100
0010
,
3002
0010
0100
1000
,
0013
0000
0000
0000
,
2000
3000
0000
0000
,
0002
0003
0000
0000
,
0020
0030
0000
0000
,
0200
0000
0300
0000
0000
0000
1000
1000
,
1000
0000
0010
0000
1000
0000
0010
0010
,
0100
0000
0001
0000
0100
0000
0001
0001
,
1000
0000
0100
0000
1000
0000
0001
0001
,
0100
0010
1001
1001
,
0200
0010
0000
0310
,
2000
0001
0000
3001
,
0020
0100
0000
0130
,
2000
0010
0010
3010
,
1000
0000
0101
0000
0000
0000
0001
0001
,
0001
0000
1100
0000
0000
0000
1000
1000
,
1000
0000
0011
0000
,
0002
0000
2003
3020
,
0130
0000
0001
0000
1000
0000
0100
0100
,
0100
0000
0010
0000
0001
0000
1000
1000
,
2000
0100
0010
0100
,
3002
0010
0100
0010
,
1003
0000
0001
0001
0001
0000
1000
0000
,
0010
0000
0100
0100
0100
0000
0010
0000
,
2000
0010
0100
0001
,
3002
0010
0100
1000
,
2000
0000
0000
0000
0000
0000
0000
3003
;
