#TITLE:HAVE A NICE DAY;
#SUBTITLE:;
#ARTIST:TOMMY B.;
#TITLETRANSLIT:;
#SUBTITLETRANSLIT:;
#ARTISTTRANSLIT:;
#CREDIT:;
#BANNER:HAVE A NICE DAY.png;
#BACKGROUND:HAVE A NICE DAY-bg.png;
#LYRICSPATH:;
#CDTITLE:Dance Mania COVERS 01.png;
#MUSIC:HAVE A NICE DAY - TOMMY B..mp3;
#OFFSET:-9.580;
#SAMPLESTART:58.822;
#SAMPLELENGTH:12.000;
#SELECTABLE:YES;
#BPMS:0.000=175.000;
#STOPS:;
#BGCHANGES:;

//---------------dance-single - ----------------
#NOTES:
     dance-single:
     :
     Hard:
     9:
     0.637,0.536,0.177,0.177,0.011: // measure 1
1000
0001
0220
0000
,  // measure 2
0000
0000
0330
0000
1000
0000
0001
0100
,  // measure 3
0001
0010
1000
0000
0010
0001
0100
0010
,  // measure 4
1000
0100
0001
0100
1000
0000
0001
0100
,  // measure 5
0001
0010
1000
0000
0010
0001
1000
0100
,  // measure 6
0010
0100
1000
0001
0000
0010
0100
1000
,  // measure 7
0010
0100
0001
0010
0001
0100
0010
1000
,  // measure 8
0100
0010
0001
0000
1000
0010
1000
0010
,  // measure 9
0001
0010
0001
0010
2000
0000
3002
0000
,  // measure 10
0203
0000
0301
1001
0000
0100
0010
0001
,  // measure 11
0100
0010
0100
0010
1000
0100
0010
0001
,  // measure 12
0100
0001
0100
0000
0001
0010
0001
0010
,  // measure 13
1000
0010
1000
0010
0002
0000
2003
0000
,  // measure 14
3002
0000
1003
0110
0000
1000
0001
0010
,  // measure 15
0001
0100
1000
0100
0010
1000
0100
0010
,  // measure 16
0100
1000
0001
0020
0000
0031
1000
0100
,  // measure 17
0010
0001
0010
0001
0100
0010
1000
0001
,  // measure 18
0010
0100
1000
0020
0000
0130
0001
0100
,  // measure 19
0010
0000
1000
0100
0010
0100
1000
0010
,  // measure 20
0001
0010
1000
0001
0000
0010
0001
0100
,  // measure 21
0010
0000
1001
0000
0001
0100
0010
1000
,  // measure 22
0100
0010
0100
0000
1000
0000
0001
0000
0200
0000
0000
0000
0001
0000
0000
0000
,  // measure 23
0001
0000
0301
0100
0010
1000
0100
1000
,  // measure 24
0001
0010
1000
0010
0001
0000
1000
0000
,  // measure 25
0001
0000
1001
0000
1000
0100
0001
0100
,  // measure 26
1000
0001
0100
0001
0200
0000
0010
0000
,  // measure 27
0310
1000
0010
1000
0100
0010
0001
0100
,  // measure 28
1000
0100
0001
0010
0001
1000
0100
0000
,  // measure 29
1000
0000
0110
0000
0001
0100
1000
0100
,  // measure 30
0001
1000
0010
2000
0000
3100
0010
0100
,  // measure 31
1000
0001
0100
0002
0000
1003
0001
0010
,  // measure 32
0100
1000
0010
0200
0000
0301
1000
0100
,  // measure 33
0010
0001
0100
1000
0100
0001
1000
0100
,  // measure 34
1000
0000
0001
1000
0010
0000
1000
0000
,  // measure 35
0100
1000
0010
1000
0001
0100
0010
0100
,  // measure 36
0001
0010
0001
0000
0101
0000
1001
0000
,  // measure 37
1000
0000
0001
0000
1001
0010
0100
0001
,  // measure 38
0100
0010
1000
0000
0100
0010
0001
0100
,  // measure 39
0001
0010
0100
1000
0010
0000
1000
0001
,  // measure 40
0000
0001
0100
0000
0010
0100
0001
0010
,  // measure 41
1000
0010
0001
0100
0010
0000
1000
0100
,  // measure 42
1000
0010
0001
0000
0010
1000
0100
0010
,  // measure 43
0100
1000
0001
0100
0010
1000
0001
0010
,  // measure 44
0100
1000
0001
0100
0010
1000
0100
0010
,  // measure 45
0001
0100
0001
0000
1000
0000
0100
0000
1000
0000
0000
0000
0010
0000
0100
0000
,  // measure 46
0001
0000
0100
0010
1000
0001
0100
1000
,  // measure 47
0100
0010
1000
0100
0010
0000
0001
1000
,  // measure 48
0001
1000
0101
0000
0010
0100
0001
0000
,  // measure 49
1000
0010
1000
0100
0001
0000
0100
1000
,  // measure 50
0000
1000
0010
0000
0100
0010
1000
0001
,  // measure 51
0100
1000
0100
0010
1000
0000
1000
0001
,  // measure 52
0000
1000
0010
0000
1000
0100
0001
0100
,  // measure 53
1000
0001
0010
0100
0001
0000
0100
0000
,  // measure 54
0001
0010
0100
0001
,  // measure 55
0100
0001
1100
0001
,  // measure 56
1100
0010
1001
1001
,  // measure 57
1001
0000
1001
0100
2000
0000
0000
3000
;

//---------------dance-single - ----------------
#NOTES:
     dance-single:
     :
     Easy:
     4:
     0.329,0.377,0.244,0.144,0.000:
1000
0100
2000
0000
,
0000
3000
0001
0000
,
1000
0000
0100
0100
,
0100
0000
1000
0000
,
0001
0000
0100
0100
,
0100
0000
0010
0000
,
0110
0000
1000
0100
,
1000
0000
0002
1003
,
2000
3001
0100
0100
,
0100
0000
0001
0000
,
0101
0000
0010
0100
,
0001
0000
0020
0031
,
0002
0103
0010
0010
,
0010
1000
1001
0000
,
1000
0000
0100
0010
,
0001
0100
0101
0000
,
1000
0000
0100
1000
,
0100
0010
0001
0000
,
0100
0000
0001
1000
,
0001
0000
1000
0000
,
0100
0000
1000
0100
,
2000
3000
0002
1000
,
0000
1003
0100
1000
,
0001
0100
0010
1000
,
0000
0100
0101
0001
,
1000
0000
0002
1000
,
0000
1003
0010
0100
,
0001
0010
0001
0001
,
0000
1000
1010
0010
,
0100
0000
0001
0000
,
1001
0000
1000
0000
,
0110
0000
0001
0000
,
1001
0000
0100
0100
,
0100
1000
0100
0000
,
1000
0000
0001
0001
,
1000
0100
1001
1001
,
0000
0000
0101
0001
,
0001
0000
1000
0100
,
1000
0001
2000
0000
,
0100
0000
0010
3010
,
1000
0001
0100
0010
,
1000
0100
1000
1000
,
1000
0000
1001
0000
,
0010
0000
0100
0100
,
0100
0001
1100
0010
,
0100
0001
0010
0010
,
0001
1000
1001
0010
,
1000
0100
0000
0000
,
1000
0010
0200
1000
,
0001
0310
1000
0100
,
0010
0001
0200
0010
,
1000
0310
0001
0100
,
0010
1000
1010
0000
,
0001
0000
1000
0100
,
1000
0001
1001
0000
,
0101
0000
1001
1001
,
1001
0010
2200
3300
;

//---------------dance-single - Copied from----------------
#NOTES:
     dance-single:
     Copied from:
     Medium:
     7:
     0.489,0.473,0.399,0.055,0.000:
1000
0101
0020
0000
,
0000
0000
0030
0000
1001
0000
1000
0100
,
0000
0100
1000
0000
1001
0000
1001
0000
,
1001
0000
0010
0000
0100
0000
0001
0100
,
0000
0100
0001
0000
0101
0000
0101
0000
,
0101
1000
1100
0001
,
0100
0010
1000
0000
1000
0100
1000
0000
,
0001
0000
1000
0000
0001
0100
0001
0000
,
0100
1000
0100
0000
0001
0000
0001
0000
,
0001
0001
1010
0001
,
1000
0100
1000
0000
0001
0100
0001
0000
,
1001
0000
0010
0000
1000
0100
1000
0000
,
0100
0001
0100
0000
1000
0000
1000
0000
,
1000
0000
0001
0100
0000
0100
0001
0000
,
1000
0000
0010
0000
1000
0100
1000
0010
,
1000
0000
0001
1000
0000
1000
0001
0000
,
1000
0000
1001
0000
0010
0100
0001
0100
,
0010
0000
1000
0000
1100
0000
0001
0100
,
0001
0000
1000
0100
0010
0100
1000
0010
,
1000
0000
0010
0000
0100
0001
0100
0010
,
1000
0000
0100
0000
1000
0001
1000
0001
,
1000
0001
1000
0000
0001
0100
0001
0010
,
0001
1000
0100
1000
0000
0100
0000
1000
,
0000
0001
0000
1000
0000
0001
0000
0000
,
0000
1000
1100
0001
,
1001
0000
0000
0000
0001
0100
0010
0100
,
0001
1000
0010
1000
0100
0010
0000
0001
,
0000
0100
0000
0001
0000
1000
0000
0000
,
0000
0001
0101
1000
,
1100
0000
0000
0001
0000
0000
0010
0000
,
0011
0000
0000
1000
0000
0000
0100
0000
,
1100
0000
0001
0001
,
1000
0000
0100
0000
1000
0100
1000
0000
,
1010
0000
0001
0100
0010
0000
0010
0000
,
1000
0000
0100
0000
1000
0001
1000
0000
,
0010
0100
1001
0101
,
0000
0000
0000
0000
1000
0100
1000
0100
,
0000
1000
0001
0000
1001
0000
1001
0000
,
0010
0100
0001
0100
0010
0000
1000
0001
,
0000
0001
0100
0000
0101
0000
0101
0000
,
0001
0010
0100
0010
0001
0000
1000
0100
,
0000
0100
1000
0000
1010
0000
1010
0000
,
1010
0001
1000
1000
,
0100
0000
1000
0000
0001
1000
0001
0000
,
0010
0001
1001
1001
,
1001
0010
0100
0001
,
1000
0000
0010
0000
1000
0000
0100
0010
,
0100
0010
0002
0000
1003
0000
1000
0000
,
0001
0100
0010
1000
0020
0000
1000
0000
,
0100
0000
1000
0030
0001
0000
0100
0000
,
0010
1000
0100
0010
0002
0000
1000
0000
,
0010
1003
0001
1000
,
1001
0010
0101
0001
,
0001
0001
1000
0100
,
1000
0001
1001
0001
,
0101
1000
0100
0100
,
0100
1000
0010
0001
0200
0000
0000
0300
;
