#TITLE:GIRLS & BOYS;
#SUBTITLE:;
#ARTIST:blur;
#TITLETRANSLIT:;
#SUBTITLETRANSLIT:;
#ARTISTTRANSLIT:;
#CREDIT:;
#BANNER:GIRLS & BOYS.png;
#BACKGROUND:GIRLS & BOYS-bg.png;
#LYRICSPATH:;
#CDTITLE:CD.png;
#MUSIC:GIRLS & BOYS.mp3;
#OFFSET:-8.035;
#SAMPLESTART:47.946;
#SAMPLELENGTH:13.000;
#SELECTABLE:YES;
#BPMS:0.000=120.050;
#STOPS:;
#BGCHANGES:;

//---------------dance-single - Basic----------------
#NOTES:
     dance-single:
     Basic:
     Easy:
     2:
     0.177,0.193,0.000,0.000,0.000: // measure 1
0010
0000
0100
0000
,  // measure 2
0010
0000
0100
0000
,  // measure 3
0010
0010
0100
0100
,  // measure 4
0001
0001
1000
1000
,  // measure 5
0001
0001
0100
0000
,  // measure 6
0010
0000
1000
0000
,  // measure 7
0010
0010
0100
0000
,  // measure 8
0010
0000
1000
0000
,  // measure 9
0100
0100
1000
0000
,  // measure 10
0010
0000
0100
0000
,  // measure 11
0001
0001
1000
1000
,  // measure 12
0010
0010
0100
0100
,  // measure 13
0001
0001
1000
0000
,  // measure 14
0010
0000
0100
0000
,  // measure 15
0010
0010
0100
0000
,  // measure 16
0001
0000
1000
0000
,  // measure 17
0100
0100
1000
0000
,  // measure 18
0100
0000
0010
0000
,  // measure 19
0001
1000
0001
1000
,  // measure 20
0001
1000
0001
1000
,  // measure 21
0001
0000
0010
0000
,  // measure 22
0001
0000
0010
0000
,  // measure 23
0100
0000
1000
0000
,  // measure 24
0100
0000
1000
0000
,  // measure 25
0001
1000
0010
0000
,  // measure 26
1000
0001
0100
0000
,  // measure 27
0010
0100
0010
0100
,  // measure 28
0010
0100
0010
0100
,  // measure 29
0010
0000
1000
0000
,  // measure 30
0010
0000
1000
0000
,  // measure 31
0001
0000
0100
0000
,  // measure 32
0001
0000
0100
0000
,  // measure 33
0010
0100
0001
0000
,  // measure 34
0100
0010
1000
0000
,  // measure 35
0001
1000
0001
1000
,  // measure 36
0010
0100
0010
0100
,  // measure 37
0001
0001
0001
0000
,  // measure 38
1000
0000
0001
0000
,  // measure 39
0100
0100
0100
0000
,  // measure 40
0010
0000
0100
0000
,  // measure 41
0010
1000
0010
0000
,  // measure 42
0100
0001
0100
0000
,  // measure 43
0001
0010
0001
0010
,  // measure 44
0001
0010
0001
0010
,  // measure 45
0001
0000
0000
0000
;

//---------------dance-single - Trick----------------
#NOTES:
     dance-single:
     Trick:
     Medium:
     5:
     0.305,0.301,0.254,0.000,0.000:
0001
0001
0010
0010
,
0100
0100
1000
1000
,
0010
0110
0100
0110
,
0010
0110
1001
1001
,
1000
0000
0001
0010
0001
0000
0000
0000
,
0100
0000
0100
0000
,
0010
0000
1000
0100
1000
0000
0000
0000
,
0001
0000
0001
0000
,
0100
0000
0010
0100
0010
0000
0000
0000
,
1000
0000
1000
0000
,
0001
1001
1000
1001
,
0001
1001
0110
0110
,
0001
0000
0010
0001
0000
0000
0100
0010
,
0000
0000
1000
0100
1000
0000
0100
1000
,
0000
0000
0010
0100
0000
0000
0001
0010
,
0000
0000
0010
0001
0010
0000
0001
0010
,
0000
0000
0100
0001
0000
0000
1000
0010
,
0000
0000
0100
0001
0000
0000
1000
0000
,
1000
0010
1000
0000
0001
0010
0001
0000
,
1000
0010
1000
0000
1100
0000
0101
0000
,
1000
0001
0010
0001
0000
1000
0100
1000
,
0000
0001
0010
0001
0000
1000
0100
1000
,
0000
0001
0100
0001
0000
1000
0010
1000
,
0000
0001
0100
0001
0000
0000
1001
0000
,
1000
0100
0001
0100
,
1000
0100
0001
0100
,
1000
1100
0001
0101
,
1000
1100
0110
0011
,
1000
0010
0100
0010
0000
1000
0100
1000
,
0000
0010
0100
0010
0000
1000
0100
1000
,
0000
0001
0100
0001
0000
0100
0010
0100
,
0000
0001
0100
0001
0000
0000
0110
0000
,
0001
0010
0100
1000
,
0100
0010
0001
1000
,
0001
0011
1000
1010
,
0001
0011
0101
1001
,
1000
0000
1000
0000
0010
0000
0100
0010
,
0000
0100
0000
0000
0010
0000
1000
0000
,
0001
0000
0001
0000
0100
0000
0010
0100
,
0000
0000
0010
0000
1000
0000
0000
1000
,
0100
0000
0000
0010
0001
0000
0000
1000
,
0100
0000
0000
0010
0001
0000
0000
1000
,
0100
1000
0100
0000
0010
0001
0010
0000
,
0100
1000
0100
0000
0011
0000
1100
0000
,
0001
0000
0000
0000;

//---------------dance-single - Maniac----------------
#NOTES:
     dance-single:
     Maniac:
     Hard:
     7:
     0.378,0.365,0.244,0.078,0.000:
1000
0100
0010
0001
,
0100
0010
1000
0100
,
0010
0011
0100
1100
,
0001
0000
1001
0000
0100
0010
1000
0000
,
0001
0010
0001
1000
0200
0000
1300
0000
,
0000
0000
1100
0000
0001
0010
0001
0000
,
1000
0100
1000
0010
0200
0000
0301
0000
,
0000
0000
0101
0000
0010
0100
0010
0000
,
0100
0010
0100
0001
2000
0000
3010
0000
,
0000
0000
1010
0000
0100
0010
0100
0001
,
1000
1010
0100
0101
,
0010
0110
0011
1100
,
0010
0100
0001
1000
0000
0100
1000
0010
,
0000
0100
0001
1000
0100
1000
0001
0100
,
0000
0010
0100
0001
0000
0100
0001
1000
,
0000
0001
0100
0010
0100
0001
1000
0000
,
0200
0310
0002
1003
,
0001
0100
0010
0000
1000
0010
1000
0000
,
1000
0100
0001
0100
1000
0100
0001
0100
,
1000
0100
0001
0000
1010
0000
0101
0000
,
0010
1000
0001
0100
0000
0010
1000
0001
,
0000
1000
0001
0100
0000
0010
1000
0001
,
0000
1000
0010
0100
0000
0010
0100
0001
,
0000
1000
0010
0100
0001
0000
0100
0000
,
0001
0010
0000
0100
0000
1001
0000
0010
,
0000
1000
0000
0010
0100
0000
0001
0000
,
2010
3001
0120
0130
,
0102
1003
0011
1100
,
0001
0010
0100
1000
0000
0100
0010
0001
,
0000
0010
0100
1000
0000
0100
0010
0001
,
0000
1000
0010
0100
0000
0001
0100
0010
,
0000
1000
0010
0100
0001
0000
1000
0000
,
0010
0100
0000
0010
0000
1001
0000
0100
,
0000
0010
0000
1000
0100
0000
0010
0000
,
0100
0010
0100
0001
0100
0010
0100
0001
,
0100
0010
0100
0000
0110
0000
1001
0000
,
0010
0000
0100
0000
0001
0000
1000
0100
,
0000
1000
0001
0000
0100
0001
1000
0000
,
0010
0000
0100
0000
0001
0000
0100
0010
,
0000
0100
0001
0000
0010
0100
1000
0000
,
0100
0010
1000
0000
0001
0100
0010
0000
,
1000
0001
0100
0000
0010
1000
0001
0000
,
1000
0010
1000
0010
0100
0001
1000
0010
,
0100
0001
1000
0000
0011
0000
0101
0000
,
1001
0000
0000
0000
;
