#TITLE:GIRLFRIEND;
#SUBTITLE:(Speedy Mix);
#ARTIST:HANNA;
#TITLETRANSLIT:;
#SUBTITLETRANSLIT:;
#ARTISTTRANSLIT:;
#CREDIT:;
#BANNER:GIRLFRIEND (Speedy Mix).png;
#BACKGROUND:GIRLFRIEND (Speedy Mix)-bg.png;
#LYRICSPATH:;
#CDTITLE:Hime Trance Speed.png;
#MUSIC:GIRLFRIEND (Speedy Mix).mp3;
#OFFSET:-7.137;
#SAMPLESTART:56.742;
#SAMPLELENGTH:12.000;
#SELECTABLE:YES;
#BPMS:0.000=173.979;
#STOPS:;
#BGCHANGES:16.000=Star8.avi=1.200=1=0=1,
24.000=heart6.avi=1.200=0=0=1,
32.000=Star8.avi=1.200=0=0=1,
36.000=heart6.avi=1.400=0=0=1,
40.000=Star8.avi=1.400=0=0=1,
42.000=heart6.avi=1.400=0=0=1,
44.000=Comets.avi=1.200=0=0=1,
48.000=fireworks1.avi=1.000=0=0=1,
64.000=Star3.avi=1.000=0=0=1,
76.000=Comets.avi=1.200=0=0=1,
80.000=Star5.avi=1.000=0=0=1,
96.000=heart6.avi=1.200=0=0=1,
104.000=Star5.avi=1.200=0=0=1,
106.000=heart6.avi=1.000=0=0=1,
108.000=Star8.avi=1.200=0=0=1,
109.000=heart6.avi=1.200=0=0=1,
110.000=Star8.avi=1.200=0=0=1,
111.000=heart6.avi=1.200=0=0=1,
112.000=Cyber1.avi=1.200=0=0=1,
120.000=Sea1.avi=1.000=0=0=1,
128.000=Cyber1.avi=1.200=0=0=1,
136.000=Sea1.avi=1.000=0=0=1,
140.000=Comets.avi=1.200=0=0=1,
144.000=Heart4.avi=1.200=0=0=1,
148.000=Star5.avi=1.200=0=0=1,
152.000=heart6.avi=1.200=0=0=1,
156.000=Star8.avi=1.200=0=0=1,
160.000=Heart4.avi=1.200=0=0=1,
164.000=Star5.avi=1.200=0=0=1,
168.000=Cyber1.avi=1.200=0=0=1,
176.000=Heart4.avi=1.200=0=0=1,
180.000=Star5.avi=1.200=0=0=1,
184.000=heart6.avi=1.200=0=0=1,
188.000=Star8.avi=1.200=0=0=1,
192.000=Heart4.avi=1.200=0=0=1,
196.000=Star5.avi=1.200=0=0=1,
200.000=Cyber1.avi=1.200=0=0=1,
208.000=Sea1.avi=1.000=0=0=1,
216.000=fireworks1.avi=1.200=0=0=1,
224.000=Cyber1.avi=1.200=0=0=1,
232.000=Sea1.avi=1.000=0=0=1,
234.000=Comets.avi=1.200=0=0=1,
236.000=Heart4.avi=1.200=0=0=1,
238.000=heart6.avi=1.200=0=0=1,
240.000=GIRLFRIEND (Speedy Mix)-bg.png=1.000=0=0=1,
99999=-nosongbg-=1.000=0=0=0 // don't automatically add -songbackground-
;

//---------------dance-single - Basic----------------
#NOTES:
     dance-single:
     Basic:
     Easy:
     3:
     0.262,0.288,0.192,0.000,0.000:
1000
0000
1000
0000
,
0001
1000
0001
0000
,
0100
0000
0100
0000
,
0100
0010
0100
0000
,
0001
0000
0000
0010
,
0000
0001
1000
1000
,
0001
0000
0000
0100
,
0000
0001
1000
0001
,
0001
0000
0000
1000
,
1000
0000
0000
0001
,
0001
1000
1000
0001
,
0001
0000
0000
0000
,
1000
0000
0000
0000
,
1000
0000
0000
0000
,
0100
0000
0000
0000
,
0100
0000
0000
0000
,
0010
0000
0000
0000
,
0010
0000
0000
0000
,
0001
0000
0000
0000
,
0001
0001
0001
0001
,
1000
0000
0010
0000
,
0100
0010
0100
0100
,
0010
0000
0100
0000
,
0001
0100
0001
0001
,
0100
0000
0010
0000
,
1000
0001
1000
1000
,
0001
0000
1001
0000
,
1001
0001
1000
0001
,
1000
1000
0001
0000
,
0001
0100
0001
0000
,
0100
0100
0010
0000
,
1000
0010
1000
0000
,
0001
0001
1000
0000
,
1000
0100
1000
0000
,
0010
0000
0010
0000
,
1000
1000
1000
1000
,
0001
1000
1001
1001
,
0001
0000
1000
0000
,
0010
0100
0110
0110
,
0010
0000
0100
0000
,
0001
1000
1001
1001
,
0001
0000
1000
0000
,
0001
0000
1000
0000
,
0010
1000
0010
0000
,
1000
0001
1001
0110
,
0010
0000
0100
0000
,
0010
0100
0110
1001
,
0001
0000
1000
0000
,
0001
1000
1001
0110
,
0100
0000
0010
0000
,
1000
0000
0001
0000
,
1000
0000
0010
0010
,
0010
0000
0100
0000
,
0010
1000
0001
0000
,
0010
0000
0001
0000
,
1000
0010
0100
0000
,
1001
0000
0010
0000
,
1001
0000
0100
0000
,
1001
0000
0010
0000
,
0100
0010
0100
0000
,
1001
0000
0000
0000
;

//---------------dance-single - Trick----------------
#NOTES:
     dance-single:
     Trick:
     Medium:
     6:
     0.495,0.521,0.523,0.139,0.000:
0001
1000
0010
0000
,
0001
1000
0010
0000
0100
0001
1000
0000
,
0001
1000
0100
0000
,
0001
1000
0100
0000
0010
0001
1000
0000
,
0100
1000
0001
0011
,
0000
1000
1010
0100
,
0001
0010
0100
0101
,
0000
1000
1000
0010
,
1001
0010
0010
0010
,
1001
0010
0010
0010
,
1001
0010
1001
0010
,
1000
0001
1000
0001
0100
0001
0100
0001
,
2000
0000
0001
0000
,
0010
0000
0100
3100
,
0002
0000
1000
0000
,
0010
0000
0100
0103
,
0200
0000
0001
0000
,
1000
0000
0010
0310
,
0010
0000
0010
0000
,
0010
0100
0010
0100
0001
0100
0001
0100
,
0010
0000
1000
0001
0100
0000
0010
0000
,
1000
0001
0011
0001
,
1000
0000
0001
0100
0010
0000
0100
0000
,
0010
1000
1100
1000
,
0010
0000
1000
0001
0010
0000
0100
0000
,
1000
0000
0001
0000
0100
0010
1000
0000
,
1100
0000
1010
0000
,
1001
0011
1001
0101
,
0001
0010
0010
0001
,
1000
0000
0001
0010
0000
0010
0001
0000
,
1000
0100
0100
1000
,
0001
0000
1000
0100
0000
0100
1000
0000
,
0010
1000
1000
0010
,
0001
0000
1000
0010
0000
0010
1000
0000
,
0010
0001
0010
0001
,
1000
0010
1000
0010
0100
0010
0100
0000
,
1001
0011
0101
0011
,
1000
0100
1000
0000
0002
0000
0013
0000
,
1001
1100
1010
1100
,
0001
0010
0001
0000
2000
0000
3100
0000
,
1001
0110
1010
0101
,
1000
0010
1000
0000
0020
0000
0130
0000
,
0001
0010
0001
0000
1000
0100
1000
0000
,
0001
0010
0001
1000
0100
1000
0001
0000
,
1010
0011
0110
1010
,
0100
0001
0100
0000
0020
0000
1030
0000
,
1100
0101
0110
1100
,
0001
0010
0001
0000
2000
0000
3100
0000
,
0011
0101
1001
0011
,
0100
0010
0100
0000
0002
0000
1003
0000
,
0100
1000
0100
0000
0010
0001
0010
0000
,
0100
1000
0100
0010
0001
0010
0100
0000
,
1000
0000
1010
0000
1000
0001
0010
0000
,
0001
0011
0002
0103
,
0001
0000
0101
0000
0001
1000
0100
0000
,
1000
1100
2000
3010
,
1001
0000
0010
0000
1000
0001
0010
0000
,
0011
0000
0010
0000
0001
1000
0100
0000
,
1100
0000
1001
0000
,
0100
0010
0110
0000
,
2002
0000
0000
0000
,
3003
0000
0000
0000
;

//---------------dance-single - Maniac----------------
#NOTES:
     dance-single:
     Maniac:
     Hard:
     8:
     0.596,0.553,0.512,0.128,0.000:
1000
0100
0010
0000
0001
0010
0100
0000
,
1000
0100
1000
0001
0010
0001
1000
0000
,
0010
1000
0100
0000
0010
0001
0100
0000
,
0010
0100
0010
1000
0001
1000
0010
0000
,
0100
0001
0010
0000
0100
1000
0010
0000
,
0010
0100
1001
0010
,
0100
0010
1000
0000
0001
0100
0010
0000
,
0010
0100
1001
0010
,
1001
0000
0010
0100
0010
0000
0010
0000
,
1001
0000
0010
0100
0010
0000
0010
0000
,
1100
0010
0101
0010
,
1000
0100
0010
0001
0100
0010
1000
0001
,
0200
0000
0010
0010
,
0310
0100
0001
0000
0100
0000
1000
0000
,
0020
0000
1000
1000
,
0130
0010
1000
0000
0010
0000
1000
0000
,
0002
0000
0100
0100
,
0013
0001
0100
0000
0010
0000
0100
0000
,
2000
0000
0001
0001
,
3100
1000
0001
0100
0001
1000
0010
0100
,
0001
0000
1000
0100
0100
0000
1000
0001
,
0010
0001
0100
0000
0101
0000
0011
0000
,
0001
0000
0100
0010
0010
0000
1000
0001
,
0100
0001
1000
0000
1100
0000
1010
0000
,
0001
0000
1000
0001
0100
0000
1000
0001
,
0100
0010
0100
0000
0010
0000
0001
0000
,
0011
0000
1100
0000
,
0101
1010
1001
0110
,
1000
0010
1000
0010
0100
0001
0010
0000
,
0001
0010
0001
1000
0000
0001
1000
0000
,
0100
1000
0100
1000
0001
0100
0010
0000
,
0100
0010
1000
0100
0000
1000
0100
0000
,
0001
0100
0001
0100
0010
1000
0100
0000
,
1000
0001
0100
0010
0000
0100
0010
0000
,
1000
0001
0010
0000
0100
1000
0001
0000
,
1000
0100
0001
0100
1000
0100
0001
0000
,
0110
1010
0110
0011
,
1000
0100
0010
0001
0200
0000
0310
0000
,
1001
0011
1001
1010
,
0001
0100
0010
1000
0002
0000
1003
0000
,
0110
1100
0110
0101
,
1000
0010
0100
0001
2000
0000
3010
0000
,
0100
0001
0001
0000
1000
0010
0010
0000
,
0100
0010
1000
0100
0100
1000
0001
0000
,
1001
1010
1100
0101
,
0010
1000
0001
0100
0020
0000
1030
0000
,
0110
0101
0011
1010
,
0100
0001
1000
0010
0200
0000
0301
0000
,
1001
0011
0101
1100
,
0010
0001
1000
0100
0020
0000
0130
0000
,
0001
0010
0010
0000
0100
1000
1000
0000
,
0010
0100
0001
0100
0100
0010
0100
0000
,
0001
0100
0001
0100
0010
0100
0010
1000
,
0001
0100
0010
1000
0001
0000
1010
0000
,
0010
1000
0010
1000
0100
1000
0100
0010
,
0001
1000
0010
0100
0001
0000
0101
0000
,
1000
0100
0001
0100
1000
0100
0001
0100
,
1000
0010
0100
0001
1000
0000
0110
0000
,
1001
1000
0011
0001
,
1010
0100
0110
0001
,
2002
0000
0000
0000
,
3003
0000
0000
0000
;

//---------------dance-single - Beginner----------------
#NOTES:
     dance-single:
     Beginner:
     Beginner:
     2:
     0.209,0.288,0.160,0.000,0.000:
0010
0000
0010
0000
,
0010
0000
0000
0000
,
1000
0000
1000
0000
,
1000
0000
0000
0000
,
0001
0000
0000
0001
,
0000
1000
1000
0000
,
0010
0000
0000
0010
,
0000
0100
0100
0000
,
0001
0000
0000
1000
,
1000
0000
0000
0001
,
0001
1000
1000
0000
,
0001
0000
0000
0000
,
0001
0000
0000
0000
,
0000
0000
0000
0000
,
0100
0000
0000
0000
,
0000
0000
0000
0000
,
1000
0000
0000
0000
,
0000
0000
0000
0000
,
0010
0000
0000
0000
,
0001
0000
0000
0000
,
0001
0000
0000
0000
,
0001
0000
1000
1000
,
1000
0000
0000
0000
,
0010
0000
0100
0100
,
0100
0000
0000
0000
,
0001
0000
1000
1000
,
1000
0000
0001
0000
,
1000
0001
1000
0001
,
1000
0000
0010
0000
,
1000
1000
1000
0000
,
0001
0000
0100
0000
,
0001
0001
0001
0000
,
0100
0000
0010
0000
,
0100
0100
0100
0000
,
0001
0000
1000
0000
,
0001
0000
0000
0000
,
0001
1000
1001
1001
,
1000
0000
1000
0000
,
0010
0100
0110
0110
,
0010
0000
0010
0000
,
1000
0001
1001
1001
,
1000
0000
1000
0000
,
0010
0000
0010
0000
,
0010
0000
0000
0000
,
1000
0001
1001
1001
,
0001
0000
0001
0000
,
0100
0010
0110
0110
,
0010
0000
0010
0000
,
1000
0001
1001
1001
,
0001
0000
0001
0000
,
0100
0000
0100
0000
,
0100
0000
0000
0000
,
0010
0010
0000
0010
,
0000
0100
0100
0000
,
0001
0001
0000
0001
,
0000
1000
1000
0000
,
0001
0000
0000
0000
,
1000
0000
0000
0000
,
1001
0000
1000
0000
,
1001
0000
0001
0000
,
1001
0000
0000
0000
;

//---------------dance-double - ----------------
#NOTES:
     dance-double:
     :
     Hard:
     8:
     0.537,0.551,0.299,0.139,0.011:
00100000
10000000
00010000
00011000
,
00000100
00010000
00000100
00000000
00010000
00001000
00010000
00000000
,
00000100
00001000
00000010
00010010
,
00001000
00000100
00001000
00000000
00000001
00000010
00000001
00000000
,
00001100
00000000
00000001
00000010
00000001
00000100
00001000
00000000
,
00000000
00000000
00011000
00000000
00100000
01000000
00010000
10000000
,
01000000
00100000
00010000
01000000
00001000
00010000
00011000
00000000
,
00000000
00000000
00001100
00000000
00000010
00000100
00000001
00001000
,
00000100
00010000
00000010
00001000
00000100
00010000
00001000
00000000
,
01000000
00010000
10000000
00000000
00010000
00100000
01000000
00000000
,
00010000
00001000
00010000
00001000
00100000
00010000
00100000
00001000
,
00010000
00000100
00001000
00000010
00000100
00000001
00000010
00001000
,
00020000
00000000
00000000
00030000
,
00100000
00100000
10000000
01000000
,
00200000
00000000
00000000
00300000
,
00001000
00010000
00001000
00001000
,
00000020
00000000
00000000
00000030
,
00000001
00000000
00000100
00000000
00000010
00000000
00000000
00000001
,
00001000
00000000
00000000
00000100
00010000
00000000
00000000
00001000
,
01000000
00000000
00000000
00010000
10000000
00000000
00000000
00000000
,
10010000
00100000
01000000
00010000
,
10000000
10000000
00100000
01000000
00010000
00000000
01001000
00000000
,
00001000
00100000
00001000
00000100
,
00000010
00000010
00001000
00000100
00000010
00000000
00000011
00000000
,
00001000
00000000
00000100
00000010
00000100
00000000
00001000
00000000
,
00000001
00000100
00000010
00000000
00001000
00000100
00000010
00000000
,
00001000
01000000
00010000
00000000
00100000
01000000
10000000
00000000
,
11000000
00110000
00101000
00011000
,
00000100
00010000
00000100
00010000
00001000
01000000
00001000
01000000
,
00010000
00100000
01000000
10000000
00010000
00100000
01000000
00000000
,
00010000
00000100
00010000
00000100
00001000
00000010
00001000
00000010
,
00000100
00000001
00000010
00000100
00001000
00000001
00000100
00000000
,
00000010
00001000
00000010
00001000
00000100
00010000
00000100
00010000
,
00001000
00100000
00010000
10000000
01000000
00010000
00001000
00000000
,
00020000
00031000
00020000
00031000
,
00000010
00001000
00100000
00010000
,
00100000
20010000
00100000
30100000
,
10000000
01000000
00010000
01000000
00100000
00000000
00110000
00000000
,
00001000
00021000
00000100
00030100
,
00000010
00001000
00010000
00001000
00000100
00000000
00001100
00000000
,
00000010
00000201
00000010
00000310
,
00000100
00001000
00010000
00100000
10000000
00000000
10010000
00000000
,
00000000
00000000
00000000
00000000
,
10000000
00000000
00000000
00100000
00000000
00000000
10000000
00000000
01000000
00000000
00100000
00000000
00010000
00000000
00000000
00000000
,
00000010
00002001
00000100
00003100
,
00000010
00001000
00010000
00001000
00000100
00000000
00001010
00000000
,
00010000
00012000
00100000
00103000
,
00010000
01000000
00100000
10000000
01000000
00000000
11000000
00000000
,
00100000
10020000
01000000
01030000
,
00100000
00010000
00001000
00010000
01000000
00000000
01010000
00000000
,
00000000
00000000
00000000
00000000
,
00001000
00000000
00000000
00010000
00000000
00000000
00000100
00000000
00001000
00000000
00000100
00000000
00000010
00000000
00000000
00000000
,
00000001
00000010
00000001
00000000
00000100
00001000
00000100
00000000
,
00010000
00001000
00100000
00010000
10000000
00100000
01000000
00000000
,
00010000
00100000
00010000
00000000
01000000
10000000
01000000
00000000
,
00010000
00100000
00001000
00010000
00000010
00000100
00000001
00000000
,
00001000
00000010
00000100
00000000
00000001
00000100
00000010
00000000
,
00001000
00000010
00010000
00001000
00010000
01000000
10000000
00000000
,
00110000
01000000
00101000
00010000
,
00001000
00000100
00000010
00010000
00001000
00000100
00000010
00000000
,
00000202
00000000
00000000
00000303
;

//---------------dance-double - ----------------
#NOTES:
     dance-double:
     :
     Medium:
     6:
     0.450,0.486,0.277,0.171,0.000: // measure 1
01000000
00010000
10100000
10010000
,  // measure 2
00100000
01000000
00001000
00010000
,  // measure 3
00000100
00000010
00000011
00001001
,  // measure 4
00000010
00000000
00000100
00000000
00000001
00000100
00001000
00000000
,  // measure 5
00011000
00000000
00100000
00000000
01000000
00100000
10000000
00000000
,  // measure 6
00000000
00000000
00110000
00000000
00001000
00000000
00010000
00001000
,  // measure 7
00000100
00000000
00000001
00000000
00001000
00000100
00000010
00000000
,  // measure 8
00000000
00000000
00000110
00000000
00000001
00000000
00001000
00000100
,  // measure 9
00010000
00000000
00001000
00000000
00100000
00000000
00010000
01000000
,  // measure 10
00100000
00000000
10000000
00000000
01000000
00000000
00100000
00001000
,  // measure 11
00010000
00000000
00000100
00010000
00001000
00000000
00011000
00000000
,  // measure 12
00010100
00001010
00000202
00000303
,  // measure 13
00000010
00000000
00000010
00000000
00000001
00000100
00000001
00000000
,  // measure 14
00001000
00000100
00000010
00000000
,  // measure 15
00001000
00000000
00010000
00000000
00001000
00010000
00001000
00000000
,  // measure 16
00100000
00100000
00010000
01000000
,  // measure 17
00000000
00010000
10000000
01000000
,  // measure 18
00010000
00010000
00001000
00001000
,  // measure 19
00000200
00000300
00000020
00000030
,  // measure 20
00000002
00000003
00002000
00003000
,  // measure 21
00000001
00000001
00001000
00001010
,  // measure 22
00000001
00001000
00000001
00000000
00000100
00000000
00000100
00000000
,  // measure 23
00000010
00000010
00001000
00001010
,  // measure 24
00010000
00001000
00010000
00000000
01000000
00000000
01000000
00000000
,  // measure 25
00000000
00000000
10000000
00100000
01000000
00010000
10000000
00000000
,  // measure 26
01000000
10010000
00100000
01000000
,  // measure 27
00020000
00030000
00200000
00300000
,  // measure 28
02000000
03000000
20000000
30000000
,  // measure 29
00100000
00010000
01000000
00010000
,  // measure 30
00001000
00000010
00001000
00000100
,  // measure 31
00000010
00000001
00000100
00000000
00000010
00001000
00000100
00000000
,  // measure 32
00010000
00001000
00100000
00000000
00010000
01000000
00100000
00000000
,  // measure 33
10000000
00010000
01000000
00010000
,  // measure 34
00001000
00000100
00000010
00000001
,  // measure 35
00000200
00000000
00000300
00000000
,  // measure 36
00000001
00000010
00000001
00000010
00000001
00000010
00000001
00000000
,  // measure 37
00001000
00000110
00000001
00000110
,  // measure 38
00001000
00000100
00001000
00000000
00010000
00000000
01000000
00000000
,  // measure 39
00010000
01100000
10000000
01100000
,  // measure 40
00010000
00001000
00010000
00000000
00000100
00000000
00001000
00000000
,  // measure 41
00000010
00000101
00000010
00001100
,  // measure 42
00000010
00000001
00001000
00000000
00000001
00000000
00002000
00000000
,  // measure 43
00000000
00000000
00000000
00003000
,  // measure 44
00000020
00000000
00000130
00000000
00000001
00000010
00000100
00000000
,  // measure 45
00000010
00001100
00000010
00001100
,  // measure 46
00000001
00000010
00000100
00000000
00010000
00000000
00001000
00000000
,  // measure 47
00100000
01010000
00100000
01010000
,  // measure 48
10000000
00100000
01000000
00000000
00001000
00000000
00010000
00000000
,  // measure 49
00000100
00011000
01000000
00011000
,  // measure 50
00000010
00000001
00000100
00000000
00001000
00000000
00020000
00000000
,  // measure 51
00000000
00000000
00000000
00030000
,  // measure 52
00002000
00000000
00013000
00000000
00100000
10000000
01000000
00000000
,  // measure 53
10000000
00010000
10000000
00010000
,  // measure 54
01000000
00001000
00010000
00000000
00000100
00000010
00000001
00000000
,  // measure 55
00001000
00000001
00001000
00000001
,  // measure 56
00000010
00000100
00010000
00000000
00001000
01000000
00100000
00000000
,  // measure 57
10000000
01000000
00100000
00010000
,  // measure 58
01000000
00001000
00010000
00000000
00000100
00010000
00001000
00000000
,  // measure 59
00000010
00000001
00001000
00000100
,  // measure 60
00000010
00000001
00000100
00000000
00001000
00010000
01000000
00000000
,  // measure 61
20000000
00000000
00000000
30000000
;

//---------------dance-double - ----------------
#NOTES:
     dance-double:
     :
     Easy:
     4:
     0.323,0.324,0.213,0.085,0.000: // measure 1
00100000
10000000
10000000
00100000
,  // measure 2
01000000
00010000
00100000
00000000
,  // measure 3
00001000
00010000
00010000
00000100
,  // measure 4
00001000
00000010
00000100
00000000
,  // measure 5
00001001
00000000
00000000
00000010
,  // measure 6
00000000
00000010
00000000
00000000
,  // measure 7
00011000
00000000
00000000
00100000
,  // measure 8
00000000
00100000
00000000
00000000
,  // measure 9
10010000
00000000
00100000
00000000
,  // measure 10
00011000
00000000
00000010
00000000
,  // measure 11
00001100
00000000
00000011
00000000
,  // measure 12
00000001
00001000
00000100
00010000
,  // measure 13
00011000
00000000
00010000
00000000
,  // measure 14
00100000
00000000
00000000
00000000
,  // measure 15
10010000
00000000
10000000
00000000
,  // measure 16
01000000
00000000
00000000
00000000
,  // measure 17
00100000
00000000
00001000
00000000
,  // measure 18
00010000
00000000
00000100
00000010
,  // measure 19
00000010
00000000
00000000
00000000
,  // measure 20
00000001
00000000
00001000
00001000
,  // measure 21
00000010
00000100
00000010
00000000
,  // measure 22
00000001
00001000
00001001
00000110
,  // measure 23
00000000
00001000
00010000
00100000
,  // measure 24
10000000
01000000
10010000
01100000
,  // measure 25
00000000
10000000
00000000
10000000
,  // measure 26
00000000
00100000
00010000
00100000
,  // measure 27
00001000
00010000
00001000
00000100
,  // measure 28
00000010
00000100
00001000
00000000
,  // measure 29
00000010
00000010
00000010
00001000
,  // measure 30
00000100
00000010
00000001
00000000
,  // measure 31
00000100
00000100
00000100
00001000
,  // measure 32
00010000
01000000
10000000
00000000
,  // measure 33
00100000
00100000
00100000
10000000
,  // measure 34
01000000
00100000
00010000
00000000
,  // measure 35
10010000
00000000
00000000
00000000
,  // measure 36
00100000
00100000
10010000
10010000
,  // measure 37
01000000
01000000
02000000
03100000
,  // measure 38
10000000
00010000
00100000
00001000
,  // measure 39
00010000
00010000
00020000
00030100
,  // measure 40
00001000
00000010
00000100
00000001
,  // measure 41
00000010
00000010
00000020
00000031
,  // measure 42
00000100
00001000
00010000
00011000
,  // measure 43
00000000
01000000
00000000
00010000
,  // measure 44
10000000
00010000
10010000
00000000
,  // measure 45
00010000
00020000
10000000
10030000
,  // measure 46
00100000
00010000
00100000
00001000
,  // measure 47
00010000
00020000
00001000
00031000
,  // measure 48
00010000
00000100
00001000
00000010
,  // measure 49
00001000
00002000
00000001
00003001
,  // measure 50
00000100
00001000
00010000
10010000
,  // measure 51
00000000
00100000
00000000
01000000
,  // measure 52
00010000
01000000
01010000
00000000
,  // measure 53
10000000
01000000
10000000
00000000
,  // measure 54
00100000
00100000
01000000
00001000
,  // measure 55
00010000
00001000
00010000
00000000
,  // measure 56
00000100
00000100
00001000
00000100
,  // measure 57
00000010
00000001
00000010
00000000
,  // measure 58
00001000
00000001
00001000
00000000
,  // measure 59
00000100
00001000
00010000
01000000
,  // measure 60
00100000
10000000
00010000
00100000
,  // measure 61
20020000
00000000
00000000
30030000
