#TITLE:Funky sonic World;
#SUBTITLE:;
#ARTIST:Des-ROW feat.SHIGE;
#TITLETRANSLIT:;
#SUBTITLETRANSLIT:;
#ARTISTTRANSLIT:;
#CREDIT:;
#BANNER:Funky sonic World.png;
#BACKGROUND:Funky sonic World-bg.png;
#LYRICSPATH:;
#CDTITLE:Guitar Freaks 10th Mix & DrumMania 9th Mix.png;
#MUSIC:Funky sonic World.mp3;
#OFFSET:-1.880;
#SAMPLESTART:39.669;
#SAMPLELENGTH:12.000;
#SELECTABLE:YES;
#BPMS:0.000=200.000;
#STOPS:;
#BGCHANGES:;

//---------------dance-single - BASIC----------------
#NOTES:
     dance-single:
     BASIC:
     Easy:
     5:
     0.415,0.518,0.138,0.064,0.000:
0000
0000
0000
0000
,
0000
0000
0001
0000
,
1000
0000
0001
0000
,
1000
0000
0001
0000
,
1000
0000
0010
0000
,
0100
0000
0001
0000
,
1000
0000
0010
0000
,
0100
0000
0001
0000
,
1000
0000
0010
0000
,
1000
0000
0100
0000
,
0100
0000
0100
0000
,
0100
0000
0100
0000
,
0100
0000
0010
0010
,
0010
1001
0100
0100
,
0100
0000
0001
0001
,
0001
0000
1000
1000
,
1000
0000
0010
0010
,
0100
0000
0000
0000
0001
0010
0001
0000
,
1000
0000
0000
0000
1000
0100
1000
0000
,
0001
0000
0000
0000
0100
0010
0100
0000
,
0001
0000
1000
0000
,
0110
0000
0002
0000
,
0000
0000
0000
0000
,
0003
0000
2000
0000
,
0000
0000
0000
0000
,
3000
0000
0200
0000
,
0000
0000
0010
0000
,
0300
0000
1000
1000
,
1000
0001
0100
0100
,
0100
0010
1000
0001
,
0100
0010
1000
0001
,
1000
0001
0100
0000
0001
0000
0001
0000
,
0001
0001
0001
0001
,
0001
0000
0001
0000
1000
0010
1000
0000
,
0100
0010
0001
1000
,
0010
0000
0100
0000
0001
0010
0001
0000
,
1000
0010
0100
0001
,
1000
0010
0100
0100
,
0100
0100
0010
1001
,
0001
1000
0001
0000
1000
0000
1000
0000
,
1000
1000
1000
1000
,
1000
0000
1000
0000
0001
0100
0001
0000
,
0010
0100
1000
0001
,
0100
0000
0010
0000
1000
0100
1000
0000
,
0001
0000
0001
0000
0001
0100
0001
0000
,
1000
0000
1000
0000
1000
0001
1000
0000
,
0001
1000
0001
0000
1000
0000
0010
0000
,
1000
0000
1001
0000
0001
0100
0001
0000
,
1000
0010
1000
0000
0001
0100
0001
0000
,
1000
0100
1000
0000
0010
0000
0100
0000
,
0001
1000
2002
3003
,
0110
0000
1000
1000
,
0001
0001
0100
0100
,
0100
0100
0010
1000
,
0001
0100
0010
1000
,
0001
0100
2002
0000
,
0000
0000
0000
0000
,
0000
3003
0001
0001
,
1000
1000
0010
0010
,
0100
0100
1001
0000
,
0100
0000
1000
0000
,
0100
0000
0001
0000
,
0100
0000
1000
0000
,
0100
0000
0001
0001
,
0001
0000
0100
0000
,
1000
0000
0100
0000
,
0001
0000
0010
0000
,
1000
0000
0000
0000
0010
1000
0010
0000
,
1000
0000
1000
0000
0001
0100
0001
0000
,
0010
0010
0100
0100
,
1000
1000
0010
0100
,
0001
0000
1000
0000
0010
1000
0100
0000
,
1000
1000
0001
1001
,
0100
0010
0101
1001
,
0010
1000
0010
1000
,
0001
1000
0010
0000
0100
0001
0100
0000
,
0001
0000
0001
0000
1000
0010
1000
0000
,
0010
0010
0100
0100
,
0100
0100
0001
1000
,
0010
0000
0100
0000
0001
1000
0001
0000
,
1000
0001
1000
0000
0010
0000
0010
0000
,
0100
0001
1001
0000
,
0000
0000
0100
0010
,
1000
0000
0001
0000
1000
0100
0010
0000
,
0001
0010
0100
0000
1000
0001
0100
0000
,
0010
1000
0001
0000
1000
0001
1000
0000
,
0001
1000
0001
0000
1100
0000
0101
0000
,
1001
0000
0000
0000
;

//---------------dance-single - TRICK----------------
#NOTES:
     dance-single:
     TRICK:
     Medium:
     8:
     0.608,0.638,0.321,0.165,0.000:
0000
0000
0000
0000
,
0000
0000
0010
0010
,
0010
0010
1000
1000
,
1000
1000
0100
0100
,
0100
0100
0001
0001
,
0001
0001
0010
0010
,
0010
0010
1000
1000
,
1000
1000
0001
0001
,
0001
0001
0200
0320
,
2030
0000
3002
0000
1003
0100
0010
0000
,
0001
1000
0100
0000
0010
0001
1000
0000
,
0100
1000
0001
0000
0010
0100
1000
0000
,
0001
1000
0100
0000
1000
0001
1000
0001
,
1000
1001
0200
0300
,
1001
0010
1000
0001
,
0100
0010
1000
0100
,
0010
0001
1000
0010
,
2002
3003
0020
0030
,
1001
0100
1000
0010
,
0100
0001
0100
1000
,
0100
0000
0001
0000
1000
0000
0100
0010
,
0110
0000
0000
0000
0001
0000
0000
1000
,
0001
0000
0000
0000
0001
0000
0000
0001
,
1000
0000
0000
0000
0010
0000
0000
0100
,
0010
0000
0000
0000
0010
0000
0000
0100
,
0010
0000
0000
0000
0001
0000
0000
1000
,
0100
0000
0000
0000
0010
0000
0000
0001
,
1000
0000
0000
0000
0010
1000
0010
0000
,
0100
0001
0100
0000
0010
1000
0010
0000
,
0100
0001
0100
0000
0001
1000
0001
1000
,
0100
0010
0001
0000
1100
0000
0011
0000
,
1100
0011
0002
0000
,
0000
0000
0000
0100
,
1000
0000
0010
0000
1003
0010
1000
0000
,
0001
0100
0010
0000
1000
0100
0010
0000
,
0010
0000
0100
0000
0001
0010
0100
0000
,
1000
0100
0010
0000
0001
0000
1001
0000
,
1000
0000
1001
0000
0100
0001
0100
0000
,
0010
0100
0010
0101
,
0010
0010
0010
0000
2000
0000
0000
0000
,
0000
0000
0000
0001
,
0010
0000
3001
0100
0001
0000
0001
0001
,
1000
0000
0100
0100
0010
0000
1000
0000
,
0001
0010
0100
0000
1000
0010
1000
0010
,
1000
0010
1000
0010
0100
0001
0100
0001
,
0100
0001
0100
0001
1000
1000
1000
0000
,
0001
0001
0001
0000
0101
0000
1000
0000
,
1100
0000
1001
0000
0001
0100
0001
0100
,
0001
0100
0001
0100
0010
1000
0010
1000
,
0010
1000
0010
1000
0010
0000
0101
0000
,
0001
0000
1100
0000
0001
1000
0001
1000
,
2002
0000
3003
0000
1000
0001
1000
0000
,
0001
1000
0001
0000
0200
0310
1000
0000
,
0200
0310
0001
0000
1000
0001
0010
0000
,
0001
1000
0010
0000
1000
0001
0100
0000
,
0001
1000
0100
0000
2001
0000
3010
0000
,
1002
0103
0012
1003
,
2010
0000
3001
0000
0001
0010
0001
0000
,
1000
0100
1000
0000
0001
0010
0001
0000
,
1000
0100
1000
0000
0001
0000
0000
1000
,
0100
0000
0000
0000
0001
0000
0000
1000
,
0100
0000
0000
0000
1000
0000
0000
0001
,
0100
0000
0000
0000
1000
0000
0000
0001
,
0100
0000
0000
0000
0001
0000
0000
0100
,
0010
1000
0100
0000
,
1000
0000
0000
0100
0010
0000
0001
0000
,
1000
0000
0001
0000
0001
0010
0100
1000
,
0001
0000
0110
0000
0010
1000
0010
1000
,
0001
0100
0001
0100
0010
1000
0010
1000
,
0001
0100
0001
0000
0101
0000
0001
0000
,
1100
1000
0010
0010
,
0010
0000
0010
0000
1000
0001
1000
0000
,
0001
1000
0001
0000
0010
0000
1001
0000
,
0100
1001
0101
1001
,
1100
1001
0010
0010
,
0100
0100
0010
0000
1000
0001
1000
0001
,
1000
0001
1000
0001
0100
0010
0100
0010
,
0100
0010
0100
0010
1000
0000
0001
0000
,
0010
1000
0010
0001
,
0010
0000
0100
0000
1000
0100
0010
0000
,
1000
0100
0010
0000
0100
0010
1000
0000
,
0001
0000
0001
0000
0001
0000
0000
1100
,
0000
0000
0000
0000
0001
0010
0010
0000
,
1000
0010
0010
0000
0001
1000
0001
1000
,
0010
0100
0010
0100
0001
1000
0001
1000
,
0010
0100
0010
0100
0001
0001
1000
0000
,
1000
1000
0001
0000
0110
0000
1001
0000
,
1001
0000
0000
0000
;

//---------------dance-single - MANIAC----------------
#NOTES:
     dance-single:
     MANIAC:
     Hard:
     9:
     0.754,0.718,0.147,0.248,0.078: // measure 1
0000
0000
0000
0000
,  // measure 2
0000
0000
0000
0000
0010
0001
1000
0100
,  // measure 3
0010
0001
1000
0000
0001
0100
0010
1000
,  // measure 4
0001
0100
0010
0000
1000
0001
1000
0010
,  // measure 5
0100
0001
1000
0000
0010
0100
0001
1000
,  // measure 6
0100
0010
0001
0000
0010
0100
1000
0010
,  // measure 7
0100
0001
1000
0000
0100
0010
0001
0100
,  // measure 8
0010
1000
0001
0000
1000
0010
0100
0001
,  // measure 9
0010
0100
1000
0000
0100
0001
1000
0010
,  // measure 10
1000
0000
0001
0000
0010
0100
0010
0000
0001
0000
1000
0000
0010
0000
2000
0000
,  // measure 11
0000
3010
0000
0000
1000
0100
1000
0002
,  // measure 12
0000
1003
0000
0000
1000
0010
0100
0002
,  // measure 13
0000
0000
1003
0000
0000
0000
0010
0000
1000
0001
1000
0000
0001
1000
0000
0000
,  // measure 14
1001
0000
0000
0000
0010
1000
0010
1000
,  // measure 15
0001
0100
0001
0100
0001
0000
0002
0000
,  // measure 16
0203
0000
0320
0000
2030
0000
3100
0010
,  // measure 17
0001
1000
0010
0100
0001
0000
0010
0000
,  // measure 18
0001
0010
0100
1000
0020
0000
0000
0030
,  // measure 19
1000
0001
0100
0001
1000
0001
0100
0001
,  // measure 20
1000
0010
0100
0001
1000
0000
1000
0100
,  // measure 21
1000
0100
0010
0000
0001
0000
1000
0010
,  // measure 22
2000
0000
3000
0000
0001
0000
0000
0001
,  // measure 23
0010
0001
0010
0001
0000
0001
1000
0000
,  // measure 24
1000
0000
1000
0000
0010
0000
0000
0100
,  // measure 25
0010
0000
0000
0001
1000
0000
0100
0000
,  // measure 26
0010
0001
0000
0000
1000
0000
0000
0000
,  // measure 27
1000
0000
0000
1000
0000
0001
1000
0000
,  // measure 28
0001
0000
1001
0000
0010
1000
0100
0001
,  // measure 29
0100
1000
0010
0100
0001
1000
0100
0000
,  // measure 30
2000
0100
3100
0000
1001
0010
0100
0001
,  // measure 31
1000
1100
2002
3003
,  // measure 32
0110
0000
0000
0000
1000
0100
0010
0001
,  // measure 33
1000
0100
0010
0001
0100
0010
1000
0001
,  // measure 34
0100
0010
1000
0001
1000
0000
1000
0001
,  // measure 35
0000
0001
1000
0000
1000
0010
1000
0000
,  // measure 36
0001
0100
0001
0000
1000
0000
0100
0010
,  // measure 37
0100
0010
0001
0000
1000
0000
1000
0000
,  // measure 38
1000
0100
1001
1010
,  // measure 39
0100
0001
0000
0001
0100
0000
1001
0000
,  // measure 40
0001
1000
0001
0000
1000
0001
0000
0000
1000
0000
0010
0000
0100
0000
0001
0000
,  // measure 41
1000
0100
0010
0001
1000
0010
0100
0001
,  // measure 42
1000
0100
0010
0001
0001
0000
1000
0001
,  // measure 43
1000
0001
1000
0000
0010
0000
0010
0000
,  // measure 44
1000
0010
0100
0001
1000
0100
0010
0001
,  // measure 45
1000
0100
0001
1000
0010
0001
0100
0010
,  // measure 46
1000
0100
0010
0001
1000
0010
1000
0000
,  // measure 47
0001
0100
0001
0000
2000
0000
0000
0000
,  // measure 48
0020
0000
3030
0000
1000
0100
0010
0001
,  // measure 49
1000
0010
0100
0001
1000
0100
0010
0001
,  // measure 50
1000
0010
0100
0001
1000
0000
0001
0100
,  // measure 51
0001
0000
0000
0000
1100
0000
0000
0000
0001
1000
0001
0000
1000
0001
0000
0000
,  // measure 52
0110
0000
0000
0000
1001
0001
1000
0100
,  // measure 53
0001
1000
0010
0001
0100
0010
1000
0100
,  // measure 54
0010
0001
1000
0100
0001
0100
0001
0100
,  // measure 55
0001
0100
1000
0001
0100
1000
0100
1000
,  // measure 56
0100
0001
1000
0000
0002
0000
1003
0020
,  // measure 57
0000
0130
0002
0000
0013
0200
0000
1300
,  // measure 58
0010
0100
0001
1000
0001
0100
0010
0000
,  // measure 59
1000
0100
0010
0000
0001
0100
0010
0000
,  // measure 60
1000
0100
1000
0000
0001
1000
0000
0000
0001
0000
0000
0000
0001
0000
1000
0000
,  // measure 61
0100
0000
0100
1000
0000
0001
1000
0100
,  // measure 62
0000
0001
1000
0100
0000
0001
1000
0100
,  // measure 63
0000
0001
1000
0100
0000
0001
1000
0100
,  // measure 64
1000
0000
0001
1000
0100
0000
0010
0001
,  // measure 65
0000
0001
0010
0100
0000
0001
0010
0100
,  // measure 66
0000
0001
0010
0100
0000
0001
0010
0100
,  // measure 67
0000
0000
0001
0000
1000
0000
1000
0000
0001
1000
0001
1000
0001
1000
0000
0000
,  // measure 68
0220
0000
0330
0000
0001
0010
1000
0010
,  // measure 69
0001
1000
0100
0010
0001
0100
0010
1000
,  // measure 70
0100
0010
0001
0100
0010
0000
0010
1000
,  // measure 71
0000
1000
0010
0000
0100
0000
0001
0000
,  // measure 72
0100
0000
1000
0000
0100
0000
0001
1000
,  // measure 73
0000
1000
0001
0000
0010
0000
0100
0000
,  // measure 74
1000
0001
2000
3002
,  // measure 75
2003
3002
2003
3010
,  // measure 76
0001
0100
0001
0000
1000
0001
0000
0000
1000
0000
0100
0000
0001
0000
0100
0000
,  // measure 77
1000
0001
0010
0001
1000
0010
0100
0001
,  // measure 78
1000
0010
1000
0001
0100
0000
0001
1000
,  // measure 79
0000
1000
0001
0000
0010
0000
0001
0000
,  // measure 80
0001
0000
1000
0000
1000
0100
0010
0001
,  // measure 81
1000
0100
0010
0001
0100
0010
1000
0001
,  // measure 82
0100
0010
1000
0001
0100
0000
0100
0000
,  // measure 83
1001
0000
1001
0000
1000
1000
0001
0000
,  // measure 84
2002
0000
3003
0000
1000
0010
1000
0010
,  // measure 85
0100
0001
0100
0001
1000
0100
0010
0001
,  // measure 86
1000
0100
0001
0100
1000
0100
0001
0100
,  // measure 87
0010
0000
0100
0000
1000
0000
0001
0000
1000
0001
0000
0000
0001
1000
0000
0000
,  // measure 88
1000
0001
0000
0000
0000
0000
0000
0000
0000
0000
0000
0000
0000
0000
0000
0000
;

//---------------dance-double - MANIAC----------------
#NOTES:
     dance-double:
     MANIAC:
     Hard:
     9:
     0.753,0.678,0.165,0.220,0.060:
00000000
00000000
00000000
00000000
,
00000000
00000000
00000000
00000000
00100000
10000000
00100000
10000000
,
00010000
01000000
00010000
01000000
00001000
00010000
00001000
00010000
,
00000010
00001000
00000010
00001000
00000001
00000100
00000001
00000100
,
00000001
00001000
00000001
00001000
00000010
00001000
00000100
00010000
,
00001000
01000000
00001000
01000000
00010000
10000000
00100000
01000000
,
00001000
00010000
00001000
00010000
00000010
00001000
00000001
00000100
,
00000001
00001000
00000001
00001000
00000001
00000010
00000001
00000010
,
00000100
00001000
00000100
00001000
00010000
00100000
00010000
00100000
,
01000000
00000000
10000000
00000000
00100000
01000000
00100000
00000000
10000000
00000000
00000000
00000000
00010000
00000000
10000000
00000000
,
00000000
00100000
00000000
00000000
10000000
00000000
10000000
00010000
,
00000000
00100000
00000000
00000000
00001000
00000000
00010000
00000010
,
00000000
00000000
00001000
00000000
00000000
00000000
00000000
00000000
00000001
00000100
00000001
00000000
00001000
00000010
00000000
00000000
,
00000110
00000000
00000000
00000000
00000001
00000100
00000001
00000100
,
00001000
00010000
00001000
00010000
00001000
00000000
00010000
00000000
,
01000000
00000000
00100000
00000000
00010000
00000000
10000000
00100000
,
00010000
00100000
10000000
01000000
00010000
00000000
00001000
00000000
,
00010000
00000100
00000010
00000001
00000200
00000000
00000300
00000000
,
00000001
00001000
00000010
00001000
00000010
00000100
00000010
00000100
,
00001000
00010000
00001000
00010000
00001000
00000000
00001000
01000000
,
00000000
01000000
00001000
00000000
00100000
00000000
00010000
00100000
,
00220000
00000000
00330000
00000000
00010000
00000000
00000000
10000000
,
00100000
00000000
00100000
10000000
00000000
10000000
01000000
00000000
,
01000000
00000000
00010000
00000000
00010000
00000000
00000000
00010000
,
00001000
00000000
00000000
00001000
00010000
00000000
00001000
00000000
,
00000100
00000001
00000000
00000000
00000010
00000000
00000000
00000000
,
00001000
00000000
00000000
00010000
00000000
00010000
00001000
00000000
,
00010000
00000000
00100000
00000000
10000000
01000000
10000000
01000000
,
00010000
01000000
00010000
01000000
00010000
00001000
00010000
00000000
,
00000100
00010000
00000100
00010000
00001000
01000000
00001000
01000000
,
00010000
00100000
00001000
00000000
00022000
00000000
00033000
00000000
,
00011000
00000000
00000000
00000000
00001000
00010000
00001000
00010000
,
00001000
00000100
00000001
00000100
00000001
00001000
00000001
00001000
,
00000010
00000100
00000010
00000100
00000001
00000000
00001000
00000010
,
00000000
00000010
00001000
00000000
00000100
00000000
00010000
00000000
,
00010000
00000000
00001000
00000000
00010000
00000000
00010000
00100000
,
00000000
00100000
00010000
00000000
00100000
00000000
10000000
00000000
,
01000000
00010000
00011000
00110000
,
01000000
00010000
00000000
00010000
01000000
00000000
10010000
00000000
,
00010000
10000000
00010000
00000000
10000000
01000000
00000000
00000000
00010000
00000000
00001000
00000000
00010000
00000000
00001000
00000000
,
01000000
00010000
01000000
00010000
10000000
00100000
10000000
00100000
,
00010000
00001000
00010000
00001000
00010000
00000000
00010000
00001000
,
00000000
00001000
00000100
00000000
00000100
00000000
00000100
00000000
,
00000001
00001000
00000001
00001000
00000010
00000001
00000010
00000001
,
00000010
00001000
00000010
00001000
00000100
00010000
00000100
00010000
,
00001000
01000000
00001000
01000000
00001000
00010000
00001000
00000000
,
00010000
01000000
00010000
00000000
00001000
00001000
00010000
00010000
,
00001000
00001000
00010000
00010000
00000100
00000010
00000001
00001000
,
00000100
00000010
00000001
00000100
00001000
00010000
01000000
10000000
,
00010000
10000000
00010000
10000000
00100000
00000000
01000000
00010000
,
01000000
00000000
00000000
00000000
00011000
00000000
00000000
00000000
00010000
00001000
00010000
00000000
00001000
00010000
00000000
00000000
,
00022000
00000000
00033000
00000000
00001000
00000100
00000001
00000100
,
00001000
00000100
00000001
00000100
00001000
00010000
00001000
00010000
,
00001000
00100000
00001000
00100000
00001000
00010000
00001000
00100000
,
00010000
01000000
10000000
01000000
00010000
01000000
10000000
01000000
,
00010000
01000000
10000000
01000000
00010000
01000000
00000000
10000000
,
01000000
00000000
00010000
00001000
00000000
00000010
00000001
00000000
,
00000110
00000000
00000110
00000000
00000001
00000100
00001000
00000000
,
00010000
01000000
10000000
00000000
10000000
01000000
00010000
00000000
,
00001000
01000000
00001000
00000000
00010000
00001000
00000000
00000000
00010000
00000000
00000000
00000000
00001000
00000000
00000100
00000000
,
00001000
00000000
00010000
00001000
00000000
00001000
00001000
00002000
,
00000000
00013000
00010000
00020000
00000000
00031000
00001000
00002000
,
00000000
00013000
00010000
00020000
00000000
00031000
00001000
00001000
,
00010000
00000000
00001000
00000100
00000001
00000000
00001000
00000001
,
00000000
00001000
00001000
00002000
00000000
00003010
00000010
00000020
,
00000000
00000130
00000100
00000200
00000000
00001300
00001000
00002000
,
00000000
00000000
00013000
00000000
00100000
00000000
00100000
00000000
10000000
00010000
10000000
00010000
10000000
00000000
00000000
00000000
,
02200000
00000000
03300000
00000000
10000000
00100000
10000000
00100000
,
01000000
00010000
01000000
00100000
10000000
01000000
00100000
00010000
,
00001000
00000100
00001000
00000100
00000010
00000000
00000010
00000001
,
00000000
00000001
00000100
00000000
00000100
00000000
00001000
00000000
,
00010000
00000000
00100000
00000000
10000000
00000000
10000000
01000000
,
00000000
01000000
10000000
00000000
00100000
00000000
01000000
00000000
,
00010000
10000000
20000000
32000000
,
03020000
00032000
00003200
00000301
,
00000001
00001000
00000001
00000000
00001000
00000100
00000000
00000000
00010000
00000000
00001000
00000000
00010000
00000000
00001000
00000000
,
00100000
00010000
00100000
00010000
10000000
00100000
01000000
00010000
,
00100000
00001000
00010000
00000010
00001000
00000000
00001000
00000100
,
00000000
00000100
00001000
00000000
00000100
00000000
00010000
00000000
,
00001000
00000000
00100000
00000000
00010000
00100000
01000000
10000000
,
00010000
00100000
01000000
10000000
00010000
01000000
00100000
10000000
,
01000000
00100000
00001000
00010000
00000100
00000000
00000010
00000000
,
00010100
00000000
00011000
00000000
00010000
01000000
10000000
00000000
,
20020000
00000000
30030000
00000000
10000000
10000000
01000000
01000000
,
00100000
00100000
00001000
00001000
00010000
00010000
00000100
00000100
,
00000010
00000010
00000001
00000001
00001000
00001000
00000100
00000100
,
00010000
00001000
00100000
00010000
01010000
00000000
00110000
00000000
,
00011000
00000000
00000000
00000000
;

//---------------dance-double - TRICK----------------
#NOTES:
     dance-double:
     TRICK:
     Medium:
     8:
     0.529,0.598,0.376,0.110,0.000:
00000000
00000000
00000000
00000000
,
00000000
00000000
00100000
10000000
,
01000000
00010000
00001000
00001000
,
00000010
00000010
00000001
00000100
,
00001000
00010000
01000000
01000000
,
10000000
00000000
10000000
00000000
10000000
01000000
00100000
00000000
,
00001000
00010000
00000100
00000000
00001000
00000010
00000100
00000000
,
00000001
00001000
00000001
00000000
00001000
00000010
00000100
00000000
,
00000001
00000100
00001000
00000000
00001000
00000100
00000001
00000000
,
00001000
00000010
00001000
00000000
,
00001001
00000000
00000010
00000000
,
00000110
00000000
00001000
00000000
,
00001100
00000000
00000000
00000000
00000001
00000100
00000001
00000100
,
00000101
00000000
00001000
00001000
,
00001000
00001000
00100000
00100000
,
00100000
00100000
10000000
00010000
,
10000000
00010000
10000000
01000000
,
00010000
00001000
00000200
00000301
,
00000001
00000001
00001000
00000010
,
00001000
00000010
00010000
00001000
,
01000000
00000000
00010000
00000000
10100000
00000000
00100000
00100000
,
00200000
00300000
00000000
10000000
,
00000000
10000000
00000000
00100000
,
00000000
01000000
00000000
00010000
,
00000000
00001000
00000000
00000100
,
00000000
00000010
00000000
00000001
,
00001000
00000000
00011000
00000000
,
00001000
00000000
00000000
00000000
00010000
00001000
00010000
00000000
,
00001000
01000000
00010000
00000000
01000000
00010000
10000000
00000000
,
10010000
00100000
10010000
01000000
,
00010000
00001000
00022000
00033000
,
00011000
00000000
00000100
00001000
,
00000100
00001000
00000010
00000010
,
00000010
00000000
00000010
00000000
00000001
00000000
00001000
00001000
,
00000000
00000100
00000100
00000000
00010000
00000000
00001000
00000000
,
00100000
00000000
00010000
00000000
10000000
00000000
00100000
00100000
,
00000000
01000000
01000000
00000000
00010000
00000000
10000000
00000000
,
01000000
00010000
00001000
00001000
,
00001000
00001000
00001000
00011000
,
00001000
00000100
00000001
00000000
00001000
00000000
00000010
00000000
,
00001000
00000100
00010000
00001000
,
00100000
00000000
00010000
00000000
10010000
00000000
01000000
01000000
,
00000000
00001000
00001000
00000000
00010000
00000000
00010000
00000000
,
00000010
00001000
00000010
00000000
00000100
00000001
00000100
00000000
,
00000010
00001000
00000010
00000000
00010000
00001000
00010000
00000000
,
00001000
01000000
00001000
00000000
00011000
00000000
00011000
00000000
,
00010000
01000000
00010000
00000000
00011000
00000000
00011000
00000000
,
00001000
00000100
00001000
00000000
00010000
00000000
00011000
00000000
,
00000010
00000110
00000001
00001100
,
00010000
00011000
00100000
00110000
,
10000000
00000000
10010000
00000000
10000000
01000000
00010000
00000000
,
00022000
00033000
00001000
00001000
,
00001000
00001000
00000100
00000100
,
00000100
00000100
00000001
00000001
,
00000001
00000001
00001000
00001000
,
00001000
00000000
00001000
00000000
00010000
00010000
00000000
00001000
,
00001000
00000000
00100000
00100000
00000000
00010000
00010000
00000000
,
10010000
01000000
10000000
10000000
,
10010000
10010000
00100000
00100000
,
00011000
00011000
00010000
00001000
,
00000100
00000001
00000220
00000000
,
00000000
00000000
00000000
00000000
,
00000000
00000000
00000330
00000000
,
00000001
00000000
00000001
00001000
00000100
00000000
00010000
00001000
,
00022000
00000000
00000000
00000000
,
00000000
00000000
00000000
00033000
,
00010000
00000000
00001000
00000000
00100000
01000000
00100000
01000000
,
02200000
00000000
03300000
00000000
10000000
00100000
10000000
00000000
,
01000000
00000000
01000000
00000000
00010000
01000000
00100000
00000000
,
10000000
00000000
00000000
00000000
01100000
00000000
10000000
00010000
,
00000000
00010000
10000000
00000000
01000000
00000000
00010000
00000000
,
00001000
00100000
00010000
10000000
,
01000000
00100000
00010000
00001000
,
00000100
00000010
00000001
00000100
,
00001000
00010000
00001000
00000100
,
00000001
00001000
00000010
00000100
00000001
00000000
00001000
00000000
,
00010000
00001000
00000010
00000100
,
00000010
00000000
00000001
00000000
00000110
00000000
00001000
00000001
,
00000000
00000001
00001000
00000000
00000100
00000000
00010000
00000000
,
00001000
00000000
00100000
00000000
00010000
10000000
00010000
00000000
,
10000000
00100000
10000000
00000000
01000000
00010000
01000000
00000000
,
00010000
00001000
00010000
00000000
00000100
00001000
00000100
00000000
,
00010100
00011000
01010000
10010000
,
01100000
00000000
00000000
00000000
10000000
01000000
00100000
00010000
,
10000000
01000000
00100000
00010000
00001000
00000100
00000010
00000001
,
00001000
00000100
00000010
00000001
00000100
00000000
00000100
00000000
,
00001000
00001000
00011000
00010010
,
00011000
00000000
00000000
00000000
;

//---------------dance-double - BASIC----------------
#NOTES:
     dance-double:
     BASIC:
     Easy:
     5:
     0.348,0.479,0.220,0.083,0.000:
00000000
00000000
00000000
00000000
,
00000000
00000000
00010000
00000000
,
00010000
00000000
00010000
00000000
,
00010000
00000000
00001000
00000000
,
00001000
00000000
00001000
00000000
,
00001000
00000000
00000100
00000000
,
00000100
00000000
00000100
00000000
,
00000100
00000000
00000001
00000000
,
00000001
00000000
00000001
00000000
,
00000001
00000000
00000110
00000000
,
00000000
00000000
00001001
00000000
,
00000000
00000000
00011000
00000000
,
00000000
00000000
00001000
00001000
,
00001000
00000000
00010000
01000000
,
00010000
00000000
10000000
01000000
,
10000000
00000000
10000000
01000000
,
01000000
00000000
00100000
00100000
,
00010000
00000000
00010000
10000000
,
01000000
00000000
01000000
00010000
,
00001000
00000000
00010000
00001000
,
00000100
00000000
00000001
00000000
,
00000110
00000000
00000001
00000000
,
00000000
00000000
00000110
00000000
,
00000000
00000000
00000100
00000000
,
00000000
00000000
00011000
00000000
,
00000000
00000000
00001000
00000000
,
00000000
00000000
00110000
00000000
,
00000000
00000000
10000000
00000000
,
01000000
00000000
00010000
00000000
,
00001000
00000000
00011000
00000000
,
00011000
00000000
00002000
00003000
,
00002000
00003000
00010000
00010000
,
00010000
00010000
00010000
00010000
,
00010000
00010000
01000000
10000000
,
00010000
00100000
00010000
01000000
,
00001000
00000000
00010000
00000000
,
00000100
00000000
00001000
00000000
,
00000010
00000000
00000100
00000000
,
00000100
00000000
00001000
00000000
,
00001000
00010000
00001000
00000000
00100000
00000000
00100000
00000000
,
00100000
00100000
00100000
00100000
,
00100000
00100000
00010000
00000000
,
00000100
00000001
00001000
00000000
,
00000010
00000000
00000100
00000000
,
00001000
00000000
00010000
00000000
,
00100000
00100000
10010000
10010000
,
01000000
01000000
10010000
10010000
,
00100000
10000000
00100000
00100000
,
10010000
10010000
00100000
00100000
,
00010000
00010000
00000200
00000000
,
00000300
00000000
00002200
00003300
,
00000110
00000000
00000001
00000001
,
00000100
00000000
00000100
00000100
,
00000001
00000000
00000010
00000010
,
00001000
00000000
00100000
00100000
,
10000000
00000000
20020000
00000000
,
00000000
00000000
00000000
00000000
,
00000000
30030000
10000000
00000000
,
00010000
00000000
00100000
00000000
,
00001000
00000000
00000100
00000000
,
00000001
00000000
00000100
00000000
,
00001000
00000000
00010000
00000000
,
01000000
00000000
10000000
00000000
,
01000000
00000000
00010000
00001000
,
00000100
00000000
00000001
00000000
,
00001000
00000000
00000010
00000000
,
00010000
00000000
00001000
00000000
,
00100000
00000000
00010000
00010000
,
10000000
01000000
00010000
00010000
,
00001000
00001000
00000010
00000001
,
00000100
00000100
00001000
00000100
,
00010000
00000100
00001000
00000100
,
00010000
00001000
00100000
00010000
,
01000000
00100000
01100000
10010000
,
10000000
01000000
00010000
00001000
,
00000200
00000302
00000103
00000100
,
00001000
00001000
00001000
00001000
,
00100000
00100000
10000000
00010000
,
10000000
00100000
10000000
10000000
,
10000000
10000000
01000000
00010000
,
00001000
00000010
00000001
00000100
,
00001000
00010000
00011000
00000000
,
00000000
00000000
10000000
00010000
,
00010000
00010000
00001000
00001000
,
00001000
00000000
00000001
00000000
00001000
00000100
00000010
00000000
,
00000001
00000010
00000100
00000000
00000001
00000000
00001000
00000000
,
00010000
10000000
10010000
00101000
,
00011000
00000000
00000000
00000000
;

//---------------dance-single - BEGINNER----------------
#NOTES:
     dance-single:
     BEGINNER:
     Beginner:
     2:
     0.224,0.359,0.147,0.000,0.000:
0000
0000
0000
0000
,
0000
0000
0010
0000
,
0100
0000
0100
0000
,
0100
0000
0001
0000
,
1000
0000
1000
0000
,
1000
0000
1000
0000
,
0001
0000
0001
0000
,
0001
0000
0110
0000
,
0100
0000
0100
0000
,
0100
0000
0110
0000
,
0010
0000
0010
0000
,
0010
0000
0010
0000
,
0010
0000
1001
1001
,
1001
0000
0100
0000
,
0000
0000
0001
0000
,
0000
0000
1000
0000
,
0000
0000
0010
0000
,
0000
0000
0001
0000
,
0000
0000
1000
0000
,
0000
0000
0100
0000
,
0000
0000
1000
1000
,
0001
0000
0001
0000
,
0000
0000
0000
0000
,
0000
0000
0100
0000
,
0000
0000
0000
0000
,
0000
0000
0010
0000
,
0000
0000
0000
0000
,
0000
0000
1000
1000
,
1000
0000
0001
0001
,
0001
0000
1000
0000
,
0010
0000
0100
0000
,
0001
0000
1001
0000
,
0000
0000
0001
0000
,
0001
0000
1000
0000
,
0000
0000
1000
0000
,
1000
0000
0010
0000
,
0100
0000
0000
0000
,
0110
0000
0100
0000
,
0100
0000
0010
0000
,
0110
0000
1000
0000
,
0000
0000
1000
0000
,
1000
0000
0001
0001
,
0001
0000
1000
0000
,
0100
0000
1000
0000
,
0001
0000
0001
0000
,
1000
0000
0110
0000
,
0000
0000
1000
0000
,
1000
0000
0001
0000
,
0001
0000
0110
0000
,
0000
0000
0010
0000
,
0000
0000
0100
0000
,
1001
0000
1000
0000
,
0001
0000
0100
0000
,
0010
0000
1000
0000
,
0001
0000
0100
0000
,
0010
0000
1001
0000
,
0000
0000
0100
0000
,
0000
0000
0100
0000
,
0000
0000
0100
0000
,
1000
0000
0001
0000
,
1000
0000
0001
0000
,
0010
0000
0100
0000
,
0010
0000
0100
0000
,
1000
0000
0001
0000
,
0000
0000
0110
0000
,
0000
0000
1000
0000
,
0000
0000
0110
0000
,
0000
0000
0010
0010
,
1000
0000
0000
0000
,
0010
0000
0010
0000
,
1000
0000
0010
0000
,
0100
0000
0001
0000
,
1000
0000
0001
0000
,
1000
0000
0001
0000
,
0010
0000
1000
0000
,
0010
0010
0100
0000
,
0000
0000
0010
0000
,
0010
0000
1001
0000
,
0100
0000
0001
0000
,
0010
0000
0100
0000
,
1000
0000
0001
0000
,
0100
0000
0010
0000
,
0000
0000
1000
1000
,
1000
1000
0001
0001
,
0001
0001
0010
0100
,
1000
0001
0100
0010
,
1000
0001
0100
0100
,
1001
0000
0000
0000
;
