#TITLE:Femme Like U;
#SUBTITLE:;
#ARTIST:K-MARO;
#TITLETRANSLIT:;
#SUBTITLETRANSLIT:;
#ARTISTTRANSLIT:;
#CREDIT:;
#BANNER:Femme Like U-bn-big.png;
#BACKGROUND:Femme Like U-bg-big.png;
#LYRICSPATH:Femme Like U.lrc;
#CDTITLE:LA GOOD LIFE.png;
#MUSIC:Femme Like U.mp3;
#OFFSET:-1.066;
#SAMPLESTART:16.669;
#SAMPLELENGTH:12.000;
#SELECTABLE:YES;
#BPMS:0.000=117.000,160.000=58.500,164.000=117.000;
#STOPS:;
#BGCHANGES:-2.000=Femme Like U.avi=1.000=1=1=0
,195.000=Femme Like U-bg-big.png=0.500=1=0=1
;

//---------------dance-single - EXORBITANT----------------
#NOTES:
     dance-single:
     EXORBITANT:
     Hard:
     8:
     0.371,0.393,0.080,0.116,0.094: // measure 1
0000
0000
0000
0000
,  // measure 2
0000
0000
0000
0000
,  // measure 3
0000
0000
0000
0000
,  // measure 4
0000
0000
0000
0000
,  // measure 5
1000
0000
0000
0000
,  // measure 6
0000
0000
0000
0000
,  // measure 7
0001
0000
0000
0000
,  // measure 8
0010
0000
0001
0000
,  // measure 9
1000
0000
0000
0001
0000
0000
0010
0000
0100
0000
0000
1000
0000
0000
0010
0000
,  // measure 10
1000
0100
1000
0100
0001
0100
1000
0001
,  // measure 11
0010
0000
0000
0100
0000
0000
1000
0000
0010
0000
0000
0100
0000
0000
0001
0000
,  // measure 12
0000
0010
0001
0010
0100
1000
0100
1000
,  // measure 13
0010
0000
0100
0001
0010
0010
0100
0000
,  // measure 14
1000
0000
0000
0001
0000
1000
0000
0010
0000
0000
0001
0000
1000
0000
0001
0000
,  // measure 15
0100
0000
0010
1000
0100
0100
0010
0000
,  // measure 16
1002
0000
0010
0000
2003
0001
3001
0010
,  // measure 17
0100
0000
0000
1000
0000
0000
0010
0000
0100
0000
0000
0001
0000
0000
0010
0000
,  // measure 18
0100
1000
0100
1000
0010
1000
0100
0010
,  // measure 19
0001
0000
0000
0100
0000
0000
0010
0000
1000
0000
0000
0100
0000
0000
0010
0000
,  // measure 20
0000
0001
0100
0001
0010
0001
0010
0100
,  // measure 21
2000
0000
3010
0100
0002
0000
0013
0000
,  // measure 22
0100
0000
0000
1000
0000
0000
0010
0000
1000
0000
0001
0000
1000
0000
0100
0000
,  // measure 23
0020
0000
0031
0100
0020
0000
1030
0000
,  // measure 24
1200
0310
2002
3003
,  // measure 25
1100
0000
0010
0001
0010
0000
0001
1000
,  // measure 26
0001
0100
0010
1000
0100
0010
0001
0100
,  // measure 27
1000
0000
0100
0001
0010
0001
0010
0000
,  // measure 28
0100
1000
0100
1000
0010
0100
0001
0010
,  // measure 29
1000
0010
0001
0100
0010
0000
0100
0001
,  // measure 30
0010
1000
0010
0100
1000
0000
0010
0001
,  // measure 31
0100
1000
0100
1000
0100
0010
1000
0100
,  // measure 32
0001
0100
0001
0100
1000
0100
0010
0001
,  // measure 33
1001
0000
1000
0001
0010
1001
0101
0000
,  // measure 34
1000
0000
0001
1000
0010
1100
1001
0000
,  // measure 35
0001
0010
0010
0001
1000
0100
0100
1000
,  // measure 36
0010
1000
1000
0010
0100
0001
0001
0100
,  // measure 37
0010
0000
0000
1000
0000
0000
0100
0000
0010
0000
0001
0000
0010
0000
1000
0000
,  // measure 38
0010
0000
0000
0100
0000
0000
1000
0000
0010
0000
0100
0000
0010
0000
0000
0000
,  // measure 39
1000
0000
0000
0100
0000
0000
0010
0000
0001
0000
0000
0100
0000
0000
0010
0000
,  // measure 40
1000
0000
0000
0100
0000
0000
0000
0000
1000
0000
0010
0000
0100
0000
0001
0000
,  // measure 41
0000
0000
0000
0000
,  // measure 42
1000
0000
0000
0001
0000
0000
0010
0000
0100
0000
0000
1000
0000
0000
0010
0000
,  // measure 43
1000
0100
1000
0100
0001
0100
1000
0001
,  // measure 44
0010
0000
0000
0100
0000
0000
1000
0000
0010
0000
0000
0100
0000
0000
0001
0000
,  // measure 45
0010
0001
0010
0100
1000
0100
1000
0010
,  // measure 46
0002
0000
0013
1000
0200
0010
0310
0000
,  // measure 47
0001
1000
0001
0010
0100
1000
0010
1000
,  // measure 48
0200
0000
1300
0010
0001
0010
1000
0000
,  // measure 49
0200
0000
0010
0000
1300
0001
0001
0100
,  // measure 50
1000
0000
0000
0000
;

//---------------dance-single - ----------------
#NOTES:
     dance-single:
     :
     Medium:
     6:
     0.259,0.306,0.018,0.027,0.000:
0000
0000
0000
0000
,
0000
0000
0000
0000
,
0000
0000
0000
0000
,
0000
0000
0000
0000
,
0001
0000
0000
0000
,
0000
0000
0000
0000
,
1000
0000
0000
0000
,
0010
0000
0000
0000
,
0001
0000
1000
0000
0001
0100
0001
0000
,
1000
0000
0100
0000
0100
1000
0100
1000
,
0010
0100
0001
1000
,
0100
0000
0010
0000
0001
1000
0001
1000
,
0001
0000
0000
0000
1000
0100
1000
0000
,
0001
0000
0000
0000
1000
0010
1000
0000
,
0001
0000
0000
0000
1000
0100
1000
0000
,
0020
0000
1000
0000
0130
0001
0100
0001
,
0010
0000
0100
0000
1000
0001
1000
0000
,
0100
0000
0010
0000
0001
1000
0001
0010
,
0100
1000
0010
0100
,
0001
0010
0001
0000
1000
0100
1000
0010
,
1000
0000
0001
0100
0001
0000
0010
0000
,
0001
0000
1000
0000
0100
1000
0100
0000
,
1000
0000
0000
0000
0010
0100
0010
0000
,
0200
0000
0000
0000
0301
0010
0000
0000
,
1001
0000
0000
0000
1000
0001
0100
0000
,
0001
0000
0000
0000
0010
0010
0010
0000
,
0100
0000
0000
0000
1000
1000
1000
0000
,
0010
0000
0000
0000
0100
0100
0001
0000
,
0001
1000
0001
0000
0010
0000
0000
0000
,
0001
1000
0001
0000
0100
0000
0000
0000
,
0010
1000
0010
0000
1000
0100
1000
0000
,
0100
0010
0100
0000
0010
0001
0010
0000
,
1001
0000
0000
0000
0100
0010
0100
0000
,
0001
0000
0000
0000
0010
0100
0010
0000
,
0100
0000
0000
0000
1000
0001
1000
0000
,
0001
0010
0001
0000
0100
0001
0100
0000
,
0010
0010
1000
1000
,
0001
1000
0100
0000
,
0010
0010
0001
1000
,
0001
0000
0100
0000
0010
1000
0100
1000
,
0000
0000
0000
0000
,
0010
0000
1000
0000
0001
0100
0001
0000
,
1000
0000
0100
0000
0010
0001
0010
0001
,
0100
0001
0010
0100
,
1000
0000
0001
0000
1000
0100
1000
0100
,
0010
0000
0100
1000
0100
1000
0100
0000
,
1000
0000
0010
0100
0010
0100
0001
0000
,
0010
0000
0001
0100
0001
0100
0010
0000
,
2000
0000
0100
0000
3001
0010
0001
1000
,
0010
0000
0000
0000
;

//---------------dance-single - ----------------
#NOTES:
     dance-single:
     :
     Easy:
     3:
     0.171,0.219,0.036,0.027,0.000:
0000
0000
0000
0000
,
0000
0000
0000
0000
,
0000
0000
0000
0000
,
0000
0000
0000
0000
,
0001
0000
0000
0000
,
0000
0000
0000
0000
,
0010
0000
0000
0000
,
0100
0000
1000
0000
,
0001
0010
0010
0001
,
0100
0010
1000
0100
,
0010
0010
0001
0001
,
0000
0010
0001
0100
,
1000
0000
0100
0000
,
0001
0000
0100
0000
,
0001
0000
0010
0000
,
1000
0000
0010
0000
,
0001
1000
1000
0001
,
0100
0010
1000
0001
,
0010
0010
0100
0100
,
0000
0010
0001
0100
,
0020
0000
0130
0000
,
0010
1000
0100
0000
,
2000
0000
3001
0000
,
1000
0100
0020
0030
,
0001
0000
0001
0001
,
1000
0000
0010
0100
,
0001
0000
1000
1000
,
0001
0010
0001
0100
,
0010
0000
0100
0000
,
0010
0000
0100
0000
,
0010
0010
1000
0010
,
0100
0100
0001
0010
,
0100
0000
1001
0000
,
0010
0000
1001
0000
,
0100
0010
1001
0000
,
0010
0100
1001
1000
,
0100
0000
0100
0000
,
0010
0001
0001
0001
,
1000
0000
0000
0000
,
0010
1000
0010
0100
,
0000
0000
0000
0000
,
0001
0010
0010
0001
,
0100
0010
1000
0100
,
0010
0010
0001
0001
,
0010
0100
1000
0010
,
0100
0000
0001
0000
,
0100
0000
0010
1000
,
0100
0000
0010
0000
,
0100
1000
0010
0100
,
0001
0000
0000
0000
;

//---------------dance-single - ----------------
#NOTES:
     dance-single:
     :
     Beginner:
     1:
     0.075,0.151,0.000,0.000,0.000:
0000
0000
0000
0000
,
0000
0000
0000
0000
,
0000
0000
0000
0000
,
0000
0000
0000
0000
,
0100
0000
0000
0000
,
0000
0000
0000
0000
,
0010
0000
0000
0000
,
0000
0000
0000
0000
,
0001
0000
1000
0000
,
1000
0000
1000
0000
,
0010
0000
0000
0000
,
0100
0000
0001
0000
,
0001
0000
0000
0000
,
0010
0000
0000
0000
,
0100
0000
0000
0000
,
1000
0000
0000
0000
,
0010
0000
0000
0000
,
0100
0000
0000
0000
,
0001
0000
0000
0000
,
0010
0000
0000
0000
,
0001
0000
0000
0000
,
1000
0000
0000
0000
,
0100
0000
0000
0000
,
1000
0000
1000
0000
,
0010
0000
0000
0000
,
0100
0000
0000
0000
,
0001
0000
0000
0000
,
0010
0000
0000
0000
,
0100
0100
0100
0000
,
1000
1000
1000
0000
,
0010
0000
0000
0000
,
0100
0100
0100
0000
,
0001
0000
0000
0000
,
1000
0000
0000
0000
,
0100
0000
0000
0000
,
0010
0000
0001
0000
,
0001
0000
0000
0000
,
1000
0000
0000
0000
,
0010
0000
0010
0000
,
0100
0000
0001
0000
,
0000
0000
0000
0000
,
0010
0000
0000
0000
,
0100
0000
1000
0000
,
0010
0000
0000
0000
,
1000
0000
1000
0000
,
0001
0000
0000
0000
,
0010
0000
0010
0000
,
0100
0000
0000
0000
,
1000
0000
0010
0000
;
