#TITLE:Fascination MAXX;
#SUBTITLE:(Cally & Juice's Maxximum Overload Mix);
#ARTIST:100-200-400;
#TITLETRANSLIT:;
#SUBTITLETRANSLIT:;
#ARTISTTRANSLIT:;
#CREDIT:;
#BANNER:Fascination MAXX (Cally & Juice's Maxximum Overload Mix).png;
#BACKGROUND:Fascination MAXX (Cally & Juice's Maxximum Overload Mix)-bg.png;
#LYRICSPATH:;
#CDTITLE:Dance Dance Revolution SuperNOVA.png;
#MUSIC:Fascination MAXX (Cally & Juice's Maxximum Overload Mix).mp3;
#OFFSET:-4.727;
#SAMPLESTART:22.300;
#SAMPLELENGTH:11.980;
#SELECTABLE:YES;
#BPMS:0.000=299.904,8.000=149.952,12.000=299.904,18.000=149.954,22.000=299.908,30.000=149.954,34.000=299.908,42.000=149.954,56.000=299.908,60.000=149.954,89.000=299.908,93.000=149.954,105.000=299.908,113.000=149.954,145.000=74.977,157.000=149.954,181.000=299.908,197.000=149.954,261.000=400.003;
#STOPS:12.000=0.100
,12.500=0.100
,13.000=0.100
,13.500=0.100
,72.000=0.200
,72.500=0.200
;
#BGCHANGES:;

//---------------dance-single - Beginner----------------
#NOTES:
     dance-single:
     Beginner:
     Beginner:
     3:
     0.195,0.365,0.168,0.000,0.000:
1000
0000
1000
0000
,
1000
0000
0000
0000
,
1001
0000
0000
0000
,
0001
0001
0001
0000
,
0000
0000
1000
0000
,
0000
0000
1000
0000
,
1000
0000
1000
0000
,
0000
0000
0110
0000
,
0000
0000
0001
0000
,
0000
0000
0001
0000
,
0000
0000
1000
0000
,
1000
0000
0001
0000
,
0010
0000
0100
0000
,
1000
0000
0001
0000
,
1000
0000
1000
0000
,
1000
0000
0001
0000
,
0010
0000
0100
0000
,
0010
0000
0001
0000
,
1000
1000
1000
0000
0000
0000
0001
0000
,
0000
1000
0000
0010
,
0000
0100
0100
0100
,
0000
0010
0000
1000
,
0000
0001
0000
0001
,
0000
0001
0000
1000
,
0000
0010
0000
0100
,
0000
1000
0000
0001
,
0000
1001
0000
0000
,
0000
0001
0000
0000
,
0000
1001
0000
0010
,
0000
1000
0000
0001
,
1000
0001
0000
0010
,
0000
0100
0000
1000
,
1000
1000
0000
0001
,
0000
1000
0000
0010
,
0100
0010
0000
1000
,
0000
0001
0000
1000
,
0000
1001
0000
0000
,
0000
0001
1000
0001
,
1001
1000
0001
1000
,
1001
1001
1001
0000
0000
0000
0001
0000
,
0000
0010
0000
0100
,
0000
1000
0000
0001
,
0000
1000
0000
0001
,
0000
1001
0000
0001
,
0000
1000
0000
0001
,
0000
0010
0000
0000
,
0000
0010
0000
0000
,
0000
0010
0000
0000
,
0000
0000
0000
0000
,
0000
1001
0000
0001
,
0000
1000
0000
0100
,
0000
1000
0000
0001
,
0000
0010
0000
0100
,
0000
0110
0000
1000
,
0000
0001
0000
1001
,
0000
0001
0000
1000
,
0000
0001
0000
0001
,
0000
1000
0000
1000
,
0000
0010
0000
0010
,
0000
0100
0000
0100
,
0000
0001
0000
0001
,
0000
1000
0000
1000
,
0000
0001
0000
0001
,
0000
1001
0000
0001
,
0000
1001
0000
1001
,
1001
1001
0000
0000
;

//---------------dance-single - Basic----------------
#NOTES:
     dance-single:
     Basic:
     Easy:
     5:
     0.282,0.360,0.140,0.028,0.000:
1000
0000
1000
0000
,
1000
0000
1000
0000
,
1000
0000
0000
0000
,
0001
0001
0001
0000
,
0001
0000
1001
0000
,
0000
0000
1000
0000
,
0100
0000
1000
0000
,
0000
0000
1001
0000
,
0000
0000
0001
0000
,
0000
0000
1000
0000
,
0000
0000
0001
0001
,
0001
0001
1000
1000
,
1000
1000
0010
0010
,
0010
0010
0010
0000
,
0110
0000
1001
0000
,
0110
0100
0100
0100
,
1000
1000
1000
1000
,
0001
0001
0001
0001
,
1001
0110
1001
0000
0000
0000
0001
0000
,
1000
0001
0000
0010
,
0100
1000
0000
1000
,
0010
0100
0000
0001
,
0000
1001
0000
1001
,
0000
1001
0000
0001
,
0000
1000
0001
1000
,
0000
0100
0000
1000
,
0000
0001
0000
0001
,
0000
0001
0000
0001
,
0000
1000
0000
0100
,
0000
1000
0000
0001
,
0010
0001
0000
1000
,
0000
0100
0000
0001
,
0001
1000
0000
1000
,
0000
0100
0000
0010
,
0000
0100
1000
0001
,
0100
0001
1000
0100
,
1000
2002
0000
0000
,
0000
3003
0100
0000
1000
0000
0001
0000
,
1001
0100
1001
0010
,
0001
1000
1000
1000
,
0000
0010
0010
0010
,
0000
0100
0100
0100
,
0000
0001
0001
0001
,
0000
1000
0001
1000
,
0100
0010
0100
1000
,
0001
0100
0000
0001
,
0000
1000
0000
0000
,
0000
0001
0000
0000
,
0000
1001
0000
0000
,
0000
0001
1000
0100
,
1000
0001
0100
0001
,
1000
0100
0010
0100
,
1000
0001
0100
0001
,
1000
0010
1000
0100
,
1000
0001
0100
0001
,
1000
0001
1000
0100
,
0010
0100
1000
0001
,
0100
0001
1000
0100
,
1000
0001
0010
0100
,
1000
0001
0100
0001
,
1000
0010
1000
0100
,
1000
0001
0100
0001
,
1000
0100
0010
0100
,
1000
0001
0100
0001
,
1000
0000
0100
1000
0100
1000
0100
1000
,
0100
1000
0200
0000
0000
0000
0000
0000
,
0000
0000
0000
0000
,
0000
0000
0000
0000
,
0000
0000
0000
0000
,
0000
0000
0000
0000
,
0000
0300
0000
0000
;

//---------------dance-single - Trick----------------
#NOTES:
     dance-single:
     Trick:
     Medium:
     9:
     0.617,0.688,0.420,0.028,0.247:
1000
0100
1000
0001
,
1000
0000
0100
0000
0010
0000
0100
1000
,
0100
0000
0000
0000
,
0001
0100
0001
1000
0100
0000
0010
0000
,
0100
1000
0001
0000
,
0000
0000
0001
0100
,
0001
0010
0100
1000
,
0100
0000
1000
0100
1000
0000
0000
0000
,
0000
0000
0001
1000
,
0100
0010
0100
1000
,
0100
1000
0100
1000
0100
0000
0001
0000
,
0010
0100
1000
0001
0100
0001
0010
0001
,
0100
0001
1000
0000
0100
0010
0100
0000
,
1000
0100
1000
0000
0001
0100
0001
0000
,
1000
0001
1000
0001
1000
0001
1000
0000
,
1001
0000
0100
0000
0010
0100
1000
0001
,
0100
0001
0010
0000
0001
0100
0001
1000
,
0100
0010
0100
0000
1000
0001
0100
0001
,
1001
1100
1001
0101
0000
1001
0100
0000
,
0001
0000
0010
0100
1000
0001
0100
0001
,
0010
0000
0001
0010
0100
1000
0100
0010
,
0100
0000
0010
0001
0100
0001
1000
0001
,
0100
0001
1000
0100
,
1000
0001
1000
0000
0001
0000
0010
0100
,
1000
0100
0010
0001
0100
0000
0001
1000
,
0100
0000
0010
0100
1000
0000
0001
0100
,
0001
0000
1000
0100
1000
0100
1000
0100
,
1000
0100
1000
0100
1000
0100
1000
0100
,
1000
0100
1100
0000
1000
0000
0001
0010
,
0100
1000
0001
0000
1001
0000
0010
0100
,
0010
0100
1000
0000
1001
0000
0100
0010
,
0100
0000
0010
1000
0010
0000
1000
0100
,
0010
0100
1001
0000
0101
0000
1000
0100
,
0010
0100
1100
0000
1001
0000
0100
0001
,
0010
0011
0101
1001
,
1100
0000
0000
0000
1000
0100
1000
0000
0100
1000
0100
0000
1000
0100
0010
0001
,
0010
0100
1000
0100
0020
0000
0000
0000
0000
0000
0000
0000
0000
0000
0000
0000
,
0000
0000
0000
0000
1030
0000
0000
0100
0000
1000
0000
0001
0000
0000
1000
0000
,
0100
0000
0000
0000
1001
0000
0000
0001
0000
1000
0000
0001
0000
0000
1000
0100
,
0000
1000
0000
0000
1001
0000
0000
0000
0110
0000
0000
0000
0000
0000
0000
0000
1001
0000
0000
0000
0000
0000
0000
0000
1000
0000
0100
0000
1000
0000
0000
0000
,
0001
0000
1000
0000
0001
0000
0000
0000
0100
0000
0000
0000
0001
0100
0001
0000
,
0010
0000
0100
0000
1000
0000
0000
0000
0001
0000
0000
0000
0010
0001
0010
0000
,
0001
0000
0100
0000
0001
0000
0000
0000
1000
0000
0000
0000
1000
0100
1000
0000
,
0100
0000
0010
0000
0100
0000
0000
0000
1000
0000
0000
0000
0001
0100
0001
0000
,
0010
0000
0100
0000
1000
0000
0000
0000
0010
0000
0000
0000
1000
0001
1000
0000
,
0001
0010
0100
0000
1100
0000
1001
0000
,
1001
0101
0101
0000
,
1001
1001
0000
0110
,
0110
1001
1001
0011
,
0011
0000
0000
0000
1001
0000
0000
0000
0110
0000
0000
0000
0100
1000
0000
0100
,
1000
0000
0001
0010
0001
0000
0000
0000
1001
0000
0000
0000
1000
0001
0000
0001
,
1000
0000
0001
1000
0001
0000
0000
0000
1001
0000
0000
0000
0010
0100
0000
0100
,
0010
0000
0100
0010
0100
0000
0000
0000
0011
0000
0000
0000
0001
0010
0000
0010
,
0001
0000
0001
0010
0001
0000
0000
0000
0110
0000
0000
0000
0100
1000
0000
0100
,
1000
0000
0001
0010
0001
0000
0000
0000
1001
0000
0000
0000
1000
0001
0000
0001
,
1000
0000
0001
1000
0001
0000
0000
0000
1001
0000
0000
0000
0010
0100
0000
0100
,
0010
0000
0100
0010
0100
0000
0000
0000
0011
0000
0000
0000
0001
0010
0000
0010
,
0001
0000
0001
0010
0100
0000
0000
0000
1100
0000
0000
0000
0100
0000
0010
0000
,
0100
1000
0001
0100
0001
0010
0001
0100
,
0001
0010
0100
0010
1000
0010
0001
0100
,
1000
0100
0001
0010
0100
1000
0001
0100
,
0001
0010
0001
0100
0001
0010
0100
1000
,
0010
1000
0100
0010
0100
1000
0001
0100
,
0001
1000
0100
1000
0100
1000
0100
1000
,
0100
0000
1000
0100
1000
0100
1000
0100
1000
0100
1000
0100
1000
0100
1000
0100
,
1000
0100
1000
0100
2200
0000
0000
0000
0000
0000
0000
0000
0000
0000
0000
0000
,
0000
0000
0000
0000
,
0000
0000
0000
0000
,
0000
0000
0000
0000
,
0000
0000
0000
0000
,
0000
3300
0000
0000
;

//---------------dance-single - Maniac----------------
#NOTES:
     dance-single:
     Maniac:
     Hard:
     10:
     0.767,0.786,0.345,0.028,0.424: // measure 1
0001
0010
0100
1000
0100
0010
0001
0010
,  // measure 2
0001
0100
0001
0010
0001
1000
0001
1000
,  // measure 3
0100
0000
1000
0000
0100
0000
1000
0100
0000
1100
0000
0000
1000
0000
0100
1000
,  // measure 4
0100
1000
0001
0100
0010
0000
0010
1000
,  // measure 5
0000
0000
1000
0000
0100
0000
0000
0000
1010
0000
0000
0000
1000
0000
0001
0100
,  // measure 6
0000
0101
0000
0000
0001
0000
1000
0100
1000
0000
0100
0000
1000
0000
0001
0000
,  // measure 7
1000
0100
0010
0001
0100
0010
1000
0100
,  // measure 8
0010
0000
0001
0000
0100
0000
0010
0000
1000
0000
0100
0000
1100
0000
0010
0001
,  // measure 9
0000
0011
0000
0000
0001
0000
0010
0000
0001
0000
0010
0000
0001
0000
0010
0000
,  // measure 10
0100
1000
0100
0010
0001
0010
0100
1000
,  // measure 11
0100
0010
0001
1000
0100
0000
1001
0000
,  // measure 12
0010
0001
0010
0000
0001
0000
0010
0001
0010
0000
0000
0000
1001
0000
0000
0000
,  // measure 13
0100
1000
0100
0000
1000
0000
0001
0010
0001
0000
0000
0000
0101
0000
0000
0000
,  // measure 14
1000
0100
1000
0000
0100
0000
0010
0100
0010
0000
0000
0000
0110
0000
0000
0000
,  // measure 15
0001
0000
1000
0001
0000
0001
1000
0000
,  // measure 16
0110
0000
0000
0000
1100
0000
0000
0000
0010
0001
0010
0000
0001
0000
0100
0010
,  // measure 17
0100
0000
0000
0000
0110
0000
0000
0000
0010
1000
0010
0000
1000
0000
0100
0010
,  // measure 18
0100
0000
0000
0000
0110
0000
0000
0000
0100
0010
0100
0000
0010
0000
0100
1000
,  // measure 19
1100
1010
1001
0011
0000
0110
1001
0000
,  // measure 20
0100
0000
0000
0000
1000
0100
1000
0100
1000
0000
0100
0010
0100
0000
0000
0000
,  // measure 21
0110
0000
0000
0000
0010
0100
0010
0100
0010
0000
0100
0010
0100
0000
0000
0000
,  // measure 22
1100
0000
0000
0000
1000
0100
1000
0100
1000
0000
1000
0010
1000
0000
0000
0000
,  // measure 23
1001
0000
1000
0001
0000
0001
1000
0000
,  // measure 24
0010
0000
0100
0000
0010
0000
0000
0000
0110
0000
0000
0000
0001
0010
0100
1000
,  // measure 25
0100
0000
0010
0001
0010
0000
0000
0000
0011
0000
0000
0000
0001
0100
0001
1000
,  // measure 26
0001
0000
0001
0010
0100
0000
0000
0000
0110
0000
0000
0000
1000
0100
0010
0100
,  // measure 27
1000
0000
0100
1000
0100
0000
0010
0000
0100
0000
0010
0000
0001
0000
0010
0000
,  // measure 28
0001
0010
0100
1000
0100
1000
0001
0000
,  // measure 29
1001
0000
0110
0000
0001
0010
0100
1000
,  // measure 30
0100
0010
0100
1000
0001
0100
0001
1000
,  // measure 31
0100
1000
0001
0010
0001
0100
0010
1000
,  // measure 32
0100
0010
0100
1000
0001
0100
0001
0010
,  // measure 33
0001
0100
0001
0000
0100
0000
0001
0000
0010
0000
0100
0000
1000
0000
0001
0000
,  // measure 34
0100
0010
1000
0100
0010
0100
1000
0010
,  // measure 35
0100
0010
0001
0010
1000
0100
0010
0100
,  // measure 36
1000
0000
0100
0000
1000
0001
1000
0000
1000
0001
1000
0000
0100
1000
0100
0010
,  // measure 37
0001
0010
0100
1000
1002
0000
0000
0000
0000
0000
0000
0000
0000
0000
0000
0000
,  // measure 38
0000
0000
0000
0000
1003
0000
0100
1000
0000
0100
0000
1000
0000
0001
0100
0000
,  // measure 39
0001
0000
0010
0000
0100
0000
1000
0001
0000
0100
0000
0010
0000
0000
1000
0100
,  // measure 40
0000
1000
0000
0000
1001
0000
0000
0000
0100
0000
0000
0000
0010
0000
0000
0000
0100
0000
0000
0000
1000
0000
0000
0000
0001
0000
0000
0000
0100
0000
0000
0000
,  // measure 41
0001
0100
0001
0000
0010
0000
0100
0000
1000
0000
0100
0000
0010
0000
0100
0000
,  // measure 42
1000
0100
1000
0000
0001
0000
0100
0000
0001
0000
0010
0000
0001
0000
0100
0000
,  // measure 43
0001
0100
0001
0000
1000
0000
0100
0000
1000
0100
1000
0000
0100
0000
0010
0000
,  // measure 44
0100
0010
0100
0000
1000
0000
0001
0000
0100
0000
0001
0000
0010
0000
0001
0000
,  // measure 45
0100
0001
0100
0000
0001
0000
0010
0000
0100
0000
1000
0000
0010
0000
1000
0000
,  // measure 46
0010
1000
0010
0000
1000
0000
0000
0000
0100
0000
0000
0000
0010
0000
0000
0000
,  // measure 47
0100
1000
0001
0000
,  // measure 48
0100
0000
0001
0000
0000
0000
1000
0100
,  // measure 49
1000
0100
1000
0000
0100
0010
0100
0000
,  // measure 50
0000
0000
0001
0100
0001
0100
0001
0010
,  // measure 51
0001
0100
0001
0000
0010
0000
0100
0000
1000
0000
0010
1000
0010
0000
1000
0100
,  // measure 52
1000
0000
0100
0000
0010
0000
0001
0000
1000
0000
0001
0000
0100
0000
0001
0100
,  // measure 53
0001
0000
1000
0000
0100
0000
0010
0100
0010
0000
0100
1000
0100
0000
1000
0001
,  // measure 54
0100
0000
0010
0000
0100
0000
0001
0000
1000
0000
0001
0000
1000
0001
1000
0000
,  // measure 55
0001
0000
0100
0000
0010
0100
0010
0000
0100
0000
0001
0000
1000
0001
1000
0000
,  // measure 56
0011
0000
0100
0000
1000
0000
0010
0000
0100
0000
0010
0000
1000
0010
1000
0000
,  // measure 57
0100
0000
0010
0000
0100
1000
0100
0000
1000
0000
0001
0000
1000
0001
1000
0000
,  // measure 58
1100
0010
0110
0000
1000
0001
0010
0100
,  // measure 59
1000
0100
1000
0000
0001
0000
0010
0000
0001
0010
0001
0000
0100
0000
0001
0000
,  // measure 60
1000
0001
1000
0000
0010
0000
0100
0000
1000
0100
1000
0000
0001
0000
0100
0000
,  // measure 61
0001
0100
0001
0000
0010
0000
0100
0000
0010
0100
0010
0000
0001
0000
1000
0000
,  // measure 62
0001
1000
0001
0000
0100
0000
0001
0000
0010
0001
0010
0000
0001
0000
0100
0000
,  // measure 63
0010
1000
0010
0000
1000
0000
0100
0000
0010
0100
0010
0000
0001
0000
0100
0000
,  // measure 64
0001
0100
0001
0000
1001
0000
1000
0000
0101
0000
0100
0000
0011
0000
0010
0000
,  // measure 65
0101
0000
0100
0000
0001
0100
0001
0000
1000
0100
1000
0000
0100
0010
0100
1000
,  // measure 66
0001
0100
0010
0100
0220
0000
0000
0000
0000
0000
0000
0000
0000
0000
0000
0000
,  // measure 67
0000
0000
0000
0000
,  // measure 68
0000
0000
0000
0000
,  // measure 69
0000
0000
0000
0000
,  // measure 70
0000
0000
0000
0000
,  // measure 71
0000
0330
0000
0000
;
