#TITLE:EVERYBODY 2 THE SUN;
#SUBTITLE:(Scorccio Radio Mix);
#ARTIST:ULTIMATE HEIGHTS;
#TITLETRANSLIT:;
#SUBTITLETRANSLIT:;
#ARTISTTRANSLIT:;
#CREDIT:;
#BANNER:EVERYBODY 2 THE SUN (Scorccio Radio Mix).png;
#BACKGROUND:EVERYBODY 2 THE SUN (Scorccio Radio Mix)-bg.png;
#LYRICSPATH:;
#CDTITLE:Dance Mania EX 0.png;
#MUSIC:EVERYBODY 2 THE SUN (Scorccio Radio Mix).mp3;
#OFFSET:-7.838;
#SAMPLESTART:60.636;
#SAMPLELENGTH:12.000;
#SELECTABLE:YES;
#BPMS:0.000=127.203;
#STOPS:;
#BGCHANGES:;

//---------------dance-single - Basic----------------
#NOTES:
     dance-single:
     Basic:
     Easy:
     3:
     0.218,0.255,0.046,0.000,0.000:
1000
0000
0000
0000
,
0001
0000
0000
0000
,
0100
0000
0000
0000
,
0010
0100
0010
0100
,
0010
0010
0100
0000
,
0001
0001
1000
0000
,
1000
1000
0001
0000
,
0100
0100
0010
0000
,
1000
0001
1000
0000
,
1000
0010
1000
0000
,
0001
1000
0001
0000
,
0001
0100
0001
0000
,
0100
0000
0010
0010
,
0100
0000
0100
0100
,
0010
0000
1000
1000
,
0100
0000
0010
0010
,
0001
0000
1000
0010
,
1000
0000
1000
0000
,
0001
0001
1000
1000
,
0001
1000
0001
1000
,
1001
0000
0010
0010
,
0100
0100
0010
0100
,
0110
0000
1000
0001
,
1000
0010
0100
0010
,
1000
1000
0001
1001
,
0001
0001
1000
1001
,
0100
0001
1000
0010
,
0100
0100
0010
0010
,
1000
1000
0001
1000
,
0010
0010
0100
0010
,
1000
1000
0100
1000
,
0001
0001
0010
0001
,
1000
0000
0010
0100
,
0001
0000
0100
0010
,
1000
0000
1000
0100
,
0001
0000
0001
0010
,
1000
0000
0010
0010
,
0010
0000
0100
0100
,
0100
0000
0010
0010
,
1000
0001
1000
0001
,
1000
0000
0000
0000;

//---------------dance-single - Trick----------------
#NOTES:
     dance-single:
     Trick:
     Medium:
     6:
     0.399,0.371,0.382,0.046,0.000:
0100
0000
0000
0000
,
0001
0000
0000
0000
,
1000
0000
0000
0000
,
0100
1001
0100
1001
,
0110
0000
1000
0000
0001
1000
0001
0000
,
0110
0000
0001
0000
1000
0001
1000
0000
,
0110
0000
1000
0000
0010
0100
0010
0000
,
0110
0000
0001
0000
0100
0010
0100
0000
,
1001
0000
0100
0000
0010
1000
0001
0000
,
1001
0000
0100
0000
0010
1000
0001
0000
,
1001
0000
0010
0000
0100
0001
1000
0000
,
0110
1001
0110
1001
,
1001
0000
0100
0000
0010
0010
0010
0000
,
0100
0000
0001
0000
1000
1000
1000
0000
,
1001
0100
1001
0100
,
0001
1000
0001
0000
0100
0010
0100
0000
,
0010
0010
0010
0000
1000
0000
0001
0000
,
0110
0000
1001
0000
0100
0010
0100
0000
,
0001
0010
0100
0000
0010
1000
0001
0000
,
0100
0100
0010
0000
1000
1000
0001
0000
,
2001
0000
3001
0000
1000
0001
1000
0000
,
1002
0000
1003
0000
0001
1000
0001
0000
,
0210
0000
0310
0000
0100
0010
1000
0000
,
0120
0000
0130
0000
0010
0100
0001
0000
,
1000
0100
0001
1001
,
1000
0100
0001
1001
,
1000
0100
1000
0000
0001
0100
0001
0000
,
1100
0011
1100
0011
,
1000
0100
0010
0100
1000
0001
1000
0000
,
0001
0010
0100
0010
0001
1000
0001
0000
,
1000
0010
0100
0010
0100
0001
1000
0000
,
0001
0100
0010
0100
0010
1000
0001
0000
,
1000
0100
1000
0000
0001
0100
0001
0000
,
1000
0100
1000
0001
0100
0001
1000
0000
,
0001
0010
0001
0000
1000
0010
1000
0000
,
0001
0010
0001
1000
0010
1000
0001
0000
,
1000
0001
1000
0000
0010
0100
0010
0000
,
1000
0001
1000
0010
0100
0010
1000
0000
,
0001
0100
0010
0000
1000
0010
0100
0000
,
1001
0110
1001
0110
,
1001
0000
0000
0000;

//---------------dance-single - Maniac----------------
#NOTES:
     dance-single:
     Maniac:
     Hard:
     8:
     0.571,0.509,0.336,0.000,0.272: // measure 1
1000
0000
0000
0000
0010
0000
0000
1000
0000
0000
0010
0000
1000
0000
0010
0000
,  // measure 2
1000
0000
0000
0000
0001
0000
0000
0100
0000
0000
0001
0000
0100
0000
0001
0000
,  // measure 3
0100
0000
0000
0000
0001
0000
0000
1000
0000
0000
0001
0000
1000
0000
0001
0000
,  // measure 4
1000
1001
0100
1001
,  // measure 5
1000
0000
0010
0000
0100
0000
0001
1000
0000
0001
1000
0000
0010
0000
0100
0000
,  // measure 6
0010
0000
1000
0000
0001
0000
0100
0010
0000
0100
0010
0000
1000
0000
0100
0000
,  // measure 7
0010
0000
0001
0000
0100
0000
0001
0010
0000
0001
0010
0000
0001
0000
0010
0000
,  // measure 8
0100
0000
1000
0000
0010
0000
1000
0100
0000
1000
0100
0000
1000
0000
0001
0000
,  // measure 9
1001
0000
0000
0000
0110
0000
1000
0010
0000
1000
0001
0000
0100
0000
0010
0000
,  // measure 10
1001
0000
0000
0000
0110
0000
0001
0010
0000
0001
1000
0000
0100
0000
1000
0000
,  // measure 11
0110
0000
0000
0000
1001
0000
0100
0010
0000
0100
0001
0000
1000
0000
0001
0000
,  // measure 12
0110
0000
0000
0000
1001
0000
0100
0010
0000
1000
0010
0000
0100
0000
0001
0000
,  // measure 13
1010
0000
0000
0000
0100
0000
0010
0100
0010
0000
0100
0000
0001
0000
0001
0000
,  // measure 14
1000
0000
0010
0000
0100
0000
0010
0100
0010
0000
0100
0000
0001
0000
0001
0000
,  // measure 15
1000
0000
0001
0000
0100
0000
0001
1000
0001
0000
0100
0000
0010
0000
1000
0000
,  // measure 16
0001
0000
0100
0000
0010
0000
0100
0000
0001
1000
0001
0000
0100
0000
0100
0000
,  // measure 17
1001
0000
0010
0000
0010
0000
0100
0010
0000
1000
0001
0000
1000
0000
0100
0000
,  // measure 18
0011
0000
0000
0000
0101
0000
0010
0100
0000
0010
0100
0000
0001
0000
0100
0000
,  // measure 19
0011
0000
0000
0000
0110
0000
1000
0100
0000
1000
0010
0000
0100
0000
0001
0000
,  // measure 20
0011
0000
0000
0000
1100
0000
0010
0100
0000
0001
1000
0000
0010
0000
0100
0000
,  // measure 21
1001
0010
0100
0010
1000
0100
0010
0001
,  // measure 22
0100
0010
0100
0000
0001
0000
0100
0000
0010
0000
1000
0000
0001
0000
0010
0000
,  // measure 23
1001
0100
0010
1000
0100
0010
0001
1000
,  // measure 24
0010
1000
0010
0000
0100
0000
0010
0000
1000
0000
0001
0000
1000
0000
0010
0000
,  // measure 25
0100
0010
1001
0000
0001
0100
1001
0000
,  // measure 26
1000
0010
1001
0000
0010
0100
1001
0000
,  // measure 27
0100
0001
0100
0010
1000
0100
0010
0100
,  // measure 28
1000
1000
0010
0010
0100
0100
0001
0000
,  // measure 29
0100
0100
0001
0100
1000
0100
0010
0000
,  // measure 30
0010
0010
1000
0010
0001
0010
0100
0000
,  // measure 31
0100
0100
0001
0010
0001
1000
0100
0000
,  // measure 32
0010
0010
1000
1000
0001
0001
0100
0100
,  // measure 33
0010
0000
1000
0000
0010
0000
1000
0010
0000
1000
0010
0000
1000
0000
0010
0000
,  // measure 34
0100
0000
0001
0000
0010
0000
0001
0010
0000
0001
0010
0000
0001
0000
0010
0000
,  // measure 35
0100
0000
1000
0000
0100
0000
0010
0001
0000
1000
0001
0000
1000
0000
0100
0000
,  // measure 36
1000
0000
0010
0000
0100
0000
0001
0010
0000
0001
1000
0000
0010
0000
0100
0000
,  // measure 37
0001
0000
0100
0000
0010
0000
1000
0010
0000
1000
0001
0000
0100
0000
0010
0000
,  // measure 38
0100
0000
0001
0000
1000
0000
0010
0100
0000
0010
0100
0000
0010
0000
0100
0000
,  // measure 39
0001
0000
1000
0000
0010
0000
1000
0001
0000
1000
0001
0000
0100
0000
0010
0000
,  // measure 40
1001
1100
0101
0011
,  // measure 41
1010
0000
0000
0000
;
