#TITLE:Distance;
#SUBTITLE:~In Your Love~;
#ARTIST:青山 操;
#TITLETRANSLIT:;
#SUBTITLETRANSLIT:;
#ARTISTTRANSLIT:AOYAMA MISAO;
#CREDIT:;
#BANNER:Distance ~In Your Love~.png;
#BACKGROUND:Distance ~In Your Love~-bg.png;
#LYRICSPATH:;
#CDTITLE:Hime Trance 3.png;
#MUSIC:Distance ~In Your Love~.mp3;
#OFFSET:-0.868;
#SAMPLESTART:61.030;
#SAMPLELENGTH:12.000;
#SELECTABLE:YES;
#BPMS:0.000=142.980;
#STOPS:;
#BGCHANGES:;

//---------------dance-single - ----------------
#NOTES:
     dance-single:
     :
     Easy:
     3:
     0.206,0.226,0.078,0.088,0.000:
0000
0000
0000
0000
,
0000
0000
0000
0000
,
0000
0000
0000
0000
,
0000
0000
0000
0000
,
0010
0010
0000
0010
,
0000
0010
0000
0010
,
0000
0010
0000
0010
,
0020
0000
0000
0030
,
0200
0000
0000
0300
,
1000
0000
0001
0000
,
1000
0100
0010
0001
,
0200
0000
0000
0300
,
1001
0000
0000
0000
,
0000
0000
0000
0000
,
1000
0010
0001
0000
,
0001
0100
1000
0000
,
0010
0010
0100
0000
,
1000
0100
0001
0010
,
1000
0000
0001
0000
,
0001
0010
0001
0000
,
1000
0010
1000
0000
,
0001
0100
1000
0010
,
0100
0000
0100
0000
,
0010
1000
0010
0000
,
0100
0001
0100
0000
,
0001
1000
0100
0001
,
0010
0000
0010
0010
,
0200
0300
0000
0000
,
0020
0030
0000
0000
,
2000
3000
0000
0000
,
0001
1001
0000
1001
,
2000
3000
0000
0000
,
0002
0003
0000
0000
,
0100
0000
0100
0000
,
0010
0000
0110
0000
,
1001
0000
0000
0000
,
1000
0100
1000
0000
,
0010
0010
0100
0000
,
0001
0010
0001
0000
,
0100
0000
0100
0110
,
0010
1000
0100
0000
,
0010
0001
0100
0000
,
0001
0001
0100
0000
,
1000
0000
0001
1001
,
1000
0010
0100
0000
,
0001
0001
0010
0000
,
0100
0010
1000
0000
,
0001
0000
0110
0100
,
0010
1000
0100
0000
,
0010
0001
0100
0000
,
1000
0001
1000
0000
,
0010
0000
0000
0100
0100
0000
0000
0000
,
1000
1000
1000
0000
,
0001
0001
0001
0000
,
0100
0010
1000
0000
,
0100
0010
0001
0000
,
0200
0000
0000
0000
,
0000
0000
0000
0000
,
0300
0000
0000
0000
;

//---------------dance-single - MANIAC----------------
#NOTES:
     dance-single:
     MANIAC:
     Hard:
     8:
     0.422,0.479,0.214,0.224,0.063: // measure 1
0000
0000
0000
0000
,  // measure 2
0000
0000
0000
0000
,  // measure 3
0000
0000
0000
0000
,  // measure 4
0000
0000
0000
0000
,  // measure 5
1100
1000
0000
0001
,  // measure 6
0000
1000
0110
0001
,  // measure 7
0000
0100
0000
0010
,  // measure 8
1001
0000
0000
0000
,  // measure 9
1001
0000
0000
0000
,  // measure 10
1100
0000
0101
0000
,  // measure 11
0010
0100
0001
1000
0010
0100
0001
1000
,  // measure 12
0010
0010
0100
0100
0010
0010
0100
0100
,  // measure 13
0020
0000
0000
0000
,  // measure 14
0001
0000
1030
0110
,  // measure 15
0001
0100
0001
0000
1000
0000
0010
0000
0100
0000
0001
0000
1000
0000
0000
0000
,  // measure 16
0010
0100
0010
0000
0100
0000
1001
0000
,  // measure 17
0010
0100
0010
0000
1000
0000
0001
0000
0010
0000
0100
0000
1000
0000
0000
0000
,  // measure 18
0001
1000
0001
0000
1000
0000
0000
0000
0010
0000
0000
0000
1001
0000
0000
0000
,  // measure 19
0010
0010
0200
0000
1000
0000
0301
0000
,  // measure 20
1000
0000
0100
0000
1000
0100
0010
0000
,  // measure 21
0001
0100
0010
0000
0001
0000
1001
0000
,  // measure 22
0200
0000
0310
0100
0010
1000
0001
0100
,  // measure 23
0001
0101
0010
1010
,  // measure 24
0100
0000
0010
0000
1000
0001
0100
0000
,  // measure 25
0010
0001
0100
0000
0010
1000
0100
0000
,  // measure 26
0020
0000
0130
0010
0100
1000
0001
1000
,  // measure 27
0020
0000
0130
0000
0001
1000
0001
0000
,  // measure 28
2000
0000
0100
0000
3001
0100
0001
0000
,  // measure 29
0002
0000
0100
0000
1003
0100
1000
0000
,  // measure 30
0010
0100
0001
1000
,  // measure 31
0100
0001
0001
0100
1000
0000
0100
0000
,  // measure 32
0002
0000
0010
0000
1003
0100
1000
0000
,  // measure 33
2000
0000
0010
0000
3001
0100
0001
0000
,  // measure 34
2000
0010
3200
0001
,  // measure 35
0310
0000
0000
0001
0000
0000
0100
0000
1000
0000
0000
0100
0000
0000
0010
0000
,  // measure 36
2002
0000
0000
3003
,  // measure 37
0010
0100
0010
0000
1000
0000
0001
0000
,  // measure 38
0100
1000
0100
0000
0001
0000
0010
0000
0100
0000
1000
0000
0010
0000
0000
0000
,  // measure 39
2000
3100
0002
0103
,  // measure 40
0010
0001
0100
0000
0100
1000
0010
0000
,  // measure 41
1000
0001
1000
0000
0010
0000
0100
0000
,  // measure 42
0010
0001
0010
0000
1000
0000
0010
0000
0100
0000
0001
0000
1000
0000
0000
0000
,  // measure 43
0002
0103
2000
3100
,  // measure 44
0010
0000
0000
0100
0000
0000
1001
0000
0100
0000
0000
0000
0000
0000
0000
0000
,  // measure 45
0001
0010
0001
0000
0010
0000
1000
0000
,  // measure 46
0001
0100
0001
0000
0100
0000
1000
0000
0010
0000
0100
0000
0001
0000
0000
0000
,  // measure 47
1000
0110
0001
0110
,  // measure 48
1000
0100
0100
0000
0010
0001
0001
0000
,  // measure 49
1000
0100
1000
0000
0001
0000
1000
0000
,  // measure 50
0100
0001
0100
0000
1000
0000
0010
0000
0100
0000
0001
0000
1000
0000
0000
0000
,  // measure 51
0100
0101
0100
1100
,  // measure 52
0110
0000
0000
0110
0000
0000
1001
0000
0200
0000
0000
0000
0300
0000
0000
0000
,  // measure 53
2000
0000
0000
0100
0000
0000
3100
0000
0010
0000
0000
0000
0001
0000
0000
0000
,  // measure 54
0002
0000
0000
0100
0000
0000
0103
0000
0010
0000
0000
0000
1000
0000
0000
0000
,  // measure 55
0100
0001
0100
0000
1000
0010
1000
0000
,  // measure 56
0001
0100
0020
0000
1000
0000
0031
0000
,  // measure 57
0220
0000
0000
0000
,  // measure 58
0000
0000
0000
0000
,  // measure 59
0330
0000
0000
0000
;

//---------------dance-double - ----------------
#NOTES:
     dance-double:
     :
     Hard:
     7:
     0.417,0.451,0.136,0.175,0.078:
00000000
00000000
00000000
00000000
,
00000000
00000000
00000000
00000000
,
00000000
00000000
00000000
00000000
,
00000000
00000000
00000000
00000000
,
00000101
00000000
00000100
00000000
00001000
00010000
01000000
00000000
,
10000000
00010000
01000000
00000000
,
10020000
10000000
00000000
10030000
,
20010000
00010000
00000000
30010000
,
10020000
10000000
00000000
10030000
,
11000000
01000000
01010000
00010000
,
00001000
00000000
00000100
00000000
00000001
00001000
00000001
00001000
,
00000010
00000100
00001000
00010000
00022000
00000000
00033000
00000000
,
00011000
00000000
00000000
00000000
,
00010000
00000000
00100000
00000000
01000000
01000000
01100000
00000000
,
10000000
01000000
00010000
00001000
00100000
00000000
00110000
00000000
,
00001000
00010000
00001000
00000000
00000100
00000000
00000010
00000000
,
00000001
00000100
00001000
00010000
00000010
00000000
00001010
00000000
,
00000001
00000000
00000000
00001000
00000000
00000000
00000100
00000000
00000020
00000000
00000000
00000000
00000130
00000000
00000000
00000000
,
00000001
00001000
00000020
00000130
,
00000001
00000100
00000000
00001000
00000000
00010000
00001000
00010000
,
00001000
00000000
00000000
01000000
00000000
00000000
00010000
00000000
10000000
00000000
00000000
00000000
01000000
00000000
00000000
00000000
,
10000000
00000000
00010000
00000000
01000000
00010000
00100000
00000000
,
10000000
00000000
00000000
00010000
00000000
00000000
10000000
00000000
01000000
00000000
00000000
00000000
00000000
00000000
00000000
00000000
,
00100000
00010000
00000000
01000000
00000000
00100000
10000000
00100000
,
10000000
00000000
00000000
01000000
00000000
00000000
00010000
00000000
00001000
00000000
00000000
00000000
00010000
00000000
00000000
00000000
,
00000100
00000010
00000001
00000000
00000100
00000010
00001000
00000000
,
00000001
00000000
00000000
00000000
00000100
00000000
00000000
00000001
00001000
00000000
00000001
00000000
00001000
00000000
00000001
00001000
,
00000002
00000000
00000100
00000000
00000013
00000000
00000100
00000010
,
00001000
00000000
00000100
00000000
00010000
01000000
10000000
00000000
,
00010000
00000000
01000000
00000000
00100000
10000000
01000000
00100000
,
00020000
00000000
00030000
00000000
00000000
00100000
01000000
00000000
,
20010000
00000000
00100000
00000000
31000000
00000000
00100000
00010000
,
00001000
00000000
00010000
00000000
01000000
10000000
00010000
00000000
,
00200000
00000000
02000000
00300000
00020000
03000000
00002000
00030000
,
00000020
00000000
00003000
00000000
00000000
00000000
00000001
00000000
00000031
00000000
00000000
00000100
00000000
00000000
00000010
00000000
,
00000110
00000000
00000000
00000000
,
00000001
00000100
00000010
00000000
00000100
00001000
00010000
00000000
,
00001000
00000000
00000000
00000000
00010000
00000000
00000000
00000000
00001000
00000000
00010000
00001000
00000000
00000000
00000000
00000000
,
00100000
00010000
01000000
00000000
00100000
10000000
01000000
00010000
,
00001000
00000000
00000000
00010000
00000000
00000000
00001000
00000000
00000100
00000000
00000000
00000000
00000010
00000000
00000000
00000000
,
00000100
00000000
00001000
00000000
00100000
00010000
01000000
00000000
,
00001000
00000000
00010000
00000000
00000100
00000000
00000000
00000000
00001000
00000000
00000100
00000010
00000000
00000000
00000000
00000000
,
00000001
00001000
00000001
00000000
00001000
00000001
00000100
00000010
,
00001000
00000000
00000000
00000100
00000000
00000000
00010000
00000000
00001000
00000000
00000000
00000000
00000000
00000000
00000000
00000000
,
00100000
01000000
10000000
00000000
01000000
00010000
00100000
00000000
,
00001000
00000000
00010000
00000000
00000100
00000000
00000000
00000000
00001000
00000000
00000010
00000100
00000000
00000000
00000000
00000000
,
00000001
00000100
00001000
00000000
00001000
00000001
00000100
00000010
,
00010000
00000000
00000000
00001000
00000000
00000000
00000100
00000000
00000010
00000000
00000000
00000000
00000100
00000000
00000000
00000000
,
00000100
00001000
00000010
00000000
00000100
00000001
00000010
00000000
,
00001000
00000000
00010000
00000000
00000100
00000000
00000000
00000000
00001000
00000000
00010000
00001000
00000000
00000000
00000000
00000000
,
01000000
00100000
10000000
00000000
01000000
00010000
10000000
00100000
,
01000000
00000000
00000000
01010000
00000000
00000000
00002000
00000000
00020000
00000000
00000000
00000000
00033000
00000000
00000000
00000000
,
00000010
00010000
00001000
00000100
00000010
00001000
00000100
00000000
,
00000010
00000001
00000100
00000000
00000010
00001000
00000100
00000000
,
00010000
00001000
00010000
01000000
10000000
00010000
00100000
00000000
,
00001000
00000000
00000000
00000000
00100000
00000000
00001000
00000000
00010000
00001000
00010000
00000000
00000010
00000000
00000000
00000000
,
00002000
00000000
00000000
00000000
,
00000000
00000000
00000000
00000000
,
00003000
00000000
00000000
00000000
;

//---------------dance-double - ----------------
#NOTES:
     dance-double:
     :
     Easy:
     3:
     0.193,0.226,0.107,0.068,0.000:
00000000
00000000
00000000
00000000
,
00000000
00000000
00000000
00000000
,
00000000
00000000
00000000
00000000
,
00000000
00000000
00000000
00000000
,
00100000
00000000
00000000
00000000
,
00000000
00000000
00000000
00000000
,
10000000
00000000
00010000
00000000
,
01100000
00000000
00001000
00000000
,
00011000
00000000
00000100
00000000
,
00000110
00000000
00000010
00000000
,
00001000
00001000
00002000
00000000
,
00000000
00000000
00000000
00003000
,
00000001
00000000
00000000
00000000
,
00000100
00000000
00001000
00001001
,
00000001
00000100
00000010
00000000
,
00010000
00001000
00000100
00000000
,
00001000
00010000
01000000
00000000
,
00100000
01000000
00100000
00000000
,
20000000
30000000
00020000
00030000
,
00000000
10000000
00000000
00010000
,
00000000
01000000
00000000
00001000
,
00000000
00010000
00000000
00000010
,
00000000
00000100
00000000
00000001
,
00001001
00001000
00000000
00000010
,
00000000
00000001
00000000
00000100
,
00000000
00000010
00000000
00010000
,
00000000
00001000
00000000
01000000
,
00100000
00100000
00000000
00000000
,
10000000
01000000
00010000
00001000
,
00000100
00000000
00000100
00000000
,
00000001
00000000
00000000
00000000
,
00000010
00000010
00000000
00000000
,
00000001
00000100
00001000
00010000
,
01000000
00000000
10010000
00000000
,
00100000
00000000
10010000
00000000
,
20020000
00000000
30030000
00000000
,
01000000
00000000
01000000
00000000
,
00100000
10000000
01000000
10000000
,
00010000
00000000
00010000
00000000
,
00100000
00000000
00011000
00000000
,
00000010
00000000
00000100
00000000
,
00000001
00000010
00000001
00000100
,
00000010
00000000
00001000
00000000
,
00000100
00000000
00011000
00000000
,
00100000
00000000
01000000
00000000
,
00010000
10000000
01000000
00010000
,
00001000
00000000
00000100
00000000
,
00000001
00001000
00000001
00000000
,
00000010
00000000
00000100
00000000
,
00000001
00000010
00001000
00010000
,
00100000
00000000
10000000
00000000
,
01000000
00010000
01000000
00000000
,
00011000
00000000
00001000
00000000
,
00000100
00000010
00000001
00000000
,
00000100
00000010
00001000
00000000
,
00020000
00030000
01000000
00100000
,
02000000
00000000
00000000
00000000
,
00000000
00000000
00000000
00000000
,
03000000
00000000
00000000
00000000
;

//---------------dance-double - ----------------
#NOTES:
     dance-double:
     :
     Medium:
     5:
     0.325,0.367,0.156,0.165,0.005:
00000000
00000000
00000000
00000000
,
00000000
00000000
00000000
00000000
,
00000000
00000000
00000000
00000000
,
00000000
00000000
00000000
00000000
,
00010100
00001000
00000000
00000100
,
00000000
00010000
00000000
00001000
,
00000000
01000000
00000000
00010000
,
01001000
00000000
00000000
00000000
,
00010100
00000000
00000000
00000000
,
00010010
00000000
00101000
00000000
,
00010000
00100000
10000000
01000000
,
00010000
00001000
00010000
00002000
00020000
00000000
00033000
00000000
,
00011000
00000000
00000000
00000000
,
00001000
00010000
00001000
00000000
00020000
00000000
00030100
00000000
,
00000001
00000000
00000100
00000000
00000010
00001000
00000100
00000000
,
00000001
00000000
00001000
00000000
00000010
00000100
00000010
00000000
,
00001000
00000000
00000100
00000000
00010000
00001000
00100000
00000000
,
00010000
00000000
10010000
00000000
00100000
01000000
00100000
00000000
,
20000000
00000000
00010000
30010000
,
00000000
10000000
00000000
00100000
00000000
01000000
00000000
00010000
,
00000000
10000000
00000000
01000000
00000000
00010000
00000000
00001000
,
00000000
00000100
00000000
00000001
00000000
00001000
00000000
00000010
,
00000000
00000100
00000000
00000001
00001000
00000000
00000000
00000000
,
00000000
00000010
00000000
00000001
00000000
00001000
00000000
00000010
,
00000000
00000100
00000000
00001000
00000000
00010000
00000000
00100000
,
00000000
10000000
00000000
01000000
00000000
00010000
00000000
00100000
,
00000000
10000000
00000000
00010000
10000000
00000000
11000000
00000000
,
00010000
00000000
01000000
00100000
01000000
00000000
00000000
00000000
,
10000000
00000000
01000000
00100000
01000000
00000000
00000000
00000000
,
00010000
00000000
00001000
00000000
00010000
00001000
00000100
00000000
,
00000020
00000030
00000000
00000000
,
00001000
00000000
00000001
00000100
00000001
00000000
00000000
00000000
,
00000001
00000000
00001000
00000100
00001000
00000000
00000000
00000000
,
00000002
00000203
00002300
00023000
,
00032000
00000000
02000000
03003000
,
00110000
00000000
00000000
00000000
,
10000000
00000000
00010000
00000000
01000000
00100000
10000000
00000000
,
01000000
00010000
00001000
00000000
00010000
00000000
00001000
00000000
,
00000010
00000001
00000100
00000010
,
00001000
00000101
00001001
00000010
,
00001000
00000000
00000100
00000000
00000010
00000001
00000100
00000000
,
00001000
00010000
00000100
00000000
00000010
00000000
00000001
00000000
,
00000200
00000310
00001000
00010000
,
01000000
11000000
01100000
00000000
,
20000000
00000000
30100000
00000000
01000000
00010000
00100000
00000000
,
00001000
00010000
00000100
00000000
00001000
00000000
00000110
00000000
,
00000002
00000000
00000103
00000000
00000010
00001000
00000100
00000000
,
00001000
00000011
00001001
00000010
,
00000002
00000000
00000103
00000000
00000010
00001000
00000100
00000000
,
00010000
00000100
00010000
01000000
,
20000000
00000000
30010000
00000000
00100000
10000000
01000000
00000000
,
10000000
00000000
00000000
00010000
00000000
00000000
10000000
00000000
00010000
00000000
00000000
00000000
00000000
00000000
00000000
00000000
,
10000000
00100000
00000000
01000000
00100000
00000000
10000000
00000000
,
01000000
00010000
00100000
00001000
,
00010000
00000100
00000000
00000100
00000001
00000000
00000010
00000000
,
00001000
00000000
00000001
00000000
00000010
00001000
00000100
00000000
,
00000020
00000000
00000000
00000000
,
00000000
00000000
00000000
00000000
,
00000030
00000000
00000000
00000000
;

//---------------dance-single - ----------------
#NOTES:
     dance-single:
     :
     Beginner:
     1:
     0.129,0.163,0.019,0.000,0.000:
0000
0000
0000
0000
,
0000
0000
0000
0000
,
0000
0000
0000
0000
,
0000
0000
0000
0000
,
0010
0000
0000
0000
,
0000
0000
0000
0000
,
0000
0000
0000
0000
,
0010
0000
0000
0000
,
0100
0000
0000
0000
,
1000
0000
0001
0000
,
1000
0000
0100
0000
,
0010
0000
0000
0000
,
1001
0000
0000
0000
,
0000
0000
0000
0000
,
1000
0000
0001
0000
,
0001
0000
1000
0000
,
0010
0000
0100
0000
,
0100
0100
0100
0000
,
1000
0000
0001
0000
,
0001
0000
1000
0000
,
1000
0000
0001
0000
,
0100
0100
0100
0000
,
0100
0000
0100
0000
,
0010
0000
0010
0000
,
0100
0000
0100
0000
,
0010
0000
0010
0000
,
1000
0000
1000
0000
,
0001
0000
0000
0000
,
0010
0000
0000
0000
,
0100
0000
0000
0000
,
1000
1000
0000
1000
,
1000
0000
0000
0000
,
0100
0000
0000
0000
,
0010
0000
0001
0000
,
0010
0000
0100
0000
,
1000
0000
0000
0000
,
1000
0000
1000
0000
,
0010
0000
0100
0000
,
0001
0000
0001
0000
,
0100
0000
0100
0000
,
0010
0000
0100
0000
,
0010
0000
0100
0000
,
0001
0000
0100
0000
,
1000
0000
0100
0000
,
1000
0000
0100
0000
,
0010
0000
0001
0000
,
0010
0000
0100
0000
,
1000
0000
0110
0000
,
0010
0000
0100
0000
,
0010
0000
0100
0000
,
1000
0000
0001
0000
,
1000
0000
0001
0000
,
1000
1000
0000
0000
,
0001
0001
0000
0000
,
0100
0000
1000
0000
,
0001
0000
0100
0000
,
0010
0000
0000
0000
;

//---------------dance-single - ----------------
#NOTES:
     dance-single:
     :
     Medium:
     5:
     0.350,0.423,0.126,0.253,0.019:
0000
0000
0000
0000
,
0000
0000
0000
0000
,
0000
0000
0000
0000
,
0000
0000
0000
0000
,
2002
0000
0000
3003
,
0010
0000
0100
0000
,
0001
1000
0010
0100
,
0101
0000
0000
0000
,
1100
0000
0000
0000
,
2002
3003
0220
0330
,
1000
0100
0010
0001
,
0100
0010
0100
0010
2020
0000
3030
0000
,
1001
0000
0000
0000
,
0001
1000
0100
0000
0010
0000
1001
0000
,
0100
0100
0010
0000
1000
0000
0001
0000
,
0100
0000
0010
0100
0000
0001
1000
0000
,
0100
0100
0010
0000
0001
0000
1000
0000
,
0001
0000
0010
0100
0000
1000
0100
0000
,
0020
0000
0000
0130
,
1000
0001
0000
0100
0000
0010
0000
1000
,
0000
0010
0000
0100
0000
0001
0001
0000
,
1000
0100
0000
0001
0000
0010
0000
0100
,
0000
1000
0000
0100
0000
0010
0010
0000
,
0001
1000
0000
0100
0000
0010
0000
0001
,
0000
0100
0000
0010
0000
1000
1000
0000
,
0100
0001
0000
0101
0000
0010
0000
1000
,
0000
0100
0000
0010
0000
0100
1001
0000
,
0010
0100
0010
0100
0001
0000
0000
0000
,
1000
0100
1000
0100
0010
0000
0000
0000
,
0000
1000
0000
1010
0000
0001
0000
0100
,
0020
0030
0000
1000
,
0001
0100
0001
0100
0010
0000
0000
0000
,
0100
0010
0100
0010
1000
0000
0000
0001
,
0002
2003
3200
0302
,
0203
0000
0020
0330
,
1001
0000
0000
0000
0000
0000
0000
0100
,
0020
1030
0001
0100
,
0010
0000
1000
0000
0100
0000
0000
0000
1000
0000
0000
0001
0000
0000
0000
0000
,
0200
0000
0310
0000
0001
1000
0001
0000
,
1000
0000
0010
0100
0000
0010
0100
0000
,
2000
3001
0100
0010
,
1000
0000
0010
0000
0100
0000
0000
0000
0001
0000
0000
1000
0000
0000
0000
0000
,
0020
0000
1030
0000
0100
1000
0100
0000
,
1000
0001
0000
0001
1000
0000
0010
0000
,
2000
3100
0001
0100
,
1000
0000
0001
0000
1000
0000
0000
0000
0010
0000
0000
0100
0000
0000
0000
0000
,
0002
0013
1000
0100
,
1000
0000
0001
0010
0000
0100
1000
0000
,
0020
1030
0100
0001
,
1000
0000
0100
0000
0010
0000
0000
0000
0001
0000
0000
1000
0000
0000
0000
0000
,
0020
1030
0100
0001
,
0100
1000
0000
1000
0100
0000
0000
0000
,
0010
0010
0000
0100
0100
0000
0001
0000
,
1000
0000
0001
0000
0100
0010
0100
0000
,
1000
1000
0000
0001
0001
0000
0100
0000
,
0010
0000
1000
0000
0100
0010
0001
0000
,
2002
0000
0000
0000
,
0000
0000
0000
0000
,
3003
0000
0000
0000
;
