#TITLE:Disco 2000;
#SUBTITLE:(MOTIV 8 Discoid Mix);
#ARTIST:PULP;
#TITLETRANSLIT:;
#SUBTITLETRANSLIT:;
#ARTISTTRANSLIT:;
#CREDIT:;
#BANNER:Disco 2000 (MOTIV 8 Discoid Mix).png;
#BACKGROUND:Disco 2000 (MOTIV 8 Discoid Mix)-bg.png;
#LYRICSPATH:;
#CDTITLE:cd.png;
#MUSIC:Disco 2000 (MOTIV 8 Discoid Mix).mp3;
#OFFSET:-7.287;
#SAMPLESTART:61.379;
#SAMPLELENGTH:12.000;
#SELECTABLE:YES;
#BPMS:0.000=132.978;
#STOPS:;
#BGCHANGES:;

//---------------dance-single - Basic----------------
#NOTES:
     dance-single:
     Basic:
     Easy:
     3:
     0.193,0.214,0.057,0.038,0.000: // measure 1
1000
1000
0000
0000
,  // measure 2
0010
0000
0100
0000
,  // measure 3
0001
0001
0000
0000
,  // measure 4
1000
1000
1000
1000
,  // measure 5
0001
0100
0010
0100
,  // measure 6
0001
0000
0001
0000
,  // measure 7
1000
0010
0100
0010
,  // measure 8
1000
0000
1000
0000
,  // measure 9
0001
0001
0010
0010
,  // measure 10
0001
0000
0100
0000
,  // measure 11
0010
0010
0100
0100
,  // measure 12
0010
0000
1000
0000
,  // measure 13
0001
1000
1000
1000
,  // measure 14
0001
0000
0100
0000
,  // measure 15
0010
0100
0100
0100
,  // measure 16
0010
0000
1000
0000
,  // measure 17
0010
0100
0001
1000
,  // measure 18
0001
0000
0001
0000
,  // measure 19
0100
0001
0100
0100
,  // measure 20
0010
0000
1000
0000
,  // measure 21
1001
0000
0010
0000
,  // measure 22
0010
1000
0001
1000
,  // measure 23
1001
0000
0010
0000
,  // measure 24
0010
0100
0001
0100
,  // measure 25
0110
0000
0010
0000
,  // measure 26
0010
1000
0010
0100
,  // measure 27
1001
0000
0100
0000
,  // measure 28
1001
0000
0100
0000
,  // measure 29
1001
1000
0001
1000
,  // measure 30
0001
1000
0001
0000
,  // measure 31
1000
0100
0001
0000
,  // measure 32
0001
0010
1000
0000
,  // measure 33
1000
0000
0010
0000
,  // measure 34
0001
0000
0100
0000
,  // measure 35
1000
0000
1000
0000
,  // measure 36
0001
0000
0001
0000
,  // measure 37
1000
0100
0010
0001
,  // measure 38
1000
0000
0100
0000
,  // measure 39
1000
0100
0001
0000
,  // measure 40
0001
0010
1000
0000
,  // measure 41
1000
0000
0010
0000
,  // measure 42
0001
0000
0100
0000
,  // measure 43
1000
0000
1000
0000
,  // measure 44
0001
0000
0001
0000
,  // measure 45
1000
0100
0010
0001
,  // measure 46
2000
0000
3002
0000
,  // measure 47
2003
0000
0000
0000
,  // measure 48
3100
0000
0000
0000
,  // measure 49
0020
0000
0000
0000
,  // measure 50
0031
0000
0000
0000
,  // measure 51
1000
0000
0000
0000
;

//---------------dance-single - Trick----------------
#NOTES:
     dance-single:
     Trick:
     Medium:
     6:
     0.375,0.388,0.228,0.095,0.000:
0100
0000
0010
0000
0000
0010
0000
0100
,
0010
0000
1000
0001
0000
0001
0000
0000
,
0100
0000
0010
0000
0000
0100
0000
0010
,
0100
0010
0010
0010
,
0010
1000
0010
0000
1000
0010
1000
0000
,
0011
0000
0001
0000
,
0100
0001
0100
0000
0001
0100
0001
0000
,
1100
0000
1000
0000
,
0001
0100
1000
0010
,
0001
0000
0100
0000
1000
0000
0010
0100
,
0010
0100
0010
2000
,
3020
0230
0302
0003
,
1001
0000
0100
0000
0001
0010
0001
0010
,
0001
0000
0001
0000
1000
0010
0100
0000
,
1001
0000
0010
0000
1000
0100
1000
0100
,
1000
0000
1000
0000
0001
0010
0100
0000
,
0001
0100
1000
0010
,
0110
1001
0010
0001
,
1000
0010
1000
0010
0100
0000
0001
0000
,
0100
0000
0100
0000
,
2010
0000
0010
0000
3010
0100
0010
0000
,
0102
0000
0100
0000
0103
0010
0100
0000
,
0210
0000
0010
0000
0310
1000
0010
0000
,
0120
0000
0100
0000
0130
0001
0100
0000
,
0001
0010
0100
0000
1000
0000
1000
0000
,
1000
0100
0010
0000
0001
0000
0001
0000
,
0001
0010
0100
0000
1000
0100
0000
0010
,
0000
0100
0000
0001
0000
0011
0000
0001
,
1000
0001
1000
0001
1000
0010
0100
0010
,
0100
0010
0100
0001
1000
0010
0000
0000
,
1000
0100
1000
0001
0000
0001
0100
0001
,
0000
0011
0000
0101
0000
1001
0000
0000
,
0001
0010
0001
1000
0000
1000
0000
0100
,
0000
0010
0000
0001
0000
1000
0000
0010
,
0100
0010
0100
0010
0100
0000
0001
0010
,
0000
0001
1000
0001
0000
1000
0100
0000
,
1100
1010
1001
1100
,
1000
0001
1000
0000
0010
0000
1000
0000
,
0001
0100
0001
1000
0000
0010
0000
1100
,
0000
0010
0000
0101
0000
1000
0000
0000
,
1000
0010
1000
0001
0000
0100
0000
0011
,
0000
1000
0000
1010
0000
0100
0000
0001
,
1000
0001
1000
0001
0000
1000
0010
0000
,
1010
0000
0001
0010
0001
0000
0100
0000
,
0001
0010
0001
0010
0001
1000
0001
1000
,
0001
0100
0001
0100
0001
0000
1000
0000
,
0010
0000
0010
0000
0000
0010
0000
0100
,
0010
0000
0010
0100
0000
0100
0000
0000
,
0001
0000
0001
0000
0000
0001
0000
0001
,
1000
0000
1000
0001
0000
0001
0000
0000
,
2002
0000
0000
0000
,
3003
0000
0000
0000;

//---------------dance-single - Maniac----------------
#NOTES:
     dance-single:
     Maniac:
     Hard:
     7:
     0.418,0.412,0.209,0.048,0.000:
0100
0000
0100
0000
0000
0010
0000
0100
,
0010
0000
0100
0010
0100
0001
1000
0010
,
0100
0000
0100
0000
0000
0010
0000
1000
,
0002
1000
0010
1000
,
0103
0001
1000
0010
0100
0010
1000
0001
,
0100
0100
1000
0001
,
1000
0010
0100
0010
1000
0001
0010
0001
,
1000
0000
0100
0000
0001
0100
0010
0100
,
0010
1000
0002
0000
0010
0000
0010
0000
,
0013
0000
1000
0000
1010
0000
1000
0100
,
0010
0001
0200
0000
0001
0000
0010
0010
,
0302
0000
1000
0000
0010
0000
1003
1000
,
0010
0000
1010
0000
0100
0010
0100
0001
,
0001
0000
0001
0000
1000
0100
0001
0000
,
0001
0100
1000
0000
1000
0100
0001
0100
,
1000
0000
0010
0100
0000
0001
1000
0000
,
0101
0101
1010
1001
,
0010
0000
1000
0100
1000
0010
0100
0001
,
0000
0001
0010
0100
1000
0000
1000
0010
,
0100
0000
0001
0100
0010
0000
0100
0000
,
0010
1000
0010
1000
0010
1000
0001
0100
,
0010
0010
0110
0010
,
0100
0001
0100
0001
0100
0001
1000
0010
,
0100
0100
0110
0100
,
0001
1000
0001
1000
0001
1000
0010
0100
,
0001
0001
1001
0001
,
1100
0000
1000
0000
0001
0010
0100
0000
,
1000
0100
0010
0000
0001
1000
0001
0000
,
1000
0100
1000
0100
0001
0100
0001
0100
,
1000
0100
1000
0010
0010
0100
0000
0000
,
0001
1000
0100
0010
0000
0001
1000
0001
,
0000
1100
0000
0101
0000
1100
0000
0000
,
1000
0001
0010
0100
0000
0101
0000
0011
,
0000
1001
0000
1000
0000
1000
0000
0010
,
0100
0010
1000
0001
1000
0000
0001
0010
,
0000
0010
0001
0100
0000
0100
0001
0000
,
1000
1001
0001
1001
,
1000
0100
0010
0001
0100
0010
1000
0000
,
1000
0010
1000
0001
0000
1001
0000
0100
,
0000
1001
0000
0010
0000
1001
0000
0000
,
0001
0100
0001
1000
0000
0001
0000
0100
,
0000
1000
0000
0010
0000
0001
0000
1000
,
0100
1000
0100
0001
0000
0001
0100
0000
,
0101
0000
0001
0010
0000
0100
1000
0000
,
1000
0001
0100
0010
1000
0001
1000
0001
,
0100
0010
1000
0001
0100
0010
0100
0010
,
1000
0000
0010
0000
0000
1000
0000
0010
,
1000
0000
0010
1000
0001
0010
0001
0100
,
0000
0010
0000
0100
0000
0001
0000
1000
,
0100
0000
0100
1000
0000
0000
0000
0001
,
0002
0000
0000
0000
,
0003
0000
0000
0000;
