#TITLE:DRAGOSTEA DIN TEI;
#SUBTITLE:;
#ARTIST:O-ZONE;
#TITLETRANSLIT:;
#SUBTITLETRANSLIT:;
#ARTISTTRANSLIT:;
#CREDIT:;
#BANNER:DRAGOSTEA DIN TEI.png;
#BACKGROUND:DRAGOSTEA DIN TEI-bg.png;
#LYRICSPATH:;
#CDTITLE:DiscO-Zone.png;
#MUSIC:DRAGOSTEA DIN TEI.mp3;
#OFFSET:-8.383;
#SAMPLESTART:61.748;
#SAMPLELENGTH:12.000;
#SELECTABLE:YES;
#BPMS:0.000=130.054;
#STOPS:;
#BGCHANGES:0.000=DRAGOSTEA DIN TEI.avi=1.000=1=0=0,
178.000=DRAGOSTEA DIN TEI-bg.png=1.000=1=0=0,
99999=-nosongbg-=1.000=0=0=0 // don't automatically add -songbackground-
;

//---------------dance-single - Basic----------------
#NOTES:
     dance-single:
     Basic:
     Easy:
     3:
     0.255,0.376,0.387,0.000,0.000:
1000
0000
0000
0000
,
0001
0000
0000
0000
,
1000
0000
0000
0000
,
0001
0001
0001
0000
,
1001
0000
1001
0000
,
0110
0000
0110
0000
,
1001
0000
1001
0000
,
0110
0000
0110
0000
,
1000
1000
1000
0000
,
0001
0001
0001
0000
,
0100
0100
0100
0000
,
0001
1000
0001
0000
,
0000
0000
1000
1000
,
0000
0000
0001
0001
,
0000
0000
0110
0110
,
0000
0000
1001
0000
,
1001
0000
1000
1000
,
1000
0001
1000
0000
,
0000
1000
0001
1000
,
0001
0100
1000
0000
,
0100
0100
1000
0100
,
1000
0100
1000
0010
,
1000
0100
1000
0000
,
0001
1000
0001
1000
,
0001
1000
0100
1000
,
0100
1000
0001
1000
,
1000
0000
0001
0000
,
1000
0001
1000
0000
,
0001
0001
0001
0000
,
1001
1001
1001
0110
,
0110
0110
0110
0000
,
1001
1001
1001
0000
,
0110
0110
0110
0110
,
1001
1001
0110
0000
,
1001
1001
1001
0000
,
1000
1000
0001
0001
,
1000
1000
0001
0001
,
1000
1000
1000
1000
,
0001
0001
0001
0000
,
1000
1000
1000
0000
,
0001
0001
0001
0001
,
1000
1000
1000
0001
,
0100
0100
0110
0000
,
1000
0001
1001
0001
,
1000
1001
1001
1001
,
1000
0000
0000
0000
;

//---------------dance-single - Trick----------------
#NOTES:
     dance-single:
     Trick:
     Medium:
     4:
     0.287,0.353,0.084,0.000,0.000:
1000
0000
0001
1000
0000
0000
0000
0000
,
1000
0000
1000
0001
0000
0000
0000
0000
,
0001
0000
1000
0001
0000
0000
0000
0000
,
1001
1001
1001
0000
,
0100
1000
0100
1000
0000
0000
0000
0000
,
0001
0001
0001
0000
,
1000
0100
1000
0100
0000
0000
0000
0000
,
0001
0001
0001
0000
,
0010
1000
0010
1000
0000
0000
0000
0000
,
0001
0001
0001
0000
,
0010
1000
0100
1000
0000
0000
0000
0000
,
0001
0001
0001
0000
,
0000
0000
0000
0000
1000
0001
0000
0000
,
0001
0000
0001
0000
0001
1000
0000
0000
,
1000
0000
1000
0000
1000
0100
0000
0000
,
0100
0000
0100
0000
0010
0100
0000
0000
,
0001
0000
0001
0000
0001
1000
0100
1000
,
0001
0100
0100
0100
,
1000
1000
0010
0010
,
0001
0001
0100
0100
,
1000
0000
1000
0000
0100
1000
0100
0000
,
0000
0001
0001
0000
,
1000
1000
1000
0000
,
0001
0000
1000
0001
1000
0000
0100
0000
,
1000
0001
1000
0100
,
1000
0000
0001
0000
1000
0000
0001
1000
,
0001
0100
1000
0000
,
0001
0001
1000
0001
,
1000
0001
1001
1001
,
1001
0000
1001
0000
1001
0000
0001
1000
,
0001
1000
0001
0000
1000
0000
0000
0000
,
1000
0001
1000
0000
0001
0000
0000
0000
,
0001
1000
0001
0000
1000
0001
1000
0000
,
0001
1000
0100
1000
,
0001
1000
0001
0000
0100
0000
0000
0000
,
1000
0010
1000
0000
0100
0000
0001
0000
,
0010
0001
0100
0001
,
1000
0001
1000
0000
0100
0000
1000
0000
,
0001
0010
0001
0000
0100
0000
0000
0000
,
1000
0010
1000
0000
0100
0000
0000
0000
,
0001
1000
0100
0000
1000
0001
0100
0000
,
0001
1000
0100
1000
,
0001
1000
0100
0000
1000
0000
0100
0000
,
1000
0010
1000
0000
0100
1000
0001
0000
,
1000
0010
1000
0000
0001
0010
0100
0000
,
0001
0000
0000
0000
;

//---------------dance-single - Maniac----------------
#NOTES:
     dance-single:
     Maniac:
     Hard:
     7:
     0.422,0.376,0.209,0.010,0.021: // measure 1
1001
0000
0100
1000
0100
0000
0000
0000
,  // measure 2
1001
0000
0100
0001
0100
0000
0000
0000
,  // measure 3
1001
0000
0010
1000
0010
0000
0000
0000
,  // measure 4
1001
0000
0010
0001
0010
0001
1000
0000
,  // measure 5
0100
1000
0100
0000
0010
0100
1000
0001
,  // measure 6
0100
0001
0010
0000
0010
0001
0100
0010
,  // measure 7
1000
0100
0010
0000
0010
0100
1000
0010
,  // measure 8
0100
0001
0010
0000
0001
0100
0001
0000
,  // measure 9
1000
0100
1000
0000
1000
0100
0010
0100
,  // measure 10
1000
0010
0100
0000
0010
0100
0010
1000
,  // measure 11
0100
0010
0001
0000
0001
0010
0100
1000
,  // measure 12
0100
0000
1000
0000
0001
0000
0000
0000
1000
0000
0100
0000
0010
0000
0001
0010
,  // measure 13
0001
0010
0001
0000
0010
0000
0000
0000
1001
0000
0000
0000
0100
0000
1000
0000
,  // measure 14
0100
0000
1001
0000
0001
0010
0100
1000
,  // measure 15
0001
0000
1000
0000
0100
0010
0100
1000
,  // measure 16
0001
0000
0100
0001
0010
0000
0010
0100
,  // measure 17
1000
0000
0000
0000
0001
0000
0000
0000
0000
0000
1000
0000
0010
0100
0010
0100
,  // measure 18
0010
0000
0100
0000
1000
0001
1000
0100
,  // measure 19
0010
0000
0010
0000
0100
1000
0001
0000
,  // measure 20
0100
0001
1000
0000
0001
0000
1000
0000
,  // measure 21
0100
0000
0010
0000
0010
0100
1000
0001
,  // measure 22
0100
0001
1000
0001
0000
1000
0001
1000
,  // measure 23
0000
0001
1000
0100
0000
1000
0001
1000
,  // measure 24
0000
0001
0100
0001
0000
1000
0100
0010
,  // measure 25
0100
1000
0001
0100
0000
0001
0000
1000
,  // measure 26
0000
0100
0000
0010
0000
0100
1000
0001
,  // measure 27
1000
0000
1001
0000
0100
0010
0100
1000
,  // measure 28
0001
0100
0001
0000
1000
0000
0001
0000
,  // measure 29
0010
0100
1100
0011
,  // measure 30
0101
0000
1001
0000
1001
0000
0001
0010
,  // measure 31
0100
1000
0100
1000
0100
0000
0000
0000
,  // measure 32
1000
0010
0100
0001
0100
0000
0000
0000
,  // measure 33
0001
0010
0100
1000
0010
0100
0010
0000
,  // measure 34
0110
0000
0010
1000
0100
0000
1001
0000
,  // measure 35
0001
0100
0001
0010
0001
0000
0000
0000
,  // measure 36
1000
0000
0100
1000
0001
0000
0100
0001
,  // measure 37
0010
0000
0010
0100
1000
0000
1001
0000
,  // measure 38
0110
0000
1001
0000
0101
0000
0001
0010
,  // measure 39
0100
1000
0010
0100
0010
0000
1000
0000
,  // measure 40
0100
0010
0001
0100
0001
0000
0101
0000
,  // measure 41
0001
0010
0100
0010
0001
0100
0001
0000
,  // measure 42
0100
0000
0001
1000
0100
0000
1100
0000
,  // measure 43
0001
1000
0100
0010
0100
0000
0010
0000
,  // measure 44
0001
0100
0001
0000
1000
0100
0010
0100
,  // measure 45
1000
0000
0001
1000
0200
0000
0000
0000
,  // measure 46
0300
0000
0000
0000
;

//---------------dance-single - Beginner----------------
#NOTES:
     dance-single:
     Beginner:
     Beginner:
     1:
     0.100,0.118,0.000,0.000,0.000:
0000
0000
0001
0000
,
0000
0000
1000
0000
,
0000
0000
0001
0000
,
0000
0000
1000
1000
,
0000
0000
0010
0000
,
0000
0000
0100
0000
,
0000
0000
0010
0000
,
0000
0000
0100
0100
,
0000
0000
0001
0000
,
0000
0000
0010
0000
,
0000
0000
0001
0000
,
0000
0000
0010
0010
,
0000
0000
1000
0000
,
0000
0000
0001
0000
,
0000
0000
0100
0000
,
0000
0000
0010
0000
,
0000
0000
1000
0000
,
0000
0000
0001
0000
,
0000
0000
0100
0000
,
0000
0000
0010
0000
,
0000
0000
1000
0000
,
0001
0000
1000
0000
,
0000
0000
0010
0000
,
0000
0000
0100
0000
,
0000
0000
0001
0000
,
1000
0000
0010
0000
,
0000
0000
0001
0000
,
0000
0000
0100
0000
,
1000
0000
0001
0000
,
0000
0000
0010
0000
,
0010
0000
0010
0000
,
0100
0000
0100
0000
,
0001
0000
0001
0000
,
1000
0000
1000
0000
,
0010
0000
0001
0000
,
1000
0000
0100
0000
,
0001
0000
1000
0000
,
0100
0000
0010
0000
,
0001
0000
1000
0000
,
0001
0000
0100
0000
,
0010
0000
1000
0000
,
0100
0000
0010
0000
,
0001
0000
0100
0000
,
1000
0000
0100
0000
,
0010
0000
0001
0000
,
1000
0000
0000
0000
;

//---------------dance-single - EDIT----------------
#NOTES:
     dance-single:
     EDIT:
     Edit:
     6:
     0.410,0.400,0.136,0.042,0.010:
2000
0000
3100
0000
,
0002
0000
0103
0000
,
2000
0000
3100
0000
,
0002
0000
0103
1001
,
1001
0000
0100
0000
1000
0001
1000
0100
,
1000
0001
1000
0000
0001
1000
0001
0100
,
0001
1000
0001
0000
0010
0100
0010
1000
,
0010
0100
0010
0000
0001
0010
0100
0010
,
0001
0010
0001
0000
0001
1000
0100
1000
,
0001
1000
0100
0000
1000
0001
0100
0001
,
1000
0001
0100
0000
0001
1000
0001
1000
,
0001
0000
1000
0000
1001
0000
0000
0000
1000
0000
0001
0000
1000
0000
0100
1000
,
0100
1000
0100
0000
1000
0000
0000
0000
0001
0000
0000
0000
1000
0000
0000
0000
,
0100
1000
0001
0100
0001
0000
0010
0000
,
0100
0000
1000
0000
0010
1000
0100
0010
,
0001
1000
0100
0000
0001
1000
0100
0000
,
1000
0001
0100
0001
1000
0100
1000
0001
,
1000
0000
0100
0000
1000
0001
0010
0001
,
0100
0000
0001
0000
1000
0010
0100
0001
,
0010
0000
0001
0000
1000
0001
1000
0100
,
1000
0001
1000
0001
,
1000
0000
0001
0000
1000
0001
1000
0001
,
1000
0000
0001
0000
0010
0100
0010
0100
,
0010
0000
0001
0000
1000
0100
1000
0010
,
1000
0000
0001
0000
0100
1000
0001
0100
,
0001
0010
0001
0100
0001
0000
1000
1000
,
1000
0000
0001
0000
1000
0100
1000
0010
,
1000
0001
1000
0001
,
1000
0001
1100
0011
,
1100
0000
0101
0000
1010
0000
0001
1000
,
0001
1000
0001
1000
0001
0000
1001
0000
,
0001
1000
0001
1000
0001
0000
0110
0000
,
1000
0001
1000
0001
1000
0001
1000
0000
,
0010
1000
0100
1000
0010
0000
0100
0000
,
0100
1000
0010
1000
0100
0000
0000
0000
,
1000
0010
0100
0000
0001
0000
0100
0000
,
1000
0001
0010
0100
1000
0000
0001
0000
,
0010
0001
0010
0001
0010
0000
1001
0000
,
0010
1000
0100
1000
0010
0000
0000
0000
,
0010
0001
0100
0001
0010
0000
0000
0000
,
0001
0100
1000
0100
0001
0100
1000
0000
,
1000
0100
0010
0100
1000
0000
0001
0000
,
1000
0001
1000
0100
1100
0000
0000
0000
,
0001
0100
0001
1000
1001
0000
1000
0001
,
1000
0000
0001
0100
0001
0010
0001
0000
,
1000
0000
0000
0000
;
