#TITLE:DOODAH!;
#SUBTITLE:(K.O.G Re-edit);
#ARTIST:CARTOONS;
#TITLETRANSLIT:;
#SUBTITLETRANSLIT:;
#ARTISTTRANSLIT:;
#CREDIT:;
#BANNER:DOODAH! (K.O.G. Re-edit).png;
#BACKGROUND:DOODAH! (K.O.G. Re-edit)-bg.png;
#LYRICSPATH:;
#CDTITLE:cd.png;
#MUSIC:DOODAH! (K.O.G. Re-edit).mp3;
#OFFSET:-6.449;
#SAMPLESTART:62.400;
#SAMPLELENGTH:12.000;
#SELECTABLE:YES;
#BPMS:0.000=149.795;
#STOPS:;
#BGCHANGES:;

//---------------dance-single - Basic----------------
#NOTES:
     dance-single:
     Basic:
     Easy:
     2:
     0.217,0.253,0.056,0.000,0.000: // measure 1
1000
1000
1000
0000
,  // measure 2
0001
0000
0001
0000
,  // measure 3
0010
0010
0010
0000
,  // measure 4
0100
0010
0100
0000
,  // measure 5
1000
1000
1000
0000
,  // measure 6
0010
0000
0010
0000
,  // measure 7
0001
0001
0001
0000
,  // measure 8
1000
0001
1000
0000
,  // measure 9
0001
0001
0001
0000
,  // measure 10
0100
0100
0100
0000
,  // measure 11
0010
0010
0010
0000
,  // measure 12
1000
1000
1000
0000
,  // measure 13
1000
0001
1000
0000
,  // measure 14
0010
0100
0010
0000
,  // measure 15
0001
0100
0001
0000
,  // measure 16
1000
0010
1000
0000
,  // measure 17
0001
0000
0000
0000
,  // measure 18
0001
0000
0000
0000
,  // measure 19
0001
0000
0000
0000
,  // measure 20
0001
1000
0001
0000
,  // measure 21
0001
0000
0000
0000
,  // measure 22
0100
0000
0000
0000
,  // measure 23
1000
0000
0000
0000
,  // measure 24
1001
1000
1000
0000
,  // measure 25
0100
0010
0100
0010
,  // measure 26
0100
0100
0010
0010
,  // measure 27
1000
0001
1000
0001
,  // measure 28
1000
0001
0000
0000
,  // measure 29
0100
0001
0100
0001
,  // measure 30
1000
0000
0001
0000
,  // measure 31
0100
1000
0100
0000
,  // measure 32
1001
0000
0000
0000
,  // measure 33
1001
0000
0000
0000
,  // measure 34
1001
0000
0000
0000
,  // measure 35
1001
0000
0000
0000
,  // measure 36
0001
0001
0001
0000
,  // measure 37
1000
0000
1000
0000
,  // measure 38
0100
0100
0100
0000
,  // measure 39
0010
0100
0010
0000
,  // measure 40
0001
0001
0001
0000
,  // measure 41
0100
0000
0100
0000
,  // measure 42
1000
1000
1000
0000
,  // measure 43
0001
1000
0001
0000
,  // measure 44
1000
1000
1000
0000
,  // measure 45
0010
0010
0010
0000
,  // measure 46
0100
0100
0100
0000
,  // measure 47
0001
0001
0001
0000
,  // measure 48
1000
1000
1000
0000
,  // measure 49
0001
0001
0001
0000
,  // measure 50
1000
0001
1000
0001
,  // measure 51
1000
0001
1000
0000
;

//---------------dance-single - Trick----------------
#NOTES:
     dance-single:
     Trick:
     Medium:
     6:
     0.417,0.367,0.389,0.089,0.000:
1001
0100
0010
0010
,
1000
0100
1000
0000
0001
0010
0001
0000
,
1001
0100
0010
0010
,
1000
0100
1000
0001
0010
0000
0000
0000
,
1010
0001
0100
0100
,
0001
1000
0001
0000
0100
0010
0100
0000
,
1010
0001
0100
0100
,
0001
1000
0001
0100
0010
0000
0000
0000
,
0110
0200
0310
0000
,
1100
2000
3100
0000
,
1001
0101
0010
0010
,
1000
0001
1000
0010
0100
0000
0000
0000
,
1001
2000
3001
0000
,
0101
0002
0103
0000
,
0101
1001
0100
0100
,
1000
0010
1000
0001
0100
0000
0000
0000
,
0001
1000
0000
0010
0000
0100
0000
0001
,
0000
1000
0000
0010
0000
0100
0000
0001
,
0000
1000
0000
0010
0000
1000
0000
0001
,
0000
0010
0000
0100
0000
0010
0000
1000
,
0000
1010
0000
0100
0000
0101
0000
0010
,
0000
1010
0000
0100
0000
0101
0000
1000
,
0000
0001
0000
0100
0000
0010
0000
0000
,
0001
0000
0100
0010
0100
0000
0000
0000
,
0001
0000
0100
0000
0001
1000
0001
0000
,
0100
0000
0100
0000
1000
0010
1000
0000
,
1001
0010
1001
0100
,
0001
0000
0010
0000
0100
0010
0100
0000
,
1000
0010
1000
0000
0100
0000
0100
0000
,
0010
1000
0010
0000
1000
0010
1000
0000
,
0010
1000
0010
0001
,
0010
0010
0010
1001
,
1000
1000
1000
1001
,
0001
0001
0001
1001
,
0100
0100
0110
1001
,
0110
0001
1000
1000
,
0100
0001
0100
0000
0010
1000
0010
0000
,
0110
0001
1000
1000
,
0100
0001
0100
0010
1000
0000
0000
0000
,
1100
0001
0010
0010
,
1000
0001
1000
0000
0010
0100
0010
0000
,
1100
0001
0010
0010
,
1000
0001
1000
0010
0100
0000
0000
0000
,
0101
0200
0301
0000
,
1010
2000
3010
0000
,
0101
1001
0100
0100
,
1000
0010
1000
0001
0100
0000
0000
0000
,
1001
2000
3001
0000
,
0101
0002
0103
0000
,
0101
1001
0100
0100
,
1000
0001
0100
0010
1000
0001
0100
0000;

//---------------dance-single - Maniac----------------
#NOTES:
     dance-single:
     Maniac:
     Hard:
     7:
     0.495,0.451,0.244,0.178,0.000:
0001
0100
0010
0000
1000
0010
0100
0000
,
0001
0002
0000
0000
1003
2000
0000
3000
,
0001
0010
0001
1000
0100
1000
0001
0000
,
1010
0000
0100
0010
0100
0000
0000
0000
,
1000
0100
0010
0000
0001
0010
0100
0000
,
0010
0020
0000
0000
0130
0200
0000
0300
,
0010
0100
1000
0001
0010
0100
0010
0000
,
1001
0000
1000
0001
1000
0000
0100
0000
,
0001
0000
1000
0010
2000
0000
3001
0000
,
1000
0000
0001
0100
0002
0000
1003
0000
,
0010
1000
0001
0010
0001
1000
0010
0000
,
0110
0000
0010
1000
0010
0000
0000
0000
,
1010
0000
0010
1000
0020
0000
0130
0000
,
0101
0000
0100
0001
0200
0000
0310
0000
,
0100
0001
0010
0100
1000
0010
0100
0000
,
0110
0000
1000
0001
1000
0000
0001
0000
,
0001
0100
0000
0001
0000
1000
0000
0010
,
0000
0100
0000
1000
0000
0001
0000
0010
,
0000
0100
0000
1000
0000
0001
0000
1000
,
0000
0100
0000
0010
0000
0100
0000
0010
,
0000
0110
0000
1000
0000
0101
0000
0010
,
0000
1100
0000
0010
0000
1001
0000
0100
,
0000
0101
0000
1000
0000
1100
0000
0000
,
0010
0000
1000
0001
0100
0000
0000
0000
,
0001
0100
0001
0000
1000
0100
1000
0000
,
0010
0100
0010
1000
0001
1000
0100
0000
,
1000
0001
0100
0000
0010
0001
1000
0000
,
0010
0100
0010
1000
0010
0100
0001
0000
,
1000
0010
0100
0010
1000
0001
0100
0000
,
0001
0001
0001
0000
1000
1000
1000
0000
,
1000
0001
1000
0000
0001
0100
0001
0000
,
0100
0001
0010
0100
1000
0000
1001
0000
,
0001
1000
0010
0100
0001
0000
1001
0000
,
0010
0100
0001
1000
0100
0000
1001
0000
,
0100
0001
1000
0010
0100
0000
1001
0000
,
0001
0100
0010
0000
1000
0010
0100
0000
,
0001
0002
0000
0000
0103
0200
0000
0300
,
0010
1000
0010
1000
0010
0100
0001
0000
,
0110
0000
0001
0010
0001
0000
0000
0000
,
0001
0100
0001
0000
1000
0100
1000
0000
,
1000
2000
0000
0000
3001
0002
0000
0003
,
1000
0100
0010
0001
0100
0010
1000
0000
,
1001
0000
0100
0010
0100
0000
0100
0000
,
1000
0000
0001
0010
0002
0000
1003
0000
,
0010
0000
1000
0100
2000
0000
3001
0000
,
1000
0100
0010
0001
0100
0010
0100
0000
,
1001
0000
0100
0001
0100
0000
0000
0000
,
0110
0000
0010
0100
0020
0000
1030
0000
,
1010
0000
1000
0010
2000
0000
3001
0000
,
0100
0010
1000
0001
0010
0001
1000
0000
,
1001
0000
0100
0010
0100
0010
0010
0000;
