#TITLE:DON'T TELL ME;
#SUBTITLE:(Factory Eurotrance Remix);
#ARTIST:SHELDON;
#TITLETRANSLIT:;
#SUBTITLETRANSLIT:;
#ARTISTTRANSLIT:;
#CREDIT:;
#BANNER:DON'T TELL ME (Factory Eurotrance Remix).png;
#BACKGROUND:DON'T TELL ME (Factory Eurotrance Remix)-bg.png;
#LYRICSPATH:;
#CDTITLE:Dance Mania COVERS 01.png;
#MUSIC:DON'T TELL ME (Factory Eurotrance Remix) - SHELDON.mp3;
#OFFSET:-5.900;
#SAMPLESTART:56.562;
#SAMPLELENGTH:12.000;
#SELECTABLE:YES;
#BPMS:0.000=144.100,18.000=72.030,70.000=144.100;
#STOPS:;
#BGCHANGES:;

//---------------dance-single - ----------------
#NOTES:
     dance-single:
     :
     Hard:
     7:
     0.382,0.427,0.171,0.181,0.027: // measure 1
0000
0000
0000
0000
0001
0100
0010
0100
,  // measure 2
0001
0100
0010
0100
0001
0100
0010
0100
,  // measure 3
0001
1000
0010
1000
0100
1000
0010
1000
,  // measure 4
0100
1000
0010
1000
0100
0010
0001
0100
,  // measure 5
0010
1000
0100
0000
2002
0000
0000
0000
,  // measure 6
0000
3003
0002
0000
,  // measure 7
0203
0000
0320
0000
,  // measure 8
2030
0000
0000
0000
3100
0000
0010
0100
,  // measure 9
1000
0000
0001
0100
0010
0000
1000
0000
,  // measure 10
2002
0000
3003
0000
0001
0000
1000
0100
,  // measure 11
0010
0000
0100
1000
0010
0000
0100
0001
,  // measure 12
0010
0000
0001
0000
0010
0001
1000
0100
,  // measure 13
0010
0000
0100
1000
0010
0000
0100
0001
,  // measure 14
0010
0000
0001
1000
0110
1000
0001
0100
,  // measure 15
1001
0010
0100
0001
1010
0100
0001
0010
,  // measure 16
1001
0100
0010
1000
0101
1000
0010
1000
,  // measure 17
0001
0100
0001
0000
1000
0000
0100
0000
0010
0000
0001
0000
0100
0000
0010
0000
,  // measure 18
1000
0100
1000
0100
1000
0100
1000
0100
1000
0000
0000
0000
0001
0000
0100
0000
,  // measure 19
0010
1000
0010
1000
0100
0010
0001
0100
,  // measure 20
0010
1000
0002
0000
1000
0000
0100
0000
,  // measure 21
1003
0000
0010
0000
2010
0000
0000
0001
,  // measure 22
0000
0000
3001
0100
0010
0000
1000
0001
,  // measure 23
0010
0100
1000
0010
0100
0001
1000
0010
,  // measure 24
1000
0100
0020
0000
0001
0000
0100
0000
,  // measure 25
0031
0000
1000
0000
2010
0000
0000
0001
,  // measure 26
0000
0000
3010
0100
0001
0000
0201
0000
,  // measure 27
0301
0000
0000
0000
1000
0100
0001
0000
,  // measure 28
1000
0100
0001
0100
1000
0000
0120
0000
,  // measure 29
0130
0000
0000
0000
0001
0010
1000
0000
,  // measure 30
0001
0010
1000
0010
0001
0000
1000
0000
,  // measure 31
0100
0100
0010
0000
0100
1000
0010
0000
,  // measure 32
0100
0001
0010
0000
0101
0000
0101
0000
,  // measure 33
1001
1001
0002
0000
,  // measure 34
0000
0003
0000
0000
1000
0100
0010
0001
,  // measure 35
0100
0010
1000
0001
1000
0010
1000
0100
,  // measure 36
0010
0001
0100
0010
1000
0001
0100
1000
,  // measure 37
0100
0001
1000
0010
1000
0100
1000
0010
,  // measure 38
1000
0100
0001
0000
2002
0000
0000
0000
,  // measure 39
0000
3003
0000
0000
0000
0000
0000
0000
;

//---------------dance-single - ----------------
#NOTES:
     dance-single:
     :
     Easy:
     2:
     0.186,0.220,0.000,0.267,0.000:
0000
0000
1000
0000
,
0100
0000
1000
0000
,
0010
0000
0100
0000
,
0001
0000
0010
0001
,
0100
0010
1000
0000
,
0000
0000
0002
0003
,
2000
3000
0200
0300
,
2000
3000
0002
0003
,
0200
0300
0020
0030
,
2000
3000
0001
1000
,
0200
1300
0020
0130
,
0001
0000
1000
0200
,
1300
0002
0013
0001
,
1000
0100
1000
0001
,
0010
0001
0100
0010
,
1000
0100
1000
0000
,
0001
0100
0010
1000
,
0100
0100
1000
0000
,
0001
0100
0010
0000
,
1000
1000
0100
0000
,
1000
0000
0002
0003
,
2000
3000
0100
0010
,
1000
0000
0001
0000
,
0010
0010
0000
0001
,
0000
1000
0200
0300
,
2000
3000
0010
0100
,
0002
0003
2000
3000
,
0200
0300
2000
3010
,
0100
0000
0002
0003
,
0020
0030
0002
0003
,
0000
0000
1000
0000
,
0100
0000
2000
0000
,
0000
0000
0002
0000
,
3003
0000
1000
0000
,
0100
0000
1000
0000
,
0001
0000
0010
0001
,
1000
0100
0010
1000
,
0001
0100
0010
0000
;

//---------------dance-single - Copied from----------------
#NOTES:
     dance-single:
     Copied from:
     Medium:
     4:
     0.241,0.220,0.107,0.309,0.000:
0000
0000
2000
0001
,
0100
3001
0020
0001
,
0100
0031
2000
0001
,
0010
3001
1000
0010
,
1000
0100
2001
0000
,
0000
0000
0002
3000
,
0200
0003
0020
0030
,
2000
3300
0002
0000
,
0200
0003
0020
0030
,
2000
3300
2002
0003
,
0002
0003
0020
0030
,
0002
3003
0200
0000
,
2000
3000
0020
0030
,
0301
0000
0010
0010
0000
0001
0100
0010
,
0000
1000
0100
1000
0000
0010
0100
0001
,
0000
0010
0001
0100
0000
0010
0000
0000
,
1000
0100
1000
0010
,
0100
0001
0100
0010
1000
0000
0100
0000
,
0010
0001
1001
0010
,
0100
0001
0000
0000
,
0000
0100
2010
0001
,
0010
3001
0000
0100
,
0010
1000
0101
0010
,
1000
0100
0000
0000
,
0000
0010
1002
1000
,
0100
1003
0000
0210
,
0310
0000
1000
0000
,
0100
1000
0000
2001
,
0001
0000
0001
0000
,
0010
0001
3010
0000
,
0001
0000
1000
0100
,
0010
1000
0001
0001
,
0100
0010
2002
0000
,
3003
0000
2000
0001
,
0100
0001
3002
0100
,
1000
0000
0100
0000
2000
0003
0010
0000
,
0100
3010
0100
0001
,
1000
0010
1001
0000
;
