#TITLE:DOCTOR PRESSURE;
#SUBTITLE:;
#ARTIST:MYLO vs MIAMI SOUND MACHINE;
#TITLETRANSLIT:;
#SUBTITLETRANSLIT:;
#ARTISTTRANSLIT:;
#CREDIT:;
#BANNER:DOCTOR PRESSURE.png;
#BACKGROUND:DOCTOR PRESSURE-bg.png;
#LYRICSPATH:;
#CDTITLE:DOCTOR PRESSURE-cd.png;
#MUSIC:DOCTOR PRESSURE.mp3;
#OFFSET:-0.028;
#SAMPLESTART:62.768;
#SAMPLELENGTH:12.000;
#SELECTABLE:YES;
#DISPLAYBPM:124.000;
#BPMS:0.000=129.034;
#STOPS:;
#BGCHANGES:;

//---------------dance-single - ----------------
#NOTES:
     dance-single:
     :
     Hard:
     7:
     0.382,0.400,0.157,0.045,0.140:
0000
0000
0000
0000
,
0000
0000
0000
0000
,
0000
0000
0000
0000
,
0000
0000
0000
0000
,
1000
0010
0100
0001
,
1000
0010
0100
0001
,
1000
0010
0100
0001
,
1001
0000
1001
0000
,
1000
0000
0000
0000
0010
0000
0000
0000
0100
0000
0000
0001
0010
0000
0100
0000
,
1000
0000
0010
0000
0100
0000
0001
1000
0000
0000
0000
0000
0001
0000
0001
0000
,
1000
0000
0000
0000
0100
0000
0000
0000
0010
0000
0000
0001
0010
0000
0100
0000
,
1000
0000
0010
0000
0100
0000
0001
1000
0000
0000
0000
0000
0010
0000
0010
0000
,
0100
0000
0000
0000
0001
0000
0000
0000
0010
0000
0000
0100
1000
0000
0010
0000
,
0100
0000
0001
0000
0100
0000
0010
1000
0000
0000
0000
0000
0001
0000
0001
0000
,
0010
0000
0000
0000
0100
0000
0000
0000
1000
0000
0000
0010
0100
0000
0001
0000
,
0010
0000
0100
0000
1000
0000
0100
0010
0000
0000
0000
0000
0000
0000
0000
0000
,
0001
0000
0010
0000
0100
0000
1000
1000
,
0001
0000
0010
0000
0100
0000
1000
1000
,
0001
0010
0100
0000
,
0000
0000
1001
0000
0000
0000
0001
0001
,
1000
0000
0010
0000
0100
0000
0001
0001
,
1000
0000
0010
0000
0100
0000
0001
0001
,
1000
0010
0100
0000
,
1000
0000
0011
0100
1000
0000
0000
0000
,
1000
0010
0001
0010
,
1000
0100
0001
0100
,
1000
0010
0001
0100
,
1000
1000
0010
0010
0100
0000
0000
0000
,
0001
0010
1000
0010
,
0001
0100
1000
0100
,
0001
0010
1000
0100
,
0001
0001
0100
0100
0010
0000
0000
0000
,
2010
0100
3001
1001
,
0012
0100
1003
1001
,
1000
0000
0010
0000
0100
0000
0001
1000
0000
0000
0000
0000
0001
0000
0001
0000
,
0001
0000
0001
0000
0001
0000
0001
1000
0000
0000
0000
0000
0010
0000
0000
0000
,
0102
0010
1003
1001
,
2100
0010
3001
1001
,
1000
0000
0100
0000
1000
0000
0001
0010
0000
0000
0000
0000
0100
0000
0100
0000
,
0100
0000
0100
0000
0100
0000
0100
1000
0000
0000
0000
0000
0001
0000
0000
0000
,
0010
0000
0001
0000
0100
0000
0001
0010
0000
0000
0000
0000
0010
0000
0010
0000
,
0010
0000
0010
0000
0010
0000
0010
0100
0000
0000
0000
0000
1000
0000
0000
0000
,
0010
0000
0100
0000
0001
0000
0100
0010
0000
0000
0000
0000
1000
0000
1000
0000
,
1000
0000
1000
0000
1000
0000
1000
0001
0000
0000
0000
0000
0000
0000
0000
0000
,
0001
0000
0000
0000
0100
0000
0000
0000
0010
0000
0000
1000
0000
0000
0000
0001
,
0000
0010
0100
0000
1000
0000
1000
0000
0001
0000
0000
1001
0000
0000
0000
0001
,
1000
0000
0000
0000
0010
0000
0000
0000
0100
0000
0000
0001
0000
0000
0000
0010
,
0000
0100
0010
0000
0001
0000
0001
0000
1000
0000
0000
1001
0000
0000
0000
0000
;

//---------------dance-single - ----------------
#NOTES:
     dance-single:
     :
     Medium:
     5:
     0.350,0.374,0.224,0.134,0.000: // measure 1
0000
0000
0000
0000
,  // measure 2
0000
0000
0000
0000
,  // measure 3
0000
0000
0000
0000
,  // measure 4
0000
0000
0000
0000
,  // measure 5
2000
0010
3001
0000
,  // measure 6
0002
0100
1003
0000
,  // measure 7
2000
0010
3001
0000
,  // measure 8
0002
0010
1003
0000
,  // measure 9
0001
0000
0100
0000
0010
0000
1000
0100
,  // measure 10
0010
0001
2000
0000
3001
0000
0000
0000
,  // measure 11
1000
0000
0010
0000
0100
0000
0001
0010
,  // measure 12
0100
1000
0002
0000
1003
0000
0000
0000
,  // measure 13
0010
0000
1000
0000
0100
0000
1000
0010
,  // measure 14
0100
0001
2000
0000
3001
0000
0000
0000
,  // measure 15
0001
0000
0010
0000
0100
0000
1000
0010
,  // measure 16
0100
0001
2000
0000
3001
0000
0000
0000
,  // measure 17
1000
0000
0100
0000
1000
0000
0001
0010
,  // measure 18
0001
0000
1000
0000
0100
0000
1000
0001
,  // measure 19
0010
0001
1000
0000
,  // measure 20
0000
0101
0010
0100
,  // measure 21
1000
0000
0010
0000
1000
0000
0001
0100
,  // measure 22
0001
0000
1000
0000
0010
0000
1000
0001
,  // measure 23
0100
0001
1000
0000
,  // measure 24
1000
0010
1000
0000
,  // measure 25
0011
1010
0011
0100
,  // measure 26
1000
0010
0100
0001
1000
0000
0000
0000
,  // measure 27
0101
1100
0101
0010
,  // measure 28
0001
0010
0100
1000
0001
0000
0000
0000
,  // measure 29
1100
1010
1100
0001
,  // measure 30
0010
0001
0100
0001
0010
0000
0000
0000
,  // measure 31
0011
0101
0011
1000
,  // measure 32
0100
1000
0010
1000
0100
0000
0000
0000
,  // measure 33
2000
0001
3100
0000
,  // measure 34
0002
1000
0103
0000
,  // measure 35
1000
0000
0010
0000
0100
0000
0001
1000
,  // measure 36
0001
1000
0001
1000
0001
0000
0000
0000
,  // measure 37
2000
0010
3001
0000
,  // measure 38
0002
0010
1003
0000
,  // measure 39
1000
0000
0010
0000
0100
0000
0001
1000
,  // measure 40
0001
1000
0001
1000
0001
0000
0000
0000
,  // measure 41
0001
0000
0010
0000
0100
0000
0010
0100
,  // measure 42
0010
0100
0010
0100
0010
0000
0000
0000
,  // measure 43
1000
0000
0010
0000
0100
0000
0001
1000
,  // measure 44
0001
1000
0001
1000
0001
0000
0000
0000
,  // measure 45
1100
0101
1100
0010
,  // measure 46
1000
0010
0100
0001
1000
0000
0000
0000
,  // measure 47
0011
1010
0011
1000
,  // measure 48
0001
0010
0100
1000
0001
0000
1001
0000
;

//---------------dance-single - ----------------
#NOTES:
     dance-single:
     :
     Easy:
     4:
     0.291,0.374,0.459,0.045,0.000:
0000
0000
0000
0000
,
0000
0000
0000
0000
,
0000
0000
0000
0000
,
0000
0000
0000
0000
,
1001
0000
0000
0000
,
1001
0000
0000
0000
,
1001
0000
0000
0000
,
1001
0000
1001
0000
,
1000
0001
1000
0000
,
0001
0001
0001
0000
0001
0000
0000
0000
,
0010
0100
0010
0000
,
0100
0100
0100
0000
0100
0000
0000
0000
,
1000
0010
1000
0000
,
0010
0010
0010
0000
0010
0000
0000
0000
,
0100
0001
0100
0000
,
0001
0001
0001
0000
0001
0000
0000
0000
,
1000
0100
0010
0001
,
1000
0100
0010
0001
,
1000
0100
0010
0000
,
0000
1001
0000
0000
,
0001
0100
0010
1000
,
0001
0100
0010
1000
,
0001
0100
0010
0000
,
1000
1000
1000
0000
1000
0000
0000
0000
,
1001
1001
1001
0000
,
0110
0110
0110
0000
,
1001
1001
1001
0000
,
0001
0001
0001
0000
0001
0000
0000
0000
,
0110
0110
0110
0000
,
1001
1001
1001
0000
,
0110
0110
0110
0000
,
1000
1000
1000
0000
1000
0000
0000
0000
,
2000
0000
3001
0000
,
0002
0000
1003
0000
,
1000
1000
1000
1001
,
1001
1001
1001
0000
,
0002
0000
1003
0000
,
2000
0000
3001
0000
,
0010
0010
0010
0110
,
0110
0110
0110
0000
,
1000
1000
1000
1001
,
1001
1001
1001
0000
,
0100
0100
0100
0110
,
0110
0110
0110
0000
,
1000
0010
1000
0000
,
0001
0001
0001
0000
0001
0000
0000
0000
,
0001
0010
0001
0000
,
1000
1000
1000
0000
1000
0000
1001
0000
;

//---------------dance-single - ----------------
#NOTES:
     dance-single:
     :
     Beginner:
     1:
     0.144,0.266,0.123,0.134,0.000:
0000
0000
0000
0000
,
0000
0000
0000
0000
,
0000
0000
0000
0000
,
0000
0000
0000
0000
,
0001
0000
0000
0000
,
0001
0000
0000
0000
,
0001
0000
0000
0000
,
0001
0000
0000
0000
,
1000
1000
1000
0000
,
0001
0000
0000
0000
,
0010
0010
0010
0000
,
0100
0000
0000
0000
,
1000
1000
1000
0000
,
0001
0000
0000
0000
,
0100
0100
0100
0000
,
0010
0000
0000
0000
,
2000
0000
3000
0000
,
0002
0000
0003
0000
,
2002
0000
3003
0000
,
0000
1001
0000
0000
,
0020
0000
0030
0000
,
0200
0000
0300
0000
,
0220
0000
0330
0000
,
0000
0000
0000
0000
,
1000
0000
1000
0000
,
0001
0000
0001
0000
,
0010
0000
0100
0000
,
0000
0000
0000
0000
,
0010
0000
0010
0000
,
0100
0000
0100
0000
,
0001
0000
1000
0000
,
0000
0000
0000
0000
,
2000
0000
3000
0000
,
0002
0000
0003
0000
,
1000
0000
0000
0000
,
1000
1000
1000
0000
,
2000
0000
3000
0000
,
0002
0000
0003
0000
,
0100
0000
0000
0000
,
0100
0100
0100
0000
,
0010
0000
0000
0000
,
0010
0010
0010
0000
,
0001
0000
0000
0000
,
0001
0001
0001
0000
,
1001
0000
0000
0000
,
1001
1001
1001
0000
,
0110
0000
0000
0000
,
0110
0110
0110
0000
;
